osu file format v12

[General]
AudioFilename: Reon.mp3
AudioLeadIn: 0
PreviewTime: 75900
Countdown: 0
SampleSet: Soft
StackLeniency: 0.7
Mode: 0
LetterboxInBreaks: 0
WidescreenStoryboard: 0

[Editor]
DistanceSpacing: 1.4
BeatDivisor: 4
GridSize: 4

[Metadata]
Title:Reon
TitleUnicode:Reon
Artist:Yuyoyuppe
ArtistUnicode:ゆよゆっぺ
Creator:Irie Miyuki
Version:Hard
Source:
Tags:meola Leia Megurine Luka makar makar8000 sweet_serenitee haruka story of hope vocaloid
BeatmapID:244115
BeatmapSetID:55980

[Difficulty]
HPDrainRate:5
CircleSize:4
OverallDifficulty:7
ApproachRate:8
SliderMultiplier:1.4
SliderTickRate:1

[Events]
//Background and Video events
0,0,"Reon.jpg",0,0
Video,0,"Reon.flv"
//Break Periods
2,16100,20425
2,66210,70535
2,121595,125260
2,142693,151963
//Storyboard Layer 0 (Background)
//Storyboard Layer 1 (Fail)
//Storyboard Layer 2 (Pass)
//Storyboard Layer 3 (Foreground)
//Storyboard Sound Samples
//Background Colour Transformations
3,100,163,162,255

[TimingPoints]
6670,329.67032967033,4,2,1,66,1,0
10625,-100,4,1,1,72,0,0
21175,-133.333333333333,4,2,1,48,0,0
23812,-100,4,1,1,60,0,0
26450,-100,4,1,1,68,0,0
29087,-100,4,1,1,75,0,0
31724,-100,4,1,1,80,0,0
44169,-100,4,1,1,66,0,0
44417,-100,4,1,1,73,0,0
45241,-100,4,1,1,56,0,0
47878,-100,4,1,1,48,0,0
50186,-100,4,1,1,64,0,0
53647,-100,4,1,1,57,0,0
53812,-100,4,1,1,64,0,0
55790,-100,4,1,1,52,0,0
60076,-100,4,1,1,60,0,0
66010,-133.333333333333,4,2,1,60,0,0
75900,-100,4,1,1,36,0,0
76230,-100,4,1,1,53,0,0
76560,-100,4,1,1,71,0,1
79527,-100,4,1,1,80,0,1
81175,-100,4,1,1,64,0,1
81505,-100,4,1,1,71,0,1
81834,-100,4,1,1,79,0,1
84472,-100,4,1,1,84,0,1
86450,-100,4,1,1,68,0,1
86779,-100,4,1,1,75,0,1
87109,-100,4,1,1,82,0,1
92384,-100,4,1,1,86,0,1
96999,-100,4,1,1,64,0,1
97329,-100,4,1,1,72,0,1
100296,-133.333333333333,4,2,1,72,0,0
110186,-133.333333333333,4,2,1,49,0,0
111175,-100,4,2,1,77,0,0
112164,-100,4,2,1,71,0,0
112823,-100,4,2,1,76,0,0
114801,-100,4,2,1,81,0,0
118757,-100,4,2,1,85,0,0
120735,-100,4,1,1,85,0,0
126010,-100,4,1,1,77,0,0
128647,-100,4,1,1,83,0,0
131285,-100,4,1,1,65,0,0
131615,-100,4,1,1,74,0,0
134582,-133.333333333333,4,1,1,53,0,0
135076,-133.333333333333,4,1,1,62,0,0
135571,-133.333333333333,4,2,0,40,0,0
135900,-133.333333333333,4,1,1,73,0,0
137219,-133.333333333333,4,1,1,60,0,0
137713,-133.333333333333,4,1,1,68,0,0
138208,-133.333333333333,4,1,1,77,0,0
139856,-133.333333333333,4,1,1,80,0,0
141999,-133.333333333333,4,1,1,63,0,0
152713,-133.333333333333,4,2,1,68,0,0
155680,-133.333333333333,4,2,1,73,0,0
158153,-133.333333333333,4,2,1,80,0,0
163427,-100,4,2,1,84,0,0
166724,-100,4,2,1,91,0,0
172494,-100,4,2,1,59,0,0
172823,-100,4,1,1,65,0,0
173153,-100,4,1,1,74,0,0
173483,-100,4,1,1,82,0,0
173812,-100,4,1,1,90,0,0
176120,-100,4,2,1,64,0,0
176779,-133.333333333333,4,2,1,72,0,1
177109,-133.333333333333,4,2,1,76,0,0
179087,-133.333333333333,4,2,1,82,0,0
179417,-133.333333333333,4,2,1,82,0,1
179746,-133.333333333333,4,2,1,82,0,0
181395,-100,4,1,1,60,0,0
181724,-100,4,1,1,66,0,0
182219,-100,4,1,1,83,0,0
186669,-100,4,1,1,71,0,0
186999,-100,4,1,1,79,0,0
187329,-100,4,1,1,83,0,1
189966,-100,4,1,1,89,0,1
191944,-100,4,1,1,72,0,1
192274,-100,4,1,1,79,0,1
192604,-100,4,1,1,87,0,1
196889,-100,4,1,1,80,0,1
197384,-100,4,1,1,90,0,1
199856,-100,4,2,1,50,0,1
200516,-100,4,1,1,81,0,1
202658,-100,4,1,1,90,0,1
208428,-100,4,2,1,90,0,0

[Colours]
Combo1 : 255,255,0
Combo2 : 255,0,128
Combo3 : 0,255,128
Combo4 : 255,128,64
Combo5 : 128,255,0

[HitObjects]
256,192,7988,12,2,10296,0:0:0:0:
232,276,10626,6,0,L|216:316,2,35,4|0|0,0:0|0:0|0:0,0:0:0:0:
256,196,10955,1,4,0:0:0:0:
88,192,11285,2,0,L|48:192,2,35,0|0|0,0:0|0:0|0:0,0:0:0:0:
148,132,11615,2,0,L|136:96,2,35,4|0|0,0:0|0:0|0:0,0:0:0:0:
172,212,11944,1,8,0:0:0:0:
340,192,12274,6,0,L|320:160,2,35
420,224,12604,2,0,L|444:196,2,35,4|0|0,0:0|0:0|0:0,0:0:0:0:
352,272,12933,1,8,0:0:0:0:
184,296,13263,2,8,P|104:304|52:264,1,140,0|8,0:0|0:0,0:0:0:0:
256,192,13922,12,4,15900,0:0:0:0:
256,192,21175,12,0,23153,0:0:0:0:
384,252,23812,6,0,B|426:230|424:148|384:132,1,140,4|8,0:0|0:0,0:0:0:0:
336,192,24307,1,8,0:0:0:0:
224,48,24637,1,8,0:0:0:0:
160,88,24801,2,0,P|216:124|288:88,1,140,8|0,0:0|0:0,0:0:0:0:
128,232,25461,2,0,B|176:208|240:240|237:297,2,140,8|0|8,0:0|0:0|0:0,0:0:0:0:
208,136,26450,6,0,B|264:152|312:120|320:64,1,140,8|8,0:0|0:0,0:0:0:0:
376,28,26944,2,0,B|344:60|344:116|384:156,1,140,8|0,0:0|0:0,0:0:0:0:
382,154,27439,1,8,0:0:0:0:
316,292,27768,1,0,0:0:0:0:
176,224,28098,2,0,B|144:256|144:320|184:360,2,140,8|0|8,0:0|0:0|0:0,0:0:0:0:
64,144,29087,5,4,0:0:0:0:
184,64,29417,1,8,0:0:0:0:
184,64,29582,2,0,B|232:80|240:152|208:192,1,140,8|0,0:0|0:0,0:0:0:0:
172,248,30076,2,0,B|196:208|260:200|300:224,1,140,8|0,0:0|0:0,0:0:0:0:
384,112,30735,2,0,B|432:120|480:64|464:24,2,140,8|0|8,0:0|0:0|0:0,0:0:0:0:
200,184,31724,6,0,B|232:216|232:288|192:312,1,140,0|8,0:0|0:0,0:0:0:0:
272,300,32219,2,0,B|312:332|384:324|408:276,1,140
436,356,32713,2,0,B|508:356,2,70,8|0|0,0:0|0:0|0:0,0:0:0:0:
272,300,33373,1,8,0:0:0:0:
324,164,33702,1,0,0:0:0:0:
464,216,34032,1,8,0:0:0:0:
352,352,34362,6,0,B|352:208,1,140,4|8,0:0|0:0,0:0:0:0:
392,144,34856,2,0,B|384:192|315:218|278:191,1,140
280,192,35351,1,8,0:0:0:0:
144,88,35680,1,0,0:0:0:0:
216,64,35845,1,0,0:0:0:0:
288,36,36010,2,0,B|304:84|376:100|408:68,2,140,8|0|8,0:0|0:0|0:0,0:0:0:0:
256,192,36999,5,0,0:0:0:0:
136,120,37329,1,8,0:0:0:0:
136,120,37494,2,0,B|160:152|152:224|112:248,1,140
188,272,37988,2,0,B|220:248|292:264|308:312,1,140,8|0,0:0|0:0,0:0:0:0:
424,88,38648,2,0,B|368:144,1,70,8|0,0:0|0:0,0:0:0:0:
284,128,38977,2,0,B|340:72,1,70
252,60,39307,2,0,B|196:116,1,70,8|0,0:0|0:0,0:0:0:0:
204,188,39637,6,0,P|136:160|124:100,1,140,4|8,0:0|0:0,0:0:0:0:
132,24,40131,2,0,B|132:72|92:112|36:112,1,140
41,111,40626,1,8,0:0:0:0:
152,200,40955,1,0,0:0:0:0:
204,256,41120,1,0,0:0:0:0:
256,312,41285,2,0,B|240:360|160:368|128:328,2,140,8|0|8,0:0|0:0|0:0,0:0:0:0:
400,252,42274,5,0,0:0:0:0:
248,228,42604,1,8,0:0:0:0:
248,228,42768,2,0,B|205:209|177:130|218:91,1,140
284,92,43263,2,0,B|316:60|300:12,1,70,8|0,0:0|0:0,0:0:0:0:
228,36,43593,1,0,0:0:0:0:
300,172,43922,6,0,B|324:236,2,70,8|0|0,0:0|0:0|0:0,0:0:0:0:
260,108,44417,1,0,0:0:0:0:
184,96,44582,1,8,0:0:0:0:
116,128,44746,1,0,0:0:0:0:
96,204,44911,1,0,0:0:0:0:
208,312,45241,6,0,B|236:288|240:240,1,70,8|0,0:0|0:0,0:0:0:0:
132,320,45571,2,0,B|136:360|180:388,1,70
160,248,45900,2,0,B|120:232|88:256,1,70,8|0,0:0|0:0,0:0:0:0:
208,312,46230,1,0,0:0:0:0:
272,356,46395,2,0,B|312:372|352:356,2,70,0|8|0,0:0|0:0|0:0,0:0:0:0:
208,312,46889,5,0,0:0:0:0:
160,248,47054,1,0,0:0:0:0:
192,176,47219,1,8,0:0:0:0:
268,172,47384,1,0,0:0:0:0:
308,236,47549,6,0,B|348:220|356:140|316:108,1,140,0|8,0:0|0:0,0:0:0:0:
160,248,48208,2,0,B|128:280|128:344|168:376,1,140,0|8,0:0|0:0,0:0:0:0:
352,168,48867,5,0,0:0:0:0:
148,36,49197,2,0,L|188:104,1,70,8|0,0:0|0:0,0:0:0:0:
152,168,49527,2,0,B|200:184|256:160|264:104,2,140,0|8|4,0:0|0:0|0:0,0:0:0:0:
96,304,50516,6,0,B|80:232,1,70,8|0,0:0|0:0,0:0:0:0:
160,248,50845,2,0,B|208:248|256:288|256:336,1,140,0|8,0:0|0:0,0:0:0:0:
320,288,51340,2,0,B|328:240|392:216|432:232,1,140
432,152,51834,2,0,B|504:152,2,70,8|0|0,0:0|0:0|0:0,0:0:0:0:
208,144,52494,5,8,0:0:0:0:
152,196,52659,1,0,0:0:0:0:
100,252,52823,2,0,B|116:300|196:308|228:260,1,140,4|8,0:0|0:0,0:0:0:0:
264,208,53318,2,0,B|288:168|368:168|400:216,1,140
412,276,53812,2,0,B|340:276,1,70,8|0,0:0|0:0,0:0:0:0:
264,280,54142,5,0,0:0:0:0:
168,360,54472,1,8,0:0:0:0:
40,296,54801,1,0,0:0:0:0:
64,160,55131,1,8,0:0:0:0:
200,136,55461,5,4,0:0:0:0:
200,136,55790,2,0,B|272:136,2,70,8|0|0,0:0|0:0|0:0,0:0:0:0:
124,136,56285,1,0,0:0:0:0:
72,192,56450,1,8,0:0:0:0:
120,252,56615,2,0,B|200:252,1,70
220,324,56944,2,0,B|140:324,2,70,0|8|0,0:0|0:0|0:0,0:0:0:0:
292,292,57439,5,0,0:0:0:0:
260,224,57604,1,0,0:0:0:0:
292,156,57768,1,8,0:0:0:0:
260,88,57933,1,0,0:0:0:0:
292,16,58098,6,0,B|140:16,1,140,0|8,0:0|0:0,0:0:0:0:
76,156,58757,2,0,B|220:156,1,140,0|8,0:0|0:0,0:0:0:0:
292,156,59252,1,0,0:0:0:0:
368,156,59417,1,0,0:0:0:0:
448,260,59746,5,8,0:0:0:0:
404,324,59911,1,0,0:0:0:0:
404,324,60076,2,0,B|388:372|308:372|284:340,1,140,0|8,0:0|0:0,0:0:0:0:
220,300,60571,1,0,0:0:0:0:
220,300,60735,6,0,B|188:268|188:196|228:164,1,140,4|8,0:0|0:0,0:0:0:0:
188,100,61230,2,0,B|244:108|292:52|272:-4,1,140
200,24,61724,2,0,B|128:24,1,70,8|0,0:0|0:0,0:0:0:0:
112,100,62054,6,0,B|72:92|56:56,2,70,0|0|8,0:0|0:0|0:0,0:0:0:0:
100,180,62549,1,0,0:0:0:0:
144,244,62713,2,0,B|216:244,1,70
276,312,63043,2,0,B|196:312,1,70,8|0,0:0|0:0,0:0:0:0:
128,316,63373,6,0,B|112:364|40:380|0:348,1,140,4|8,0:0|0:0,0:0:0:0:
40,284,63867,2,0,B|0:252|0:188|40:148,1,140
92,108,64362,1,8,0:0:0:0:
160,148,64527,2,0,B|184:220,1,70
304,344,65021,5,8,0:0:0:0:
456,294,65351,1,8,0:0:0:0:
406,142,65680,1,8,0:0:0:0:
256,192,66010,1,12,0:0:0:0:
416,160,71285,5,12,0:0:0:0:
232,80,71779,1,0,0:0:0:0:
232,80,71944,2,0,B|200:136|240:184,1,105.000004005432,10|0,0:0|0:0,0:0:0:0:
192,236,72439,2,0,B|208:292|184:340,2,105.000004005432,2|0|0,0:0|0:0|0:0,0:0:0:0:
192,236,73263,5,10,0:0:0:0:
308,236,73593,1,0,0:0:0:0:
300,120,73922,2,0,B|244:88|196:120,1,105.000004005432,10|0,0:0|0:0,0:0:0:0:
160,176,74417,1,0,0:0:0:0:
128,240,74582,2,0,B|24:240,1,105.000004005432,10|0,0:0|0:0,0:0:0:0:
192,300,75241,2,0,B|296:300,1,105.000004005432,10|0,0:0|0:0,0:0:0:0:
416,144,75900,6,0,B|369:133|336:166,1,70
472,272,76230,2,0,B|496:230|474:189,1,70,0|0,0:0|0:0,0:0:0:0:
392,236,76560,6,0,B|384:281|320:313|281:288,1,140,4|8,0:0|0:0,0:0:0:0:
220,340,77054,2,0,B|260:316|268:244|220:212,1,140
128,128,77549,1,8,0:0:0:0:
228,220,77713,2,0,L|300:220,1,70
424,80,78043,2,0,B|352:80,2,70,0|8|0,0:0|0:0|0:0,0:0:0:0:
384,184,78538,5,0,0:0:0:0:
320,296,78702,1,0,0:0:0:0:
320,152,78867,1,8,0:0:0:0:
384,256,79032,1,0,0:0:0:0:
304,224,79197,6,0,P|252:180|268:100,1,140
384,184,79691,2,0,P|412:236|388:312,1,140
304,328,80186,1,8,0:0:0:0:
212,344,80351,2,0,B|140:344,1,70
92,256,80680,2,0,B|164:256,2,70,0|8|0,0:0|0:0|0:0,0:0:0:0:
72,152,81175,5,0,0:0:0:0:
64,56,81340,1,0,0:0:0:0:
160,16,81505,1,8,0:0:0:0:
224,104,81670,1,0,0:0:0:0:
173,184,81834,6,0,B|168:232|216:272|280:264,1,140,4|8,0:0|0:0,0:0:0:0:
264,344,82329,2,0,B|256:296|312:248|368:264,1,140
432,176,82823,1,8,0:0:0:0:
240,72,83153,5,0,0:0:0:0:
112,216,83483,2,0,B|120:264|168:280,1,70,8|0,0:0|0:0,0:0:0:0:
280,176,83812,2,0,B|232:168|200:200,1,70
240,344,84142,2,0,B|272:304|256:256,1,70,8|0,0:0|0:0,0:0:0:0:
347,163,84472,6,0,B|328:200|352:248,2,70,0|0|8,0:0|0:0|0:0,0:0:0:0:
424,200,84966,1,0,0:0:0:0:
448,288,85131,2,0,B|488:272|504:224,1,70
400,136,85461,2,0,B|424:168|424:208,1,70,8|0,0:0|0:0,0:0:0:0:
320,256,85790,5,0,0:0:0:0:
240,216,85955,1,0,0:0:0:0:
184,152,86120,1,8,0:0:0:0:
168,72,86285,1,0,0:0:0:0:
96,136,86450,5,0,0:0:0:0:
184,152,86615,1,0,0:0:0:0:
272,136,86779,1,8,0:0:0:0:
340,72,86944,1,0,0:0:0:0:
408,12,87109,6,0,B|432:36|434:73|434:73|470:85|490:119,1,140,4|8,0:0|0:0,0:0:0:0:
404,164,87604,2,0,B|364:183|364:262|404:289,1,140
316,320,88098,1,8,0:0:0:0:
224,304,88263,2,0,B|176:296|144:248,1,70
248,136,88593,2,0,B|264:184|232:224,1,70,0|8,0:0|0:0,0:0:0:0:
160,176,88922,1,0,0:0:0:0:
64,184,89087,5,0,0:0:0:0:
160,176,89252,1,0,0:0:0:0:
248,136,89417,1,8,0:0:0:0:
336,176,89582,1,0,0:0:0:0:
352,264,89746,6,0,B|384:272|420:252|420:252|456:296|496:304,1,140,4|8,0:0|0:0,0:0:0:0:
352,352,90241,2,0,B|301:366|236:330|236:265,1,140
240,200,90735,1,8,0:0:0:0:
176,128,90900,2,0,B|224:112|240:64,1,70
72,136,91230,2,0,B|24:136|0:184,2,70,0|8|0,0:0|0:0|0:0,0:0:0:0:
72,136,91724,5,0,0:0:0:0:
176,128,91889,1,0,0:0:0:0:
264,176,92054,1,8,0:0:0:0:
320,256,92219,1,0,0:0:0:0:
240,304,92384,2,0,B|248:352|304:360,2,70,4|0|8,0:0|0:0|0:0,0:0:0:0:
196,225,92878,2,0,B|200:184|156:125|112:128,1,140
40,240,93373,2,0,B|80:240|112:216,1,70,8|0,0:0|0:0,0:0:0:0:
207,108,93702,5,0,0:0:0:0:
229,359,94032,1,8,0:0:0:0:
87,184,94362,1,0,0:0:0:0:
338,283,94691,1,8,0:0:0:0:
98,316,95021,1,4,0:0:0:0:
328,152,95351,1,8,0:0:0:0:
328,152,95516,6,0,B|335:101|407:72|457:101,1,140
408,192,96010,1,8,0:0:0:0:
408,192,96175,2,0,B|400:242|328:271|278:242,1,140
224,224,96670,1,8,0:0:0:0:
136,184,96834,1,0,0:0:0:0:
144,280,96999,1,8,0:0:0:0:
244,224,97164,5,8,0:0:0:0:
128,170,97329,1,8,0:0:0:0:
138,296,97494,1,8,0:0:0:0:
256,192,97659,12,0,99637,0:0:0:0:
176,240,100296,5,4,0:0:0:0:
176,240,100626,2,0,B|232:240,1,52.5000020027161
272,160,100955,2,0,B|208:160,2,52.5000020027161,2|0|0,0:0|0:0|0:0,0:0:0:0:
348,160,101450,1,0,0:0:0:0:
424,160,101615,5,2,0:0:0:0:
424,160,101944,2,0,B|424:216,1,52.5000020027161,0|0,0:0|0:0,0:0:0:0:
348,256,102274,2,0,B|348:203,2,52.5000020027161,2|0|0,0:0|0:0|0:0,0:0:0:0:
348,332,102768,1,0,0:0:0:0:
272,332,102933,2,0,B|220:364|160:328,1,105.000004005432,2|0,0:0|0:0,0:0:0:0:
64,188,103593,2,0,B|120:160|180:192,1,105.000004005432,2|0,0:0|0:0,0:0:0:0:
304,128,104252,5,0,0:0:0:0:
304,128,104582,2,0,B|304:72,2,52.5000020027161,0|0|2,0:0|0:0|0:0,0:0:0:0:
304,308,105241,2,0,B|304:244,1,52.5000020027161
304,180,105571,6,0,B|256:156|200:180,1,105.000004005432,4|0,0:0|0:0,0:0:0:0:
168,248,106065,2,0,B|112:272|56:248,1,105.000004005432
68,176,106560,2,0,B|124:176,1,52.5000020027161,2|0,0:0|0:0,0:0:0:0:
168,116,106889,6,0,B|224:116,2,52.5000020027161,0|0|0,0:0|0:0|0:0,0:0:0:0:
200,248,107549,1,0,0:0:0:0:
200,248,107713,6,0,B|136:248,2,52.5000020027161
260,296,108208,2,0,B|308:336|364:312,1,105.000004005432,2|0,0:0|0:0,0:0:0:0:
416,268,108702,2,0,B|456:220|432:156,1,105.000004005432,0|0,0:0|0:0,0:0:0:0:
372,132,109197,2,0,B|316:132,1,52.5000020027161,2|0,0:0|0:0,0:0:0:0:
244,132,109527,5,4,0:0:0:0:
112,248,109856,1,0,0:0:0:0:
144,72,110186,1,2,0:0:0:0:
224,248,110516,1,0,0:0:0:0:
64,152,110845,1,2,0:0:0:0:
188,208,111175,6,0,B|204:256|180:304,2,70,8|0|0,0:0|0:0|0:0,0:0:0:0:
112,204,111670,2,0,B|96:164|112:124,2,70,0|8|0,0:0|0:0|0:0,0:0:0:0:
60,260,112164,1,0,0:0:0:0:
104,324,112329,2,0,B|136:340|184:324,1,70,0|8,0:0|0:0,0:0:0:0:
204,256,112659,2,0,B|172:240|132:256,1,70
92,192,112988,1,0,0:0:0:0:
144,136,113153,1,8,0:0:0:0:
216,160,113318,1,0,0:0:0:0:
284,200,113483,6,0,B|332:176|380:224|436:192,1,140,0|8,0:0|0:0,0:0:0:0:
320,316,114142,2,0,B|279:335|232:300|183:319,1,140,0|8,0:0|0:0,0:0:0:0:
104,160,114801,5,0,0:0:0:0:
104,160,115131,2,0,B|176:160,1,70,8|0,0:0|0:0,0:0:0:0:
240,204,115461,2,0,B|192:220|184:300|224:332,2,140,0|8|0,0:0|0:0|0:0,0:0:0:0:
352,68,116450,6,0,B|392:132,1,70,10|0,0:0|0:0,0:0:0:0:
468,144,116779,2,0,B|468:192|396:232|348:192,1,140,10|8,0:0|0:0,0:0:0:0:
328,272,117274,2,0,B|293:247|221:279|221:327,1,140,10|0,0:0|0:0,0:0:0:0:
144,308,117768,2,0,B|72:308,2,70,10|0|8,0:0|0:0|0:0,0:0:0:0:
152,108,118428,5,8,0:0:0:0:
200,168,118593,1,0,0:0:0:0:
244,228,118757,2,0,B|204:252|204:324|244:356,1,140,4|8,0:0|0:0,0:0:0:0:
148,336,119252,2,0,B|132:289|73:274|28:298,1,140,0|0,0:0|0:0,0:0:0:0:
32,220,119746,2,0,B|32:148,1,70,8|0,0:0|0:0,0:0:0:0:
36,72,120076,5,0,0:0:0:0:
128,196,120406,1,8,0:0:0:0:
216,72,120735,1,0,0:0:0:0:
312,196,121065,1,8,0:0:0:0:
400,72,121395,1,12,0:0:0:0:
96,128,126010,5,0,0:0:0:0:
96,128,126340,1,8,0:0:0:0:
96,128,126670,2,0,B|104:176|104:176|128:200|128:200|144:256,1,140,4|8,0:0|0:0,0:0:0:0:
208,184,127164,1,0,0:0:0:0:
208,184,127329,2,0,B|232:248|232:248|280:232|312:240,1,140,0|8,0:0|0:0,0:0:0:0:
302,238,127823,1,0,0:0:0:0:
136,328,128153,6,0,B|64:328,2,70,0|8|0,0:0|0:0|0:0,0:0:0:0:
112,256,128648,2,0,B|168:256|168:256|192:272|192:272|264:272,1,140,0|8,0:0|0:0,0:0:0:0:
320,136,129307,2,0,B|296:160|288:200|288:200|216:200,1,140,4|8,0:0|0:0,0:0:0:0:
144,200,129801,1,0,0:0:0:0:
64,152,129966,5,0,0:0:0:0:
64,152,130131,1,0,0:0:0:0:
136,88,130296,1,8,0:0:0:0:
136,88,130461,1,0,0:0:0:0:
216,152,130626,6,0,P|240:176|256:216,1,70
144,296,130955,2,0,P|152:263|179:229,1,70,8|0,0:0|0:0,0:0:0:0:
304,272,131285,2,0,P|272:288|232:288,1,70,8|8,0:0|0:0,0:0:0:0:
238,289,131615,1,8,0:0:0:0:
256,192,131944,12,0,133922,0:0:0:0:
112,144,134582,6,0,B|176:144,2,52.5000020027161,4|0|8,0:0|0:0|0:0,0:0:0:0:
160,232,135076,2,0,B|216:232,2,52.5000020027161,4|0|0,0:0|0:0|0:0,0:0:0:0:
240,312,135571,1,4,0:0:0:0:
296,232,135735,1,4,0:0:0:0:
360,144,135900,6,0,B|304:144,2,52.5000020027161,4|0|0,0:0|0:0|0:0,0:0:0:0:
400,224,136395,1,0,0:0:0:0:
360,288,136560,2,0,B|320:320,1,52.5000020027161
200,312,136889,2,0,B|240:280,1,52.5000020027161,8|0,0:0|0:0,0:0:0:0:
152,200,137219,6,0,B|112:168,2,52.5000020027161,4|0|8,0:0|0:0|0:0,0:0:0:0:
256,200,137713,2,0,B|296:160,2,52.5000020027161,4|0|0,0:0|0:0|0:0,0:0:0:0:
256,296,138208,2,0,B|296:328,2,52.5000020027161,8|0|0,0:0|0:0|0:0,0:0:0:0:
152,296,138702,6,0,B|88:296,2,52.5000020027161,4|8|0,0:0|0:0|0:0,0:0:0:0:
256,256,139197,2,0,B|320:256,1,52.5000020027161,4|0,0:0|0:0,0:0:0:0:
336,160,139527,2,0,B|392:160,1,52.5000020027161
224,184,139856,6,0,B|168:184,1,52.5000020027161,4|0,0:0|0:0,0:0:0:0:
200,112,140186,1,0,0:0:0:0:
304,88,140351,6,0,B|368:88,1,52.5000020027161,0|8,0:0|0:0,0:0:0:0:
336,160,140680,1,8,0:0:0:0:
296,232,140845,6,0,B|240:232,1,52.5000020027161,4|0,0:0|0:0,0:0:0:0:
272,304,141175,1,8,0:0:0:0:
140,296,141340,6,0,B|88:296,1,52.5000020027161,0|8,0:0|0:0,0:0:0:0:
112,224,141669,1,8,0:0:0:0:
208,160,141834,6,0,B|264:160,2,52.5000020027161,4|0|0,0:0|0:0|0:0,0:0:0:0:
136,160,142329,2,0,L|64:160,1,52.5000020027161,8|4,0:0|0:0,0:0:0:0:
176,296,152713,5,2,0:0:0:0:
176,296,153043,2,0,B|232:328|288:288,1,105.000004005432,4|0,0:0|0:0,0:0:0:0:
348,320,153538,2,0,B|452:320,2,105.000004005432,2|0|0,0:0|0:0|0:0,0:0:0:0:
272,216,154527,1,2,0:0:0:0:
272,216,154856,2,0,B|224:248|168:216,1,105.000004005432,0|0,0:0|0:0,0:0:0:0:
120,164,155351,5,0,0:0:0:0:
132,88,155516,1,0,0:0:0:0:
192,44,155680,2,0,B|248:20|296:44,1,105.000004005432,4|0,0:0|0:0,0:0:0:0:
340,104,156175,2,0,B|388:136|452:120,2,105.000004005432,2|0|0,0:0|0:0|0:0,0:0:0:0:
284,156,156999,1,2,0:0:0:0:
196,232,157329,1,0,0:0:0:0:
80,160,157659,6,0,B|24:168,2,52.5000020027161,2|0|0,0:0|0:0|0:0,0:0:0:0:
152,140,158153,2,0,B|216:132|248:180,1,105.000004005432,4|0,0:0|0:0,0:0:0:0:
244,175,158648,1,0,0:0:0:0:
360,272,158977,6,0,B|416:288,2,52.5000020027161,2|0|0,0:0|0:0|0:0,0:0:0:0:
288,244,159472,2,0,B|232:220|184:244,1,105.000004005432,4|0,0:0|0:0,0:0:0:0:
186,242,159966,1,0,0:0:0:0:
192,48,160296,5,0,0:0:0:0:
228,116,160461,1,0,0:0:0:0:
304,132,160626,1,0,0:0:0:0:
376,104,160790,2,0,B|424:136|424:192,1,105.000004005432,2|0,0:0|0:0,0:0:0:0:
380,256,161285,1,0,0:0:0:0:
312,292,161450,2,0,B|272:332|192:276|144:316,1,157.500006008148
120,240,162109,1,0,0:0:0:0:
84,172,162274,6,0,B|52:124,1,52.5000020027161,8|0,0:0|0:0,0:0:0:0:
128,100,162604,2,0,B|136:44,1,52.5000020027161,8|0,0:0|0:0,0:0:0:0:
208,72,162933,2,0,B|248:32,1,52.5000020027161,8|0,0:0|0:0,0:0:0:0:
292,96,163263,2,0,B|340:80,1,52.5000020027161,8|8,0:0|0:0,0:0:0:0:
372,152,163593,6,0,B|428:160|476:128|482:87,1,140,12|8,0:0|0:0,0:0:0:0:
292,96,164087,2,0,B|256:136|265:201|313:234,1,140
376,284,164582,1,8,0:0:0:0:
300,344,164746,2,0,P|236:324|156:352,1,140
76,376,165241,1,8,0:0:0:0:
76,376,165406,1,0,0:0:0:0:
208,96,165900,6,0,B|232:32,1,70,8|0,0:0|0:0,0:0:0:0:
296,80,166230,2,0,B|328:120|320:192|272:216,1,140,4|8,0:0|0:0,0:0:0:0:
208,220,166724,2,0,B|168:236|152:316|176:348,1,140
268,292,167219,1,8,0:0:0:0:
352,240,167384,2,0,B|392:224|408:144|384:112,1,140,2|0,0:0|0:0,0:0:0:0:
288,72,167878,1,8,0:0:0:0:
288,72,168043,1,0,0:0:0:0:
176,136,168208,2,0,B|136:144|104:128,2,70,0|0|8,0:0|0:0|0:0,0:0:0:0:
192,328,168867,5,4,0:0:0:0:
352,216,169197,1,10,0:0:0:0:
160,256,169527,1,0,0:0:0:0:
320,144,169856,1,10,0:0:0:0:
128,184,170186,1,0,0:0:0:0:
288,72,170516,1,10,0:0:0:0:
136,84,170845,5,2,0:0:0:0:
212,104,171010,1,0,0:0:0:0:
248,172,171175,1,8,0:0:0:0:
240,248,171340,1,0,0:0:0:0:
188,304,171505,2,0,B|204:352|284:352|308:312,1,140,4|8,0:0|0:0,0:0:0:0:
380,292,171999,2,0,B|404:260|452:260,1,70
440,260,172329,1,0,0:0:0:0:
464,184,172494,6,0,B|488:120,1,70,8|0,0:0|0:0,0:0:0:0:
352,128,172823,2,0,B|352:56,1,70
236,84,173153,2,0,B|172:52,1,70,8|0,0:0|0:0,0:0:0:0:
152,160,173483,2,0,B|80:176,1,70
184,272,173812,2,0,B|152:336,2,70,8|0|0,0:0|0:0|0:0,0:0:0:0:
80,120,176120,5,8,0:0:0:0:
32,180,176285,1,0,0:0:0:0:
88,236,176450,1,0,0:0:0:0:
40,292,176615,1,0,0:0:0:0:
88,348,176779,2,0,B|128:364|176:340|184:300,1,105.000004005432,8|0,0:0|0:0,0:0:0:0:
200,240,177274,2,0,B|190:207|208:152|238:133,2,105.000004005432,0|2|0,0:0|0:0|0:0,0:0:0:0:
200,240,178263,1,0,0:0:0:0:
320,68,178757,6,0,L|380:88,1,52.5000020027161,8|0,0:0|0:0,0:0:0:0:
444,96,179087,2,0,L|464:152,1,52.5000020027161,0|0,0:0|0:0,0:0:0:0:
464,224,179417,2,0,B|448:272|392:280|368:264,1,105.000004005432,8|0,0:0|0:0,0:0:0:0:
308,240,179911,2,0,B|292:208|244:192|204:208,1,105.000004005432,0|2,0:0|0:0,0:0:0:0:
136,136,180571,1,2,0:0:0:0:
272,136,180900,1,0,0:0:0:0:
248,296,181395,5,0,0:0:0:0:
336,256,181724,1,8,0:0:0:0:
364,164,182054,5,4,0:0:0:0:
352,164,182713,1,0,0:0:0:0:
340,164,183373,1,0,0:0:0:0:
328,164,184032,1,0,0:0:0:0:
216,216,184362,5,8,0:0:0:0:
108,280,184691,2,0,B|108:320|132:352,2,70,4|0|8,0:0|0:0|0:0,0:0:0:0:
144,120,185186,2,0,B|144:80|120:48,2,70
40,192,185680,2,0,B|40:152|64:120,1,70,8|0,0:0|0:0,0:0:0:0:
128,200,186010,5,4,0:0:0:0:
208,192,186175,1,0,0:0:0:0:
272,144,186340,1,8,0:0:0:0:
304,64,186505,1,0,0:0:0:0:
208,80,186670,5,0,0:0:0:0:
272,144,186834,1,0,0:0:0:0:
288,232,186999,1,8,0:0:0:0:
232,304,187164,1,0,0:0:0:0:
136,264,187329,6,0,B|96:248|80:160|120:128,1,140,4|8,0:0|0:0,0:0:0:0:
176,64,187823,2,0,B|200:32|280:32|312:72,1,140
392,136,188318,1,8,0:0:0:0:
312,336,188483,2,0,B|352:336|384:296,1,70,0|0,0:0|0:0,0:0:0:0:
467,261,188812,2,0,B|456:232|416:216,1,70,0|8,0:0|0:0,0:0:0:0:
320,208,189142,1,0,0:0:0:0:
240,272,189307,5,0,0:0:0:0:
312,336,189472,1,0,0:0:0:0:
408,304,189637,1,8,0:0:0:0:
425,207,189801,1,0,0:0:0:0:
312,168,189966,6,0,B|304:120|224:104|192:136,1,140,4|8,0:0|0:0,0:0:0:0:
80,200,190461,2,0,B|88:248|168:264|200:232,1,140
312,168,190955,1,8,0:0:0:0:
196,132,191120,2,0,B|187:83|108:68|75:99,1,140
16,192,191615,2,0,B|16:232|32:264,1,70,8|0,0:0|0:0,0:0:0:0:
112,304,191944,5,0,0:0:0:0:
196,132,192274,1,8,0:0:0:0:
40,176,192604,2,0,B|50:211|114:235|162:211,1,140,4|8,0:0|0:0,0:0:0:0:
272,224,193098,2,0,B|304:196|376:212|394:260,1,140
264,320,193593,2,0,B|224:328|192:304,1,70,8|0,0:0|0:0,0:0:0:0:
112,200,193922,6,0,B|96:160|112:120,1,70
264,176,194252,2,0,B|276:212|264:256,1,70,8|0,0:0|0:0,0:0:0:0:
192,296,194582,2,0,B|176:256|192:216,1,70
336,288,194912,2,0,B|352:328|336:368,1,70,8|0,0:0|0:0,0:0:0:0:
264,320,195241,5,0,0:0:0:0:
196,80,195571,1,8,0:0:0:0:
196,80,195735,2,0,B|220:48|300:48|324:80,2,140
304,256,196889,6,0,L|376:280,2,70,8|0|0,0:0|0:0|0:0,0:0:0:0:
208,256,197384,2,0,L|136:280,2,70,0|8|0,0:0|0:0|0:0,0:0:0:0:
256,192,197878,12,2,199856,0:0:0:0:
104,112,200516,5,4,0:0:0:0:
168,216,200845,1,0,0:0:0:0:
168,216,201010,2,0,B|200:184|272:184|304:224,1,140
368,264,201505,2,0,B|344:304|272:304|240:272,1,140,8|4,0:0|0:0,0:0:0:0:
168,112,202164,5,8,0:0:0:0:
50,100,202494,2,0,B|32:136|56:200|104:216,1,140,0|8,0:0|0:0,0:0:0:0:
256,192,203153,12,4,208428,0:0:0:0:
