osu file format v12

[General]
AudioFilename: Reon.mp3
AudioLeadIn: 0
PreviewTime: 75900
Countdown: 0
SampleSet: Soft
StackLeniency: 0.7
Mode: 0
LetterboxInBreaks: 0
WidescreenStoryboard: 1

[Editor]
DistanceSpacing: 1
BeatDivisor: 2
GridSize: 4

[Metadata]
Title:Reon
TitleUnicode:Reon
Artist:Yuyoyuppe
ArtistUnicode:ゆよゆっぺ
Creator:Irie Miyuki
Version:Easy
Source:
Tags:meola Leia Megurine Luka makar makar8000 sweet_serenitee haruka story of hope vocaloid
BeatmapID:244114
BeatmapSetID:55980

[Difficulty]
HPDrainRate:2
CircleSize:3
OverallDifficulty:2
ApproachRate:3
SliderMultiplier:0.8
SliderTickRate:1

[Events]
//Background and Video events
0,0,"Reon.jpg",0,0
Video,0,"Reon.flv"
//Break Periods
2,16100,22372
2,66210,69845
2,121594,124570
2,140056,151273
//Storyboard Layer 0 (Background)
//Storyboard Layer 1 (Fail)
//Storyboard Layer 2 (Pass)
//Storyboard Layer 3 (Foreground)
//Storyboard Sound Samples
//Background Colour Transformations
3,100,163,162,255

[TimingPoints]
6670,329.67032967033,4,2,1,66,1,0
10625,-100,4,1,1,72,0,0
23812,-100,4,1,1,60,0,0
26450,-100,4,1,1,68,0,0
29087,-100,4,1,1,75,0,0
31724,-100,4,1,1,80,0,0
44169,-100,4,1,1,66,0,0
44417,-100,4,1,1,73,0,0
45241,-100,4,1,1,56,0,0
47878,-100,4,1,1,48,0,0
48043,-100,4,1,1,56,0,0
50186,-100,4,1,1,64,0,0
55790,-100,4,1,1,52,0,0
60076,-100,4,1,1,60,0,0
60241,-100,4,1,1,65,0,0
60735,-100,4,1,1,71,0,0
66010,-100,4,2,1,60,0,0
76560,-100,4,1,1,71,0,1
79527,-100,4,1,1,80,0,1
81175,-100,4,1,1,64,0,1
81834,-100,4,1,1,79,0,1
84472,-100,4,1,1,84,0,1
86450,-100,4,1,1,68,0,1
86779,-100,4,1,1,75,0,1
92384,-100,4,1,1,86,0,1
96999,-100,4,1,1,64,0,1
97329,-100,4,1,1,72,0,1
98977,-100,4,1,1,72,0,0
100296,-100,4,2,1,72,0,0
114801,-100,4,2,1,81,0,0
118757,-100,4,2,1,85,0,0
120735,-100,4,1,1,85,0,0
121395,-100,4,2,1,85,0,0
126010,-100,4,1,1,77,0,0
128647,-100,4,1,1,83,0,0
134582,-100,4,1,1,53,0,0
152713,-100,4,2,1,68,0,0
158153,-100,4,2,1,80,0,0
176120,-100,4,2,1,64,0,0
176779,-100,4,2,1,72,0,1
177109,-100,4,2,1,76,0,0
179087,-100,4,2,1,82,0,0
179417,-100,4,2,1,82,0,1
179746,-100,4,2,1,82,0,0
180571,-100,4,2,1,55,0,0
181395,-100,4,1,1,60,0,0
181724,-100,4,1,1,66,0,0
182219,-100,4,1,1,83,0,0
186669,-100,4,1,1,71,0,0
187329,-100,4,1,1,83,0,1
189966,-100,4,1,1,89,0,1
191944,-100,4,1,1,72,0,1
192274,-100,4,1,1,79,0,1
192604,-100,4,1,1,87,0,1
196889,-100,4,1,1,80,0,1
197384,-100,4,1,1,90,0,1
200516,-100,4,1,1,81,0,1
202658,-100,4,1,1,90,0,1
208428,-100,4,2,1,90,0,0

[Colours]
Combo1 : 255,255,0
Combo2 : 255,0,128
Combo3 : 0,255,128
Combo4 : 255,128,64
Combo5 : 128,255,0

[HitObjects]
124,216,10626,2,0,P|68:196|20:204,2,80,4|4|0,0:0|0:0|0:0,0:0:0:0:
164,284,11615,2,0,P|252:324|332:288,1,160,4|0,0:0|0:0,0:0:0:0:
340,232,12604,2,0,P|384:216|440:224,1,80,4|0,0:0|0:0,0:0:0:0:
432,140,13263,2,0,P|476:164|496:200,2,80,0|0|0,0:0|0:0|0:0,0:0:0:0:
256,192,14252,12,4,15900,0:0:0:0:
128,288,23812,6,0,P|216:292|280:224,1,160,4|0,0:0|0:0,0:0:0:0:
300,176,24801,1,8,0:0:0:0:
68,112,25790,1,0,0:0:0:0:
220,160,26450,6,0,P|264:224|248:320,1,160,0|0,0:0|0:0,0:0:0:0:
220,372,27439,1,8,0:0:0:0:
56,196,28428,2,0,P|64:148|96:116,1,80,0|8,0:0|0:0,0:0:0:0:
160,100,29087,6,0,L|328:104,1,160,0|0,0:0|0:0,0:0:0:0:
400,104,30076,1,8,0:0:0:0:
260,300,31065,1,0,0:0:0:0:
116,228,31724,6,0,P|136:152|88:68,1,160,4|0,0:0|0:0,0:0:0:0:
24,64,32713,2,0,L|204:80,1,160,8|8,0:0|0:0,0:0:0:0:
264,88,33702,1,0,0:0:0:0:
344,96,34032,1,0,0:0:0:0:
424,108,34362,6,0,P|456:180|428:256,1,160,4|0,0:0|0:0,0:0:0:0:
368,304,35351,1,8,0:0:0:0:
184,148,36340,1,0,0:0:0:0:
40,220,36999,6,0,P|16:144|48:64,1,160,0|0,0:0|0:0,0:0:0:0:
108,28,37988,1,8,0:0:0:0:
252,100,38648,2,0,P|280:68|288:24,2,80,8|0|8,0:0|0:0|0:0,0:0:0:0:
212,168,39637,6,0,P|276:216|360:200,1,160,4|0,0:0|0:0,0:0:0:0:
412,152,40626,1,8,0:0:0:0:
184,80,41615,1,0,0:0:0:0:
332,140,42274,6,0,L|316:280,1,120,0|0,0:0|0:0,0:0:0:0:
200,240,43263,2,0,L|216:100,1,120,8|0,0:0|0:0,0:0:0:0:
100,88,44252,2,0,L|88:196,1,80,0|0,0:0|0:0,0:0:0:0:
140,320,45241,5,8,0:0:0:0:
244,200,45900,1,8,0:0:0:0:
312,344,46560,2,0,P|360:352|400:324,2,80,0|0|0,0:0|0:0|0:0,0:0:0:0:
344,272,47549,6,0,P|360:232|360:192,1,80,0|0,0:0|0:0,0:0:0:0:
312,44,48538,1,0,0:0:0:0:
160,88,49197,1,0,0:0:0:0:
100,140,49527,2,0,L|92:224,1,80,0|8,0:0|0:0,0:0:0:0:
80,300,50186,6,0,P|168:260|288:332,1,240,0|8,0:0|0:0,0:0:0:0:
364,344,51505,2,0,P|416:264|372:128,1,240,0|8,0:0|0:0,0:0:0:0:
300,112,52823,6,0,L|136:128,1,160,2|0,0:0|0:0,0:0:0:0:
64,268,54142,2,0,L|228:252,1,160,0|0,0:0|0:0,0:0:0:0:
384,244,55461,6,0,P|396:204|388:152,1,80,0|8,0:0|0:0,0:0:0:0:
260,76,56450,1,0,0:0:0:0:
292,232,57109,1,8,0:0:0:0:
412,128,57768,1,8,0:0:0:0:
340,92,58098,6,0,L|260:76,1,80,0|0,0:0|0:0,0:0:0:0:
116,144,59087,1,8,0:0:0:0:
120,304,59746,2,0,P|140:336|188:360,2,80,8|0|8,0:0|0:0|0:0,0:0:0:0:
196,276,60735,6,0,P|260:176|168:72,1,240,4|8,0:0|0:0,0:0:0:0:
128,52,62054,1,0,0:0:0:0:
56,196,62713,2,0,L|44:280,1,80,0|8,0:0|0:0,0:0:0:0:
32,356,63373,6,0,P|88:328|188:356,1,160,4|0,0:0|0:0,0:0:0:0:
340,360,64691,2,0,P|380:292|352:208,1,160,8|8,0:0|0:0,0:0:0:0:
320,148,65680,1,8,0:0:0:0:
280,216,66010,1,4,0:0:0:0:
148,132,71285,6,0,P|196:100|280:116,2,120,12|0|0,0:0|0:0|0:0,0:0:0:0:
144,212,72604,1,0,0:0:0:0:
300,180,73263,2,0,L|384:168,1,80,10|0,0:0|0:0,0:0:0:0:
448,128,73922,6,0,P|504:216|448:332,2,240,12|8|0,0:0|0:0|0:0,0:0:0:0:
352,256,76560,6,0,P|288:208|196:224,1,160,0|0,0:0|0:0,0:0:0:0:
96,328,77878,1,0,0:0:0:0:
28,184,78538,1,0,0:0:0:0:
140,68,79197,6,0,L|316:96,1,160,4|0,0:0|0:0,0:0:0:0:
456,120,80516,1,0,0:0:0:0:
328,216,81175,2,0,P|296:232|272:280,1,80,0|8,0:0|0:0,0:0:0:0:
260,348,81834,6,0,P|172:368|112:320,2,160,4|0|0,0:0|0:0|0:0,0:0:0:0:
216,196,83812,1,0,0:0:0:0:
260,40,84472,6,0,L|448:32,1,160,0|0,0:0|0:0,0:0:0:0:
384,188,85790,1,0,0:0:0:0:
348,344,86450,1,0,0:0:0:0:
188,328,87109,6,0,P|112:312|60:216,1,160,4|0,0:0|0:0,0:0:0:0:
44,92,88428,1,0,0:0:0:0:
196,144,89087,2,0,L|280:156,1,80,0|8,0:0|0:0,0:0:0:0:
312,228,89746,6,0,P|356:168|320:84,1,160,0|0,0:0|0:0,0:0:0:0:
172,72,91065,2,0,P|128:132|164:216,1,160,0|0,0:0|0:0,0:0:0:0:
292,288,92384,5,4,0:0:0:0:
312,128,93043,1,0,0:0:0:0:
164,72,93702,2,0,P|112:80|80:104,1,80,0|8,0:0|0:0,0:0:0:0:
48,164,94362,2,0,P|28:220|40:264,1,80,0|8,0:0|0:0,0:0:0:0:
52,316,95021,6,0,P|116:272|212:308,2,160,4|0|0,0:0|0:0|0:0,0:0:0:0:
256,192,96999,12,0,98977,0:0:0:0:
224,268,100296,5,4,0:0:0:0:
288,140,100955,2,0,L|396:144,1,80,0|0,0:0|0:0,0:0:0:0:
412,212,101615,2,0,P|452:144|400:68,1,160,0|2,0:0|0:0,0:0:0:0:
260,56,102933,5,2,0:0:0:0:
220,212,103593,1,0,0:0:0:0:
340,320,104252,2,0,P|376:300|400:248,2,80,0|2|0,0:0|0:0|0:0,0:0:0:0:
188,272,105571,6,0,P|116:304|40:264,1,160,4|0,0:0|0:0,0:0:0:0:
120,132,106889,1,0,0:0:0:0:
268,68,107549,2,0,L|296:144,1,80,0|0,0:0|0:0,0:0:0:0:
304,224,108208,6,0,P|380:200|456:248,1,160,0|0,0:0|0:0,0:0:0:0:
364,372,109527,1,0,0:0:0:0:
208,340,110186,1,8,0:0:0:0:
52,308,110845,6,0,P|40:264|48:224,1,80,10|8,0:0|0:0,0:0:0:0:
152,112,111834,1,8,0:0:0:0:
276,212,112494,1,8,0:0:0:0:
128,272,113153,1,8,0:0:0:0:
140,192,113483,6,0,L|152:108,1,80,0|8,0:0|0:0,0:0:0:0:
308,148,114472,1,8,0:0:0:0:
244,296,115131,2,0,P|280:320|336:316,2,80,8|0|8,0:0|0:0|0:0,0:0:0:0:
304,244,116120,6,0,P|380:176|372:44,1,240,0|8,0:0|0:0,0:0:0:0:
308,92,117439,2,0,P|212:140|92:68,1,240,0|8,0:0|0:0,0:0:0:0:
52,24,118757,5,0,0:0:0:0:
36,184,119417,1,0,0:0:0:0:
28,344,120076,1,0,0:0:0:0:
176,280,120735,2,0,L|272:272,2,80,0|0|4,0:0|0:0|0:0,0:0:0:0:
180,128,126010,5,0,0:0:0:0:
236,276,126670,2,0,P|324:212|444:248,1,240,4|0,0:0|0:0,0:0:0:0:
488,312,127988,1,0,0:0:0:0:
332,348,128648,6,0,L|232:364,1,80,0|0,0:0|0:0,0:0:0:0:
172,348,129307,2,0,P|116:236|180:136,2,240,4|0|8,0:0|0:0|0:0,0:0:0:0:
256,192,131944,12,0,133922,0:0:0:0:
128,240,135900,6,0,P|176:256|236:248,1,80,0|8,0:0|0:0,0:0:0:0:
280,228,136560,1,0,0:0:0:0:
256,192,137219,12,0,139856,0:0:0:0:
116,164,152713,5,2,0:0:0:0:
172,224,153043,2,0,P|244:256|332:216,1,160,4|0,0:0|0:0,0:0:0:0:
400,92,154362,1,0,0:0:0:0:
472,236,155021,6,0,P|464:288|448:320,1,80,0|2,0:0|0:0,0:0:0:0:
376,336,155680,2,0,L|212:344,1,160,4|0,0:0|0:0,0:0:0:0:
120,216,156999,1,0,0:0:0:0:
252,124,157659,2,0,P|264:76|252:40,1,80,2|0,0:0|0:0,0:0:0:0:
184,80,158318,5,0,0:0:0:0:
92,208,158977,1,2,0:0:0:0:
184,340,159637,1,0,0:0:0:0:
288,216,160296,1,2,0:0:0:0:
220,72,160955,6,0,P|292:44|368:80,1,160,0|0,0:0|0:0,0:0:0:0:
420,224,162274,2,0,P|456:236|504:220,2,80,2|0|0,0:0|0:0|0:0,0:0:0:0:
264,188,163593,6,0,P|188:164|108:208,1,160,0|0,0:0|0:0,0:0:0:0:
196,336,164911,1,0,0:0:0:0:
356,320,165571,1,0,0:0:0:0:
444,188,166230,6,0,P|480:120|456:40,1,160,2|0,0:0|0:0,0:0:0:0:
304,76,167549,2,0,P|232:104|156:68,2,160,0|2|4,0:0|0:0|0:0,0:0:0:0:
296,236,169527,5,2,0:0:0:0:
140,268,170186,1,2,0:0:0:0:
196,116,170845,1,0,0:0:0:0:
224,272,171505,1,2,0:0:0:0:
256,192,171834,12,0,174142,0:0:0:0:
104,248,176120,5,12,0:0:0:0:
104,248,176779,2,0,L|280:256,1,160,12|0,0:0|0:0,0:0:0:0:
424,272,178098,1,0,0:0:0:0:
368,120,178757,6,0,P|328:132|280:120,1,80,8|0,0:0|0:0,0:0:0:0:
220,88,179417,2,0,P|148:56|56:84,2,160,12|0|8,0:0|0:0|0:0,0:0:0:0:
284,236,181395,6,0,P|296:284|280:328,1,80,0|0,0:0|0:0,0:0:0:0:
212,280,182054,1,0,0:0:0:0:
52,280,182713,1,0,0:0:0:0:
52,119,183373,1,0,0:0:0:0:
211,119,184032,1,0,0:0:0:0:
340,212,184691,6,0,P|392:200|432:156,2,80,4|8|0,0:0|0:0|0:0,0:0:0:0:
260,216,185680,2,0,L|168:224,1,80,0|8,0:0|0:0,0:0:0:0:
20,236,186670,1,0,0:0:0:0:
140,132,187329,6,0,P|220:124|264:32,1,160,4|0,0:0|0:0,0:0:0:0:
104,44,188648,1,0,0:0:0:0:
76,200,189307,1,0,0:0:0:0:
200,300,189966,6,0,P|272:328|352:308,1,160,4|0,0:0|0:0,0:0:0:0:
464,196,191285,1,0,0:0:0:0:
316,132,191944,2,0,L|216:152,1,80,0|0,0:0|0:0,0:0:0:0:
164,180,192604,6,0,P|112:128|116:40,1,160,4|0,0:0|0:0,0:0:0:0:
264,0,193922,2,0,P|316:52|312:140,1,160,0|0,0:0|0:0,0:0:0:0:
244,280,195241,5,0,0:0:0:0:
396,224,195900,2,0,P|384:180|344:148,2,80,8|8|8,0:0|0:0|0:0,0:0:0:0:
364,380,197219,1,8,0:0:0:0:
256,192,197878,12,0,200516,0:0:0:0:
256,276,202164,6,0,L|256:180,1,80,0|8,0:0|0:0,0:0:0:0:
256,116,202824,1,8,0:0:0:0:
256,192,203153,12,4,208428,0:0:0:0:
