osu file format v14

[General]
AudioFilename: Degeneration.mp3
AudioLeadIn: 0
PreviewTime: 74093
Countdown: 1
SampleSet: Normal
StackLeniency: 0.7
Mode: 0
LetterboxInBreaks: 1
WidescreenStoryboard: 0

[Editor]
DistanceSpacing: 0.8
BeatDivisor: 4
GridSize: 4
TimelineZoom: 1.7

[Metadata]
Title:Degeneration
TitleUnicode:Degeneration
Artist:Yuyoyuppe
ArtistUnicode:ゆよゆっぺ
Creator:Xexxar
Version:XR
Source:
Tags:
BeatmapID:695018
BeatmapSetID:311103

[Difficulty]
HPDrainRate:6
CircleSize:4
OverallDifficulty:8.2
ApproachRate:9.5
SliderMultiplier:1.6
SliderTickRate:1

[Events]
//Background and Video events
0,0,"coolstuff.jpeg",0,0
//Break Periods
2,21534,25754
2,26809,30040
2,84831,88721
2,137578,147403
//Storyboard Layer 0 (Background)
//Storyboard Layer 1 (Fail)
//Storyboard Layer 2 (Pass)
//Storyboard Layer 3 (Foreground)
//Storyboard Sound Samples

[TimingPoints]
236,329.67032967033,4,2,0,85,1,0
236,-133.333333333333,4,2,0,85,0,0
4192,-71.4285714285714,4,1,0,85,0,0
10455,-62.5,4,1,0,85,0,0
15730,-200,4,1,0,85,0,0
16060,-62.5,4,1,0,85,0,0
31884,-76.9230769230769,4,1,0,85,0,0
42433,-58.8235294117647,4,1,0,85,0,1
52653,-58.8235294117647,4,1,0,85,0,0
52983,-58.8235294117647,4,1,0,85,0,1
63532,-62.5,4,1,0,85,0,0
67818,-90.9090909090909,4,1,0,85,0,0
68148,-128.205128205128,4,1,0,85,0,0
68477,-200,4,1,0,85,0,0
68807,-66.6666666666667,4,3,0,85,0,0
72763,-66.6666666666667,4,1,0,85,0,0
74082,-58.8235294117647,4,1,0,85,0,1
84631,-58.8235294117647,4,1,0,85,0,0
89576,-62.5,4,1,0,85,0,0
93862,-62.5,4,2,0,85,0,0
94686,-62.5,4,1,0,85,0,0
95181,-62.5,4,1,0,85,0,1
105400,-62.5,4,1,0,85,0,0
105730,-62.5,4,1,0,85,0,1
116279,-62.5,4,1,0,85,0,0
118752,-62.5,4,1,0,5,0,0
118917,-83.3333333333333,4,1,0,85,0,0
125181,-71.4285714285714,4,1,0,85,0,0
125675,-71.4285714285714,4,1,0,85,0,0
126829,-71.4285714285714,4,1,0,85,0,0
147928,-133.333333333333,4,2,0,85,0,0
155840,-166.666666666667,4,2,0,85,0,0
157159,-200,4,2,0,85,0,0
158477,-71.4285714285714,4,1,0,85,0,1
159137,-71.4285714285714,4,1,0,85,0,0
166389,-62.5,4,1,0,85,0,0
167708,-62.5,4,1,0,85,0,0
168697,-50,4,1,0,85,0,0
169027,-58.8235294117647,4,1,0,85,0,1
179576,-62.5,4,1,0,85,0,0
190126,-54.9450549450549,4,1,0,85,0,1
195071,-200,4,1,0,85,0,1
195400,-54.9450549450549,4,1,0,85,0,1
200675,-133.333333333333,4,1,0,85,0,0
201170,-62.5,4,1,0,85,0,1
201334,-62.5,4,1,0,85,0,0

[HitObjects]
360,236,236,6,0,B|376:260|376:260|384:308,2,60.0000022888184,12|0|0,0:0|0:0|0:0,0:0:0:0:
272,116,730,1,0,0:0:0:0:
164,232,895,2,0,P|124:224|88:204,1,60.0000022888184,8|0,0:0|0:0,0:0:0:0:
260,32,1225,2,0,P|308:36|328:52,1,60.0000022888184
424,120,1554,5,8,0:0:0:0:
448,244,1719,1,0,0:0:0:0:
324,208,1884,1,0,0:0:0:0:
228,288,2049,2,0,L|228:356,2,60.0000022888184,0|8|0,0:0|0:0|0:0,0:0:0:0:
140,176,2543,1,0,0:0:0:0:
300,128,2708,1,0,0:0:0:0:
48,124,2873,6,0,P|32:176|36:200,1,60.0000022888184,12|0,0:0|0:0,0:0:0:0:
392,120,3203,2,0,P|372:76|344:56,1,60.0000022888184
152,48,3532,1,8,0:0:0:0:
300,128,3697,1,0,0:0:0:0:
140,176,3862,1,0,0:0:0:0:
288,272,4027,1,0,0:0:0:0:
164,32,4192,5,4,0:0:0:0:
276,296,4356,1,8,0:0:0:0:
352,344,4686,5,8,0:0:0:0:
440,348,5016,5,8,0:0:0:0:
508,296,5345,5,8,0:0:0:0:
396,120,5510,6,0,B|359:79|359:79|283:115|171:71,1,223.999993164063,4|0,0:0|0:0,0:0:0:0:
228,360,6170,1,0,0:0:0:0:
280,8,6499,2,0,B|312:24|312:24|348:0|412:20|412:20|480:108,1,223.999993164063
148,288,7159,1,0,0:0:0:0:
364,96,7488,1,0,0:0:0:0:
232,304,7818,2,0,L|224:240,1,55.9999982910157,8|0,0:0|0:0,0:0:0:0:
200,88,7983,2,0,L|148:144,1,55.9999982910157,8|0,0:0|0:0,0:0:0:0:
68,244,8148,6,0,P|60:304|88:360,1,111.999996582031,8|0,0:0|0:0,0:0:0:0:
352,352,8477,1,0,0:0:0:0:
148,288,8642,2,0,B|168:208|108:160|108:160|96:76,1,223.999993164063
316,36,9137,1,0,0:0:0:0:
240,220,9301,2,0,P|224:184|196:160,1,55.9999982910157
116,60,9466,2,0,B|152:40|152:40|260:36,1,111.999996582031,0|8,0:0|0:0,0:0:0:0:
408,40,9796,5,8,0:0:0:0:
488,168,9961,1,8,0:0:0:0:
316,64,10126,5,8,0:0:0:0:
392,272,10290,1,8,0:0:0:0:
220,56,10455,6,0,P|144:44|32:128,1,192
32,136,10785,6,0,B|20:192|20:192|72:312|228:312,1,256,12|0,0:0|0:0,0:0:0:0:
392,112,11279,1,0,0:0:0:0:
392,272,11444,1,8,0:0:0:0:
220,56,11609,2,0,L|200:196,1,128
208,220,11856,1,0,0:0:0:0:
232,248,11939,2,0,P|312:284|372:268,1,128,0|8,0:0|0:0,0:0:0:0:
432,48,12268,5,8,0:0:0:0:
432,48,12351,1,0,0:0:0:0:
432,48,12433,2,0,L|288:52,1,128
112,56,12763,1,8,0:0:0:0:
36,240,12928,1,0,0:0:0:0:
184,372,13093,2,0,B|216:344|216:344|232:232,1,128,8|0,0:0|0:0,0:0:0:0:
128,40,13422,5,4,0:0:0:0:
32,212,13587,1,0,0:0:0:0:
232,200,13752,2,0,B|280:200|280:200|356:276,1,128
364,288,13999,1,0,0:0:0:0:
400,300,14082,2,0,P|460:280|484:208,1,128,8|0,0:0|0:0,0:0:0:0:
460,40,14411,1,8,0:0:0:0:
408,224,14576,1,0,0:0:0:0:
316,36,14741,5,8,0:0:0:0:
311,80,14823,1,0,0:0:0:0:
302,125,14906,1,0,0:0:0:0:
293,169,14988,1,0,0:0:0:0:
192,156,15071,5,8,0:0:0:0:
199,186,15153,1,0,0:0:0:0:
207,217,15236,1,0,0:0:0:0:
216,247,15318,1,0,0:0:0:0:
288,256,15400,5,8,0:0:0:0:
281,281,15483,1,0,0:0:0:0:
275,305,15565,1,0,0:0:0:0:
268,332,15648,1,0,0:0:0:0:
188,336,15730,6,0,L|175:381|175:381,2,40,8|0|4,0:0|0:0|0:0,0:0:0:0:
64,64,16389,2,0,B|50:106|50:106|64:196,1,128
88,328,16719,1,8,0:0:0:0:
160,32,16884,2,0,B|144:72|144:72|164:176,1,128,8|0,0:0|0:0,0:0:0:0:
184,180,17131,1,0,0:0:0:0:
208,200,17214,1,0,0:0:0:0:
396,92,17378,5,8,0:0:0:0:
396,92,17461,1,0,0:0:0:0:
396,92,17543,1,0,0:0:0:0:
88,328,17708,2,0,P|52:268|48:192,1,128,8|0,0:0|0:0,0:0:0:0:
232,16,18038,1,8,0:0:0:0:
352,176,18203,1,0,0:0:0:0:
304,376,18367,2,0,B|276:344|276:344|260:228,1,128,8|0,0:0|0:0,0:0:0:0:
244,36,18697,5,12,0:0:0:0:
356,292,18862,2,0,P|377:261|388:224,1,64
396,92,19027,1,8,0:0:0:0:
396,92,19109,1,0,0:0:0:0:
396,92,19192,1,0,0:0:0:0:
136,80,19356,2,0,L|68:216,2,128,8|0|8,0:0|0:0|0:0,0:0:0:0:
180,52,19768,1,0,0:0:0:0:
232,48,19851,1,0,0:0:0:0:
396,92,20016,5,8,0:0:0:0:
408,104,20098,1,0,0:0:0:0:
416,124,20181,1,0,0:0:0:0:
416,148,20263,1,0,0:0:0:0:
408,172,20345,1,8,0:0:0:0:
392,200,20428,1,0,0:0:0:0:
372,224,20510,1,0,0:0:0:0:
336,240,20593,1,0,0:0:0:0:
300,248,20675,5,8,0:0:0:0:
256,236,20757,1,0,0:0:0:0:
224,208,20840,1,0,0:0:0:0:
204,160,20922,1,0,0:0:0:0:
164,124,21005,1,8,0:0:0:0:
112,124,21087,1,0,0:0:0:0:
72,156,21170,1,0,0:0:0:0:
60,204,21252,1,0,0:0:0:0:
72,252,21334,5,12,0:0:0:0:
256,192,26279,5,8,0:0:0:0:
256,192,26444,1,0,0:0:0:0:
256,192,26609,5,12,0:0:0:0:
192,48,30565,5,8,0:0:0:0:
152,80,30648,1,0,0:0:0:0:
132,128,30730,1,0,0:0:0:0:
136,172,30812,1,0,0:0:0:0:
152,216,30895,1,8,0:0:0:0:
180,248,30977,1,0,0:0:0:0:
216,260,31060,1,0,0:0:0:0:
252,256,31142,1,0,0:0:0:0:
280,240,31225,5,8,0:0:0:0:
300,216,31307,1,0,0:0:0:0:
312,188,31389,1,0,0:0:0:0:
328,168,31472,1,0,0:0:0:0:
352,156,31554,1,8,0:0:0:0:
372,160,31637,1,0,0:0:0:0:
388,168,31719,1,0,0:0:0:0:
396,184,31801,1,0,0:0:0:0:
400,204,31884,6,0,L|400:316,1,103.999995239258,12|0,0:0|0:0,0:0:0:0:
460,108,32214,2,0,P|396:68|352:68,1,103.999995239258,8|0,0:0|0:0,0:0:0:0:
228,172,32543,1,0,0:0:0:0:
240,36,32708,1,0,0:0:0:0:
356,200,32873,2,0,B|356:244|356:244|328:312,1,103.999995239258,8|0,0:0|0:0,0:0:0:0:
24,248,33203,6,0,B|28:168|28:168|96:48,1,207.999990478516,4|8,0:0|0:0,0:0:0:0:
136,236,33697,1,0,0:0:0:0:
91,56,33862,2,0,P|140:42|212:55,1,103.999995239258
28,76,34192,1,8,0:0:0:0:
48,40,34274,1,0,0:0:0:0:
80,16,34356,1,0,0:0:0:0:
272,32,34521,6,0,B|288:68|288:68|264:88|268:156|268:156,2,103.999995239258,4|0|8,0:0|0:0|0:0,0:0:0:0:
460,36,35016,1,0,0:0:0:0:
344,116,35181,1,0,0:0:0:0:
472,172,35345,1,0,0:0:0:0:
424,28,35510,1,8,0:0:0:0:
356,148,35675,1,0,0:0:0:0:
496,152,35840,6,0,P|500:176|460:280,2,103.999995239258,4|0|8,0:0|0:0|0:0,0:0:0:0:
448,332,36334,1,0,0:0:0:0:
228,304,36499,1,8,0:0:0:0:
228,304,36582,1,0,0:0:0:0:
228,304,36664,2,0,L|188:248,1,51.999997619629
104,132,36829,1,8,0:0:0:0:
104,132,36911,1,0,0:0:0:0:
104,132,36994,2,0,L|72:204,1,51.999997619629
32,356,37159,6,0,B|68:332|68:332|100:280|100:280,1,103.999995239258,4|0,0:0|0:0,0:0:0:0:
144,40,37488,2,0,B|172:60|172:60|212:136,1,103.999995239258,8|0,0:0|0:0,0:0:0:0:
220,156,37736,1,0,0:0:0:0:
240,184,37818,2,0,P|280:220|360:240,2,103.999995239258,0|0|8,0:0|0:0|0:0,0:0:0:0:
288,16,38312,1,0,0:0:0:0:
424,248,38477,6,0,P|364:328|328:336,1,103.999995239258,4|0,0:0|0:0,0:0:0:0:
360,56,38807,2,0,P|420:32|472:36,1,103.999995239258,8|0,0:0|0:0,0:0:0:0:
352,220,39054,1,0,0:0:0:0:
328,248,39137,2,0,L|216:292,1,103.999995239258
76,112,39466,2,0,B|40:80|40:80|8:0,1,103.999995239258,8|0,0:0|0:0,0:0:0:0:
360,56,39796,6,0,B|420:104|420:104|456:240,1,207.999990478516,4|8,0:0|0:0,0:0:0:0:
264,344,40290,1,0,0:0:0:0:
136,176,40455,1,8,0:0:0:0:
344,168,40620,1,8,0:0:0:0:
40,364,40785,1,8,0:0:0:0:
128,44,40950,6,0,P|192:64|244:200,1,207.999990478516,4|0,0:0|0:0,0:0:0:0:
240,220,41362,1,0,0:0:0:0:
220,252,41444,2,0,L|136:344,2,103.999995239258,8|0|12,0:0|0:0|0:0,0:0:0:0:
408,44,42104,5,4,0:0:0:0:
424,60,42433,6,0,B|456:92|456:92|440:128|440:128|484:216|420:328,1,272.000005187988,12|8,0:0|0:0,0:0:0:0:
212,312,42928,2,0,P|172:228|176:168,2,136.000002593994,0|8|0,0:0|0:0|0:0,0:0:0:0:
348,216,43422,1,8,0:0:0:0:
172,96,43587,1,0,0:0:0:0:
120,112,43670,1,0,0:0:0:0:
88,148,43752,6,0,P|80:232|100:312,1,136.000002593994,12|0,0:0|0:0,0:0:0:0:
312,332,44082,1,8,0:0:0:0:
172,186,44246,1,0,0:0:0:0:
376,216,44411,1,8,0:0:0:0:
376,216,44494,1,0,0:0:0:0:
376,216,44576,1,0,0:0:0:0:
424,48,44741,2,0,P|332:32|272:40,1,136.000002593994,8|0,0:0|0:0,0:0:0:0:
244,44,44988,1,0,0:0:0:0:
192,52,45071,6,0,B|112:64|72:120|72:120|80:204|48:288,1,272.000005187988,12|8,0:0|0:0,0:0:0:0:
200,352,45565,1,0,0:0:0:0:
388,320,45730,1,8,0:0:0:0:
420,284,45812,1,0,0:0:0:0:
452,248,45895,1,0,0:0:0:0:
424,48,46060,2,8,L|376:120,1,68.0000012969971
304,240,46225,1,8,0:0:0:0:
244,52,46389,5,12,0:0:0:0:
92,80,46554,1,0,0:0:0:0:
92,244,46719,1,8,0:0:0:0:
200,56,46884,5,0,0:0:0:0:
68,116,47049,1,8,0:0:0:0:
112,280,47214,1,0,0:0:0:0:
156,64,47378,5,12,0:0:0:0:
44,156,47543,1,0,0:0:0:0:
136,320,47708,1,12,0:0:0:0:
136,320,48038,6,0,P|216:324|280:304,1,136.000002593994,8|0,0:0|0:0,0:0:0:0:
184,108,48367,1,8,0:0:0:0:
372,372,48532,2,0,P|388:292|360:228,1,136.000002593994,0|8,0:0|0:0,0:0:0:0:
344,204,48779,1,0,0:0:0:0:
308,172,48862,1,0,0:0:0:0:
264,152,48944,1,0,0:0:0:0:
216,148,49027,6,0,L|56:144,1,136.000002593994,12|0,0:0|0:0,0:0:0:0:
376,244,49356,1,8,0:0:0:0:
136,320,49521,1,0,0:0:0:0:
80,144,49686,2,0,P|136:76|216:56,1,136.000002593994,8|0,0:0|0:0,0:0:0:0:
228,56,49933,1,0,0:0:0:0:
276,56,50016,2,0,B|336:56|336:56|420:104,1,136.000002593994,8|0,0:0|0:0,0:0:0:0:
464,352,50345,6,0,B|404:344|404:344|396:312|396:312|312:324|232:188,1,272.000005187988,12|8,0:0|0:0,0:0:0:0:
120,40,50840,5,8,0:0:0:0:
64,152,51005,1,8,0:0:0:0:
224,48,51170,5,8,0:0:0:0:
204,208,51334,1,8,0:0:0:0:
332,36,51499,5,8,0:0:0:0:
336,264,51664,1,8,0:0:0:0:
312,304,51746,1,0,0:0:0:0:
272,332,51829,1,0,0:0:0:0:
224,328,51911,1,0,0:0:0:0:
192,296,51994,1,8,0:0:0:0:
176,252,52076,1,0,0:0:0:0:
184,204,52159,5,0,0:0:0:0:
172,160,52241,1,0,0:0:0:0:
132,132,52323,1,8,0:0:0:0:
84,128,52406,1,0,0:0:0:0:
44,156,52488,1,0,0:0:0:0:
28,200,52571,1,0,0:0:0:0:
28,248,52653,6,0,B|68:300|68:300|176:336|276:228,2,272.000005187988,8|12|8,0:0|0:0|0:0,0:0:0:0:
192,140,53477,1,0,0:0:0:0:
464,196,53642,1,8,0:0:0:0:
340,56,53807,1,0,0:0:0:0:
340,288,53972,1,8,0:0:0:0:
248,60,54137,1,0,0:0:0:0:
220,64,54219,1,0,0:0:0:0:
192,56,54301,6,0,B|168:48|168:48|112:80|104:176,1,136.000002593994,12|0,0:0|0:0,0:0:0:0:
212,328,54631,1,8,0:0:0:0:
200,148,54796,1,0,0:0:0:0:
200,148,54878,1,0,0:0:0:0:
200,152,54961,2,0,P|276:148|348:88,1,136.000002593994,8|0,0:0|0:0,0:0:0:0:
420,28,55290,1,8,0:0:0:0:
456,60,55373,1,0,0:0:0:0:
480,100,55455,1,0,0:0:0:0:
488,148,55538,1,0,0:0:0:0:
484,196,55620,6,0,P|468:264|420:328,1,136.000002593994,12|0,0:0|0:0,0:0:0:0:
376,12,55950,1,8,0:0:0:0:
376,228,56115,1,0,0:0:0:0:
376,228,56197,1,0,0:0:0:0:
376,228,56279,1,8,0:0:0:0:
216,84,56444,2,0,L|188:12,2,68.0000012969971,0|0|8,0:0|0:0|0:0,0:0:0:0:
184,304,56774,1,0,0:0:0:0:
184,304,56856,1,0,0:0:0:0:
184,304,56939,6,0,B|156:252|156:252|144:152,1,136.000002593994,12|0,0:0|0:0,0:0:0:0:
68,216,57268,6,0,B|67:156|67:156|104:63,1,136.000002593994,12|0,0:0|0:0,0:0:0:0:
340,40,57598,1,8,0:0:0:0:
146,175,57763,1,0,0:0:0:0:
400,136,57928,1,8,0:0:0:0:
184,304,58093,1,0,0:0:0:0:
228,36,58257,6,0,B|196:32|196:32|184:56|184:56|132:60|96:96,1,136.000002593994,8|4,0:0|0:0,0:0:0:0:
64,280,58587,1,12,0:0:0:0:
336,380,58752,1,4,0:0:0:0:
300,88,58917,2,0,P|232:48|160:64,1,136.000002593994,12|0,0:0|0:0,0:0:0:0:
428,160,59246,2,0,P|416:72|364:24,1,136.000002593994,8|0,0:0|0:0,0:0:0:0:
384,248,59576,6,0,B|336:260|336:260|224:240,2,136.000002593994,12|0|12,0:0|0:0|0:0,0:0:0:0:
484,96,60071,1,0,0:0:0:0:
456,60,60153,1,0,0:0:0:0:
416,36,60236,1,8,0:0:0:0:
216,72,60400,1,0,0:0:0:0:
216,72,60483,1,0,0:0:0:0:
216,72,60565,1,8,0:0:0:0:
472,192,60730,2,0,P|476:272|448:360,1,136.000002593994,0|12,0:0|0:0,0:0:0:0:
152,176,61060,5,0,0:0:0:0:
384,248,61225,1,8,0:0:0:0:
236,348,61389,1,8,0:0:0:0:
72,256,61554,1,8,0:0:0:0:
96,88,61719,1,0,0:0:0:0:
192,304,61884,1,8,0:0:0:0:
216,72,62049,6,0,L|260:164,1,68.0000012969971
324,304,62214,1,8,0:0:0:0:
368,320,62296,1,0,0:0:0:0:
416,316,62378,1,0,0:0:0:0:
448,284,62461,1,0,0:0:0:0:
468,240,62543,6,0,L|456:152,1,68.0000012969971,8|0,0:0|0:0,0:0:0:0:
368,24,62708,2,0,L|340:108,1,68.0000012969971
288,260,62873,5,12,0:0:0:0:
288,260,63203,5,12,0:0:0:0:
288,260,63532,6,0,B|240:264|240:264|216:296|216:296|104:280|148:328|96:320|96:320|32:328,1,256,12|4,0:0|0:0,0:0:0:0:
48,104,64027,2,0,B|84:80|84:80|119:86|184:68,2,128,0|8|0,0:0|0:0|0:0,0:0:0:0:
332,144,64521,2,0,P|339:209|391:266,1,128,0|8,0:0|0:0,0:0:0:0:
424,252,64768,1,8,0:0:0:0:
468,236,64851,6,0,P|484:172|456:100,1,128,12|0,0:0|0:0,0:0:0:0:
304,40,65181,1,4,0:0:0:0:
408,180,65345,1,0,0:0:0:0:
200,60,65510,5,8,0:0:0:0:
24,140,65675,1,8,0:0:0:0:
100,316,65840,1,8,0:0:0:0:
276,240,66005,1,8,0:0:0:0:
120,104,66170,6,0,B|100:72|100:72|60:64|60:64|8:8,2,128,4|0|12,0:0|0:0|0:0,0:0:0:0:
188,276,66664,2,0,B|212:320|212:320|260:328|260:328|324:360,1,128,0|8,0:0|0:0,0:0:0:0:
440,228,66994,1,0,0:0:0:0:
268,256,67159,1,0,0:0:0:0:
328,84,67323,1,0,0:0:0:0:
364,304,67488,6,0,L|376:372,3,64,12|0|0|0,0:0|0:0|0:0|0:0,0:0:0:0:
408,172,67818,6,0,L|460:164,3,44.0000013427735,8|0|0|0,0:0|0:0|0:0|0:0,0:0:0:0:
312,80,68148,6,0,L|304:40,3,31.2000010473633,8|0|0|0,0:0|0:0|0:0|0:0,0:0:0:0:
272,200,68477,6,0,L|244:204,3,20,8|0|0|0,0:0|0:0|0:0|0:0,0:0:0:0:
216,208,68807,5,4,0:0:0:0:
188,228,68889,1,0,0:0:0:0:
172,260,68972,1,0,0:0:0:0:
148,284,69054,1,0,0:0:0:0:
116,300,69137,1,0,0:0:0:0:
80,300,69219,1,0,0:0:0:0:
48,284,69301,1,0,0:0:0:0:
32,252,69384,1,0,0:0:0:0:
32,216,69466,5,8,0:0:0:0:
52,184,69549,1,0,0:0:0:0:
84,168,69631,1,0,0:0:0:0:
120,168,69714,1,0,0:0:0:0:
152,184,69796,1,0,0:0:0:0:
172,212,69878,1,0,0:0:0:0:
192,240,69961,1,0,0:0:0:0:
208,272,70043,1,0,0:0:0:0:
216,308,70126,5,4,0:0:0:0:
260,292,70208,1,0,0:0:0:0:
308,288,70290,1,0,0:0:0:0:
352,304,70373,1,0,0:0:0:0:
392,328,70455,1,0,0:0:0:0:
432,336,70538,1,0,0:0:0:0:
468,316,70620,1,0,0:0:0:0:
484,276,70703,1,0,0:0:0:0:
468,240,70785,5,8,0:0:0:0:
436,212,70867,1,0,0:0:0:0:
416,172,70950,1,0,0:0:0:0:
436,136,71032,1,0,0:0:0:0:
448,96,71115,1,0,0:0:0:0:
420,64,71197,1,0,0:0:0:0:
380,64,71279,1,0,0:0:0:0:
348,88,71362,1,0,0:0:0:0:
308,84,71444,6,0,L|288:20,3,60.0000022888184,4|0|0|0,0:0|0:0|0:0|0:0,0:0:0:0:
108,120,71774,1,8,0:0:0:0:
108,120,71856,1,0,0:0:0:0:
108,120,71939,2,0,L|128:192,1,60.0000022888184
240,340,72104,5,8,0:0:0:0:
240,340,72186,1,0,0:0:0:0:
240,340,72268,2,0,L|261:252,1,60.0000022888184
263,246,72433,1,8,0:0:0:0:
269,210,72516,1,0,0:0:0:0:
275,173,72598,1,0,0:0:0:0:
283,141,72681,1,0,0:0:0:0:
289,104,72763,6,0,L|299:36,1,60.0000022888184,4|0,0:0|0:0,0:0:0:0:
192,168,72928,2,0,L|181:235,1,60.0000022888184
316,88,73093,6,0,L|326:20,1,60.0000022888184,4|0,0:0|0:0,0:0:0:0:
165,184,73257,2,0,L|154:251,1,60.0000022888184
344,76,73422,6,0,L|354:8,1,60.0000022888184,4|0,0:0|0:0,0:0:0:0:
137,196,73587,2,0,L|126:263,1,60.0000022888184
368,64,73752,6,0,L|378:-3,1,60.0000022888184,4|0,0:0|0:0,0:0:0:0:
113,208,73917,2,0,L|102:275,1,60.0000022888184
396,56,74082,6,0,B|420:108|420:108|412:236,1,136.000002593994,4|4,0:0|0:0,0:0:0:0:
392,376,74411,1,8,0:0:0:0:
180,332,74741,5,8,0:0:0:0:
336,296,74906,2,0,L|384:244,2,68.0000012969971,4|0|4,0:0|0:0|0:0,0:0:0:0:
120,232,75236,5,8,0:0:0:0:
296,220,75400,1,8,0:0:0:0:
84,128,75565,6,0,L|160:108,1,68.0000012969971,8|0,0:0|0:0,0:0:0:0:
312,76,75730,2,0,B|356:76|356:76|384:108|384:108|436:148,2,136.000002593994,12|0|12,0:0|0:0|0:0,0:0:0:0:
272,80,76142,1,0,0:0:0:0:
232,84,76225,1,0,0:0:0:0:
304,272,76389,1,0,0:0:0:0:
148,52,76554,5,4,0:0:0:0:
328,176,76719,1,8,0:0:0:0:
328,176,76884,1,8,0:0:0:0:
84,128,77049,5,4,0:0:0:0:
308,276,77214,1,8,0:0:0:0:
308,276,77378,1,8,0:0:0:0:
256,52,77543,6,0,L|200:128,1,68.0000012969971,4|0,0:0|0:0,0:0:0:0:
92,280,77708,1,8,0:0:0:0:
92,280,77873,1,8,0:0:0:0:
304,128,78038,5,4,0:0:0:0:
212,320,78203,1,12,0:0:0:0:
212,320,78285,1,8,0:0:0:0:
212,320,78367,1,8,0:0:0:0:
92,36,78532,5,4,0:0:0:0:
352,40,78697,2,0,P|408:112|408:188,2,128,8|8|8,0:0|0:0|0:0,0:0:0:0:
196,32,79192,1,0,0:0:0:0:
328,344,79356,5,12,0:0:0:0:
368,352,79439,1,0,0:0:0:0:
408,352,79521,1,0,0:0:0:0:
448,340,79604,1,0,0:0:0:0:
476,312,79686,1,0,0:0:0:0:
480,124,79851,1,8,0:0:0:0:
388,260,80016,5,4,0:0:0:0:
348,248,80098,1,0,0:0:0:0:
308,248,80181,1,0,0:0:0:0:
136,328,80345,1,8,0:0:0:0:
120,84,80510,1,8,0:0:0:0:
44,320,80675,6,0,B|52:280|52:280|96:256|96:256|128:212,1,136.000002593994,4|4,0:0|0:0,0:0:0:0:
144,184,80922,1,0,0:0:0:0:
164,148,81005,1,0,0:0:0:0:
224,36,81170,1,8,0:0:0:0:
48,164,81334,5,4,0:0:0:0:
48,164,81417,1,0,0:0:0:0:
48,164,81499,1,8,0:0:0:0:
164,48,81664,1,8,0:0:0:0:
328,32,81829,1,8,0:0:0:0:
472,104,81994,1,12,0:0:0:0:
472,104,82076,1,0,0:0:0:0:
472,104,82159,6,0,B|504:136|504:136|488:204|492:264,1,136.000002593994,0|8,0:0|0:0,0:0:0:0:
408,348,82488,1,0,0:0:0:0:
408,168,82653,1,8,0:0:0:0:
312,328,82818,1,4,0:0:0:0:
264,348,82900,1,0,0:0:0:0:
208,348,82983,1,0,0:0:0:0:
156,144,83148,5,8,0:0:0:0:
80,296,83312,1,0,0:0:0:0:
236,36,83477,6,0,L|244:124,1,68.0000012969971,8|0,0:0|0:0,0:0:0:0:
252,260,83642,2,0,B|256:304|256:304|292:312|376:328,2,136.000002593994,8|0|8,0:0|0:0|0:0,0:0:0:0:
248,204,84054,1,0,0:0:0:0:
252,148,84137,1,0,0:0:0:0:
284,104,84219,1,0,0:0:0:0:
336,84,84301,1,8,0:0:0:0:
392,92,84384,1,0,0:0:0:0:
432,128,84466,1,0,0:0:0:0:
452,180,84549,1,0,0:0:0:0:
456,236,84631,5,8,0:0:0:0:
224,168,89246,5,8,0:0:0:0:
224,120,89329,1,0,0:0:0:0:
208,76,89411,1,0,0:0:0:0:
160,60,89494,1,0,0:0:0:0:
116,72,89576,1,8,0:0:0:0:
96,116,89659,1,0,0:0:0:0:
96,164,89741,1,0,0:0:0:0:
112,208,89823,1,0,0:0:0:0:
152,236,89906,6,0,B|192:264|248:260|248:260|296:224|296:224|404:200,1,256,12|8,0:0|0:0,0:0:0:0:
224,168,90400,1,0,0:0:0:0:
364,300,90565,1,0,0:0:0:0:
312,112,90730,1,0,0:0:0:0:
264,356,90895,1,8,0:0:0:0:
220,368,90977,1,0,0:0:0:0:
176,364,91060,2,0,P|104:344|52:304,1,128
84,48,91389,5,0,0:0:0:0:
168,224,91554,1,8,0:0:0:0:
0,120,91719,1,0,0:0:0:0:
184,88,91884,2,0,P|256:72|336:76,1,128,8|0,0:0|0:0,0:0:0:0:
204,20,92214,2,0,P|312:36|364:68,1,128,8|0,0:0|0:0,0:0:0:0:
456,200,92543,5,12,0:0:0:0:
456,200,92708,1,8,0:0:0:0:
240,332,92873,1,8,0:0:0:0:
240,332,93038,1,8,0:0:0:0:
112,48,93203,1,8,0:0:0:0:
112,48,93367,1,8,0:0:0:0:
452,88,93532,1,8,0:0:0:0:
452,88,93697,1,8,0:0:0:0:
140,264,93862,6,0,B|84:292|84:292|32:352,1,128,8|0,0:0|0:0,0:0:0:0:
184,160,94192,2,0,L|204:128,1,32
220,164,94274,2,0,L|248:139,1,32
256,184,94356,2,0,L|292:175,1,32
280,212,94439,2,0,L|317:213,1,32
308,248,94521,2,0,P|372:276|440:200,1,128
444,216,94768,1,0,0:0:0:0:
444,172,94851,6,0,B|432:108|432:108|344:112|344:112|309:68|224:56,1,256,0|12,0:0|0:0,0:0:0:0:
32,220,95345,2,0,P|47:281|95:321,2,128,0|8|0,0:0|0:0|0:0,0:0:0:0:
264,84,95840,1,8,0:0:0:0:
56,44,96005,1,0,0:0:0:0:
128,236,96170,1,8,0:0:0:0:
164,28,96334,1,0,0:0:0:0:
208,20,96417,1,0,0:0:0:0:
252,32,96499,6,0,B|300:56|300:56|348:124,1,128,12|0,0:0|0:0,0:0:0:0:
256,332,96829,1,8,0:0:0:0:
204,104,96994,1,0,0:0:0:0:
412,208,97159,1,8,0:0:0:0:
432,168,97241,1,0,0:0:0:0:
428,124,97323,1,0,0:0:0:0:
164,28,97488,1,8,0:0:0:0:
128,236,97653,2,0,B|120:292|120:292|84:356,2,128,0|12|0,0:0|0:0|0:0,0:0:0:0:
320,76,98148,6,0,L|388:40,2,64,8|0|0,0:0|0:0|0:0,0:0:0:0:
228,328,98477,1,8,0:0:0:0:
228,328,98560,1,0,0:0:0:0:
228,328,98642,1,0,0:0:0:0:
124,116,98807,1,8,0:0:0:0:
336,216,98972,1,0,0:0:0:0:
40,192,99137,6,0,B|28:132|28:132|44:96|52:48|52:48|96:20|96:20|184:16,1,256,12|8,0:0|0:0,0:0:0:0:
196,28,99549,1,0,0:0:0:0:
240,40,99631,2,0,L|388:68,1,128,0|8,0:0|0:0,0:0:0:0:
440,220,99961,1,0,0:0:0:0:
312,336,100126,1,8,0:0:0:0:
240,40,100290,1,8,0:0:0:0:
144,324,100455,6,0,B|100:324|100:324|28:260,2,128,12|0|12,0:0|0:0|0:0,0:0:0:0:
320,220,100950,1,0,0:0:0:0:
240,40,101115,2,0,P|164:28|80:44,1,128,8|0,0:0|0:0,0:0:0:0:
388,96,101444,1,8,0:0:0:0:
364,56,101527,1,0,0:0:0:0:
332,28,101609,1,0,0:0:0:0:
404,264,101774,6,0,B|392:220|392:220|312:136,1,128,12|0,0:0|0:0,0:0:0:0:
44,176,102104,2,0,P|36:252|68:336,1,128,8|0,0:0|0:0,0:0:0:0:
84,328,102351,1,0,0:0:0:0:
128,340,102433,2,0,L|288:344,1,128,8|0,0:0|0:0,0:0:0:0:
476,188,102763,2,0,L|316:184,1,128,8|0,0:0|0:0,0:0:0:0:
304,184,103010,1,0,0:0:0:0:
260,172,103093,6,0,P|196:140|152:56,2,128,12|0|12,0:0|0:0|0:0,0:0:0:0:
304,184,103505,1,0,0:0:0:0:
348,184,103587,1,0,0:0:0:0:
444,44,103752,1,8,0:0:0:0:
468,268,103917,1,8,0:0:0:0:
468,268,104082,1,8,0:0:0:0:
316,96,104246,1,8,0:0:0:0:
192,296,104411,6,0,L|132:256,1,64,12|0,0:0|0:0,0:0:0:0:
56,120,104576,2,0,L|116:160,1,64
252,232,104741,6,0,L|220:167,1,64,8|0,0:0|0:0,0:0:0:0:
222,11,104906,2,0,L|253:75,1,64
340,216,105071,6,0,L|344:144,1,64,8|0,0:0|0:0,0:0:0:0:
424,9,105236,2,0,L|419:80,1,64
420,248,105400,6,0,B|412:296|412:296|280:280|232:368,2,256,8|12|8,0:0|0:0|0:0,0:0:0:0:
456,48,106225,1,0,0:0:0:0:
328,216,106389,1,8,0:0:0:0:
364,52,106554,2,0,L|308:116,1,64
196,240,106719,2,0,P|132:288|76:280,1,128,8|0,0:0|0:0,0:0:0:0:
56,252,106966,1,0,0:0:0:0:
48,208,107049,6,0,B|64:144|64:144|120:84|120:84|104:100|104:100,2,128,12|0|8,0:0|0:0|0:0,0:0:0:0:
368,328,107543,2,0,P|419:261|424:195,2,128,0|8|0,0:0|0:0|0:0,0:0:0:0:
144,200,108038,1,8,0:0:0:0:
187,209,108120,1,0,0:0:0:0:
231,216,108203,1,0,0:0:0:0:
275,224,108285,1,0,0:0:0:0:
319,229,108367,6,0,P|384:208|440:224,1,128,12|0,0:0|0:0,0:0:0:0:
372,32,108697,1,8,0:0:0:0:
384,308,108862,1,0,0:0:0:0:
284,140,109027,2,0,B|212:128|212:128|152:80,1,128,8|0,0:0|0:0,0:0:0:0:
488,152,109274,1,0,0:0:0:0:
472,192,109356,2,0,B|406:224|406:224|329:221,1,128,8|0,0:0|0:0,0:0:0:0:
204,320,109604,1,0,0:0:0:0:
168,320,109686,2,0,B|116:280|116:280|84:204,1,128,12|0,0:0|0:0,0:0:0:0:
152,44,110016,5,8,0:0:0:0:
196,32,110098,1,0,0:0:0:0:
240,40,110181,1,0,0:0:0:0:
256,232,110345,5,8,0:0:0:0:
224,200,110428,1,0,0:0:0:0:
208,157,110510,1,0,0:0:0:0:
372,56,110675,5,8,0:0:0:0:
359,101,110757,1,0,0:0:0:0:
331,135,110840,1,0,0:0:0:0:
296,160,110922,1,0,0:0:0:0:
252,164,111005,6,0,P|172:152|68:176,2,128,12|0|12,0:0|0:0|0:0,0:0:0:0:
452,192,111499,1,0,0:0:0:0:
184,332,111664,2,0,B|168:264|168:264|136:240|136:240|28:244|16:144,1,256,12|12,0:0|0:0,0:0:0:0:
80,24,112159,1,0,0:0:0:0:
116,148,112323,6,0,B|180:152|180:152|240:200|240:200|260:252|260:252|336:312,1,256,12|8,0:0|0:0,0:0:0:0:
448,352,112818,1,0,0:0:0:0:
480,176,112983,1,8,0:0:0:0:
376,36,113148,1,0,0:0:0:0:
332,200,113312,2,0,P|312:272|256:324,1,128,8|0,0:0|0:0,0:0:0:0:
228,332,113560,1,0,0:0:0:0:
184,308,113642,6,0,B|156:264|156:264|152:144,1,128,12|0,0:0|0:0,0:0:0:0:
376,36,113972,1,12,0:0:0:0:
240,236,114137,1,8,0:0:0:0:
240,236,114301,1,8,0:0:0:0:
492,144,114466,1,8,0:0:0:0:
492,144,114631,1,8,0:0:0:0:
168,40,114796,1,8,0:0:0:0:
168,40,114961,6,0,L|132:120,1,64,12|0,0:0|0:0,0:0:0:0:
148,332,115126,2,0,L|184:252,1,64
348,48,115290,6,0,L|312:128,1,64,8|0,0:0|0:0,0:0:0:0:
328,360,115455,2,0,L|364:280,1,64
372,252,115620,5,8,0:0:0:0:
376,200,115703,1,0,0:0:0:0:
348,156,115785,1,0,0:0:0:0:
304,132,115867,1,0,0:0:0:0:
256,144,115950,1,8,0:0:0:0:
220,180,116032,1,0,0:0:0:0:
180,212,116115,1,0,0:0:0:0:
128,204,116197,1,0,0:0:0:0:
88,172,116279,5,12,0:0:0:0:
256,192,116362,12,0,118752,0:0:0:0:
256,192,118917,5,4,0:0:0:0:
256,192,119082,5,0,0:0:0:0:
256,192,119246,1,8,0:0:0:0:
144,52,119576,5,4,0:0:0:0:
144,52,119741,1,0,0:0:0:0:
144,52,119906,1,8,0:0:0:0:
80,228,120236,5,4,0:0:0:0:
80,228,120400,1,0,0:0:0:0:
80,228,120565,1,8,0:0:0:0:
256,316,120895,5,4,0:0:0:0:
396,216,121060,2,0,B|416:176|416:176|428:96,1,95.9999970703126,8|0,0:0|0:0,0:0:0:0:
328,356,121389,1,4,0:0:0:0:
332,140,121554,5,4,0:0:0:0:
311,25,121719,1,0,0:0:0:0:
225,101,121884,1,8,0:0:0:0:
236,256,122214,5,4,0:0:0:0:
112,180,122378,1,0,0:0:0:0:
104,324,122543,1,8,0:0:0:0:
424,216,122873,5,4,0:0:0:0:
412,52,123038,1,0,0:0:0:0:
280,148,123203,2,0,P|204:120|184:92,2,95.9999970703126,8|0|4,0:0|0:0|0:0,0:0:0:0:
404,304,123697,1,0,0:0:0:0:
208,336,123862,1,8,0:0:0:0:
84,40,124192,5,4,0:0:0:0:
60,252,124356,1,0,0:0:0:0:
260,168,124521,1,8,0:0:0:0:
200,48,124851,5,4,0:0:0:0:
140,308,125016,1,0,0:0:0:0:
384,244,125181,2,0,P|424:192|384:36,1,223.999993164063,12|4,0:0|0:0,0:0:0:0:
200,48,125675,5,8,0:0:0:0:
200,48,125757,1,0,0:3:0:0:
200,48,125840,1,0,0:3:0:0:
81,225,126005,5,8,0:3:0:0:
81,225,126087,1,8,0:3:0:0:
81,225,126170,2,0,L|147:262,1,55.9999982910157,8|0,0:3|0:3,0:3:0:0:
322,345,126334,5,8,0:3:0:0:
322,345,126417,1,8,0:3:0:0:
322,345,126499,2,0,L|321:269,1,55.9999982910157,8|0,0:3|0:3,0:3:0:0:
317,77,126664,5,8,0:3:0:0:
317,77,126746,1,8,0:3:0:0:
317,77,126829,6,0,L|213:147,1,111.999996582031,4|0,0:0|0:0,0:0:0:0:
81,225,127159,2,0,B|85:172|85:172|119:109,1,111.999996582031,4|0,0:0|0:0,0:0:0:0:
430,41,127488,2,0,B|426:94|426:94|392:157,1,111.999996582031,4|0,0:0|0:0,0:0:0:0:
322,345,127818,2,0,P|254:347|201:319,1,111.999996582031,4|0,0:0|0:0,0:0:0:0:
81,223,128148,5,4,0:0:0:0:
32,84,128312,1,0,0:0:0:0:
159,215,128477,5,4,0:0:0:0:
182,45,128642,1,0,0:0:0:0:
236,232,128807,5,4,0:0:0:0:
344,49,128972,1,0,0:0:0:0:
308,269,129137,5,4,0:0:0:0:
498,100,129301,1,0,0:0:0:0:
373,317,129466,6,0,B|329:347|329:347|260:352,1,111.999996582031,4|0,0:0|0:0,0:0:0:0:
89,230,129796,2,0,B|85:177|85:177|115:115,1,111.999996582031,4|0,0:0|0:0,0:0:0:0:
305,28,130126,2,0,B|353:51|353:51|392:108,1,111.999996582031,4|0,0:0|0:0,0:0:0:0:
206,355,130455,6,0,B|158:332|158:332|119:275,1,111.999996582031,4|0,0:0|0:0,0:0:0:0:
139,67,130785,2,0,B|183:37|183:37|252:31,1,111.999996582031,4|0,0:0|0:0,0:0:0:0:
422,153,131115,2,0,B|426:206|426:206|396:268,1,111.999996582031,4|0,0:0|0:0,0:0:0:0:
206,355,131444,5,4,0:0:0:0:
256,192,131609,1,0,0:0:0:0:
140,68,131774,1,4,0:0:0:0:
256,192,131939,1,0,0:0:0:0:
424,152,132104,6,0,P|444:96|432:40,1,111.999996582031,4|0,0:0|0:0,0:0:0:0:
428,248,132433,2,0,P|481:222|512:174,1,111.999996582031,4|0,0:0|0:0,0:3:0:0:
392,328,132763,2,0,P|451:327|499:297,1,111.999996582031,4|0,0:0|0:0,0:3:0:0:
124,336,133093,6,0,L|20:260,1,111.999996582031,4|0,0:0|0:0,0:0:0:0:
112,212,133422,2,0,L|92:84,1,111.999996582031,4|0,0:0|0:0,0:0:0:0:
272,52,133752,2,0,L|205:142,1,111.999996582031,4|0,0:0|0:0,0:0:0:0:
228,324,134082,5,4,0:0:0:0:
436,248,134246,1,0,0:0:0:0:
224,192,134411,1,4,0:0:0:0:
364,360,134576,1,0,0:0:0:0:
352,136,134741,2,0,B|332:96|332:96|260:48,1,111.999996582031,4|0,0:0|0:0,0:0:0:0:
432,188,135071,5,4,0:0:0:0:
256,44,135236,1,0,0:0:0:0:
344,232,135400,5,4,0:0:0:0:
180,96,135565,1,0,0:0:0:0:
276,280,135730,5,4,0:0:0:0:
104,144,135895,1,0,0:0:0:0:
68,168,135977,1,0,0:0:0:0:
56,212,136060,6,0,B|56:256|56:256|80:336,1,111.999996582031,12|4,0:0|0:0,0:0:0:0:
436,224,136389,2,0,B|455:158|455:158|455:114,1,111.999996582031,12|4,0:0|0:0,0:0:0:0:
443,70,136637,1,0,0:0:0:0:
407,46,136719,1,8,0:0:0:0:
360,264,136884,5,12,0:0:0:0:
152,120,137049,1,12,0:0:0:0:
308,32,137214,5,12,0:0:0:0:
204,352,137378,1,12,0:0:0:0:
64,96,147928,6,0,B|88:56|88:56|160:40|160:40|204:76|204:76|288:68|288:68|384:100|384:100|392:88,1,360.000013732911
448,288,149246,2,0,B|424:328|424:328|352:344|352:344|308:308|308:308|224:316|224:316|128:284|128:284|120:296,1,360.000013732911
180,20,150565,6,0,B|235:42|235:42|292:44|292:44|300:120|300:120|352:176|352:176|364:236|364:236|384:280,1,360.000013732911
332,364,151884,2,0,B|276:341|276:341|220:340|220:340|212:264|212:264|160:208|160:208|148:148|148:148|128:104,1,360.000013732911
480,168,153203,6,0,B|436:136|436:136|360:176|360:176|292:184|292:184|284:112|284:112|200:76,1,360.000013732911
32,216,154521,2,0,B|76:248|76:248|152:208|152:208|220:200|220:200|228:272|228:272|312:308,1,360.000013732911
268,28,155840,6,0,B|296:96|296:96|288:160|288:160|292:208|292:208|348:236|348:236|384:264|384:264|388:264|388:264,1,287.999991210938
156,276,157159,2,0,B|128:208|128:208|136:144|136:144|136:144|136:144|136:136|136:136|132:124|132:124|136:136|136:136,1,160
384,48,158477,6,0,B|432:104|432:104|420:176|420:176|440:276,2,223.999993164063,12|0|8,0:0|0:0|0:0,0:0:0:0:
148,56,159466,2,0,P|112:112|116:188,1,111.999996582031,8|0,0:0|0:0,0:0:0:0:
148,348,159796,6,0,B|264:336|264:336|304:272|304:272|265:191|265:191|288:100|384:72,1,447.999986328125,12|8,0:0|0:0,0:0:0:0:
408,72,160538,1,0,0:0:0:0:
440,84,160620,1,0,0:0:0:0:
464,108,160703,1,0,0:0:0:0:
476,140,160785,1,8,0:0:0:0:
476,172,160867,1,0,0:0:0:0:
464,204,160950,1,0,0:0:0:0:
444,232,161032,1,0,0:0:0:0:
412,248,161115,6,0,P|352:268|268:256,2,111.999996582031,12|0|8,0:0|0:0|0:0,0:0:0:0:
320,56,161774,1,8,0:0:0:0:
200,36,162104,1,8,0:0:0:0:
92,88,162433,6,0,B|56:152|56:152|104:208|92:320,2,223.999993164063,12|8|8,0:0|0:0|0:0,0:0:0:0:
208,160,163422,2,0,P|288:180|428:80,1,223.999993164063,8|12,0:0|0:0,0:0:0:0:
288,32,164082,6,0,B|220:24|220:24|136:56,1,111.999996582031,8|0,0:0|0:0,0:0:0:0:
134,253,164411,2,0,B|168:272|168:272|184:312|184:312|232:288|232:288|266:299|337:292,2,223.999993164063,8|8|12,0:0|0:0|0:0,0:0:0:0:
108,52,165400,2,0,P|160:28|236:48,1,111.999996582031
400,40,165730,6,0,P|394:97|339:152,1,111.999996582031,8|0,0:0|0:0,0:0:0:0:
264,296,166060,2,0,P|217:262|196:187,1,111.999996582031,8|0,0:0|0:0,0:0:0:0:
400,40,166389,2,0,B|444:64|444:64|476:172,2,128,12|0|8,0:0|0:0|0:0,0:0:0:0:
216,28,166884,5,0,0:0:0:0:
296,356,167049,1,8,0:0:0:0:
296,356,167214,1,0,0:0:0:0:
36,188,167378,6,0,L|92:218,1,64,8|0,0:0|0:0,0:0:0:0:
476,196,167543,2,0,L|416:164,1,64
216,28,167708,5,12,0:0:0:0:
216,28,168697,6,0,L|296:356,1,320,12|12,0:0|0:0,0:0:0:0:
428,176,169192,6,0,B|444:120|444:120|416:32,2,136.000002593994,0|8|0,0:0|0:0|0:0,0:0:0:0:
68,216,169686,2,0,B|44:141|44:141|60:85,1,136.000002593994,8|0,0:0|0:0,0:0:0:0:
92,52,169933,1,0,0:0:0:0:
132,28,170016,1,8,0:0:0:0:
364,96,170181,1,0,0:0:0:0:
136,132,170345,6,0,B|156:204|156:204|128:312,1,136.000002593994,12|0,0:0|0:0,0:0:0:0:
296,344,170675,1,8,0:0:0:0:
436,176,170840,2,0,L|344:184,1,68.0000012969971
72,208,171005,1,8,0:0:0:0:
224,28,171170,2,0,B|268:108|268:108|264:176,1,136.000002593994,0|8,0:0|0:0,0:0:0:0:
260,196,171417,1,0,0:0:0:0:
272,240,171499,1,0,0:0:0:0:
308,272,171582,1,0,0:0:0:0:
356,272,171664,6,0,B|384:240|384:240|408:124|408:124,1,136.000002593994,12|0,0:0|0:0,0:0:0:0:
60,24,171994,2,0,B|37:49|37:49|13:165|18:140,1,136.000002593994,8|0,0:0|0:0,0:0:0:0:
120,348,172323,5,8,0:0:0:0:
120,348,172406,1,0,0:0:0:0:
120,348,172488,1,0,0:0:0:0:
352,196,172653,1,8,0:0:0:0:
352,196,172736,1,0,0:0:0:0:
352,196,172818,1,0,0:0:0:0:
76,176,172983,5,12,0:0:0:0:
76,176,173065,1,0,0:0:0:0:
76,176,173148,1,0,0:0:0:0:
296,360,173312,1,8,0:0:0:0:
296,360,173395,1,0,0:0:0:0:
296,360,173477,1,0,0:0:0:0:
216,92,173642,6,0,P|256:68|288:64,1,68.0000012969971,8|0,0:0|0:0,0:0:0:0:
460,208,173807,2,0,P|420:232|388:236,1,68.0000012969971
177,146,173972,6,0,P|199:105|225:85,1,68.0000012969971,8|0,0:0|0:0,0:0:0:0:
498,153,174137,2,0,P|475:193|449:213,1,68.0000012969971
300,300,174301,6,0,B|248:324|248:324|232:332,3,68.0000012969971,12|0|0|0,0:0|0:0|0:0|0:0,0:0:0:0:
348,144,174631,2,0,L|384:80,3,68.0000012969971,8|0|0|0,0:0|0:0|0:0|0:0,0:0:0:0:
380,44,174961,5,8,0:0:0:0:
352,12,175043,1,0,0:0:0:0:
312,4,175126,1,0,0:0:0:0:
276,20,175208,1,0,0:0:0:0:
256,56,175290,1,8,0:0:0:0:
252,96,175373,1,0,0:0:0:0:
236,132,175455,1,0,0:0:0:0:
208,160,175538,1,0,0:0:0:0:
168,172,175620,5,12,0:0:0:0:
128,168,175703,1,0,0:0:0:0:
96,144,175785,1,0,0:0:0:0:
56,140,175867,1,0,0:0:0:0:
24,164,175950,1,8,0:0:0:0:
16,204,176032,1,0,0:0:0:0:
40,236,176115,1,0,0:0:0:0:
80,248,176197,1,0,0:0:0:0:
120,240,176279,5,8,0:0:0:0:
136,276,176362,1,0,0:0:0:0:
152,312,176444,1,0,0:0:0:0:
168,348,176527,1,0,0:0:0:0:
232,288,176609,5,8,0:0:0:0:
268,304,176692,1,0,0:0:0:0:
304,320,176774,1,0,0:0:0:0:
344,332,176856,1,0,0:0:0:0:
344,248,176939,5,12,0:0:0:0:
384,236,177021,1,0,0:0:0:0:
420,220,177104,1,0,0:0:0:0:
456,200,177186,1,0,0:0:0:0:
472,108,177268,6,0,L|480:36,3,68.0000012969971,8|0|0|0,0:0|0:0|0:0|0:0,0:0:0:0:
372,72,177598,2,0,L|284:48,1,68.0000012969971,8|0,0:0|0:0,0:0:0:0:
132,100,177763,2,0,L|220:124,1,68.0000012969971
236,132,177928,5,8,0:0:0:0:
272,148,178010,1,0,0:0:0:0:
296,180,178093,1,0,0:0:0:0:
300,220,178175,1,0,0:0:0:0:
280,256,178257,6,0,L|236:320,1,68.0000012969971,12|0,0:0|0:0,0:0:0:0:
52,296,178422,2,0,L|96:232,1,68.0000012969971
200,60,178587,5,12,0:0:0:0:
452,108,178752,6,0,L|356:148,1,68.0000012969971,4|0,0:0|0:0,0:0:0:0:
204,212,178917,1,0,0:0:0:0:
204,212,179246,5,4,0:0:0:0:
204,212,179576,6,0,B|168:184|168:184|104:196|104:196|80:284|24:332,2,256,4|8|0,0:0|0:0|0:0,0:0:0:0:
392,292,180400,2,0,P|456:356|496:372,2,128,0|8|0,0:0|0:0|0:0,0:0:0:0:
416,48,180895,5,4,0:0:0:0:
496,268,181060,1,0,0:0:0:0:
320,80,181225,1,8,0:0:0:0:
512,180,181389,1,0,0:0:0:0:
224,120,181554,1,0,0:0:0:0:
224,120,181637,1,0,0:0:0:0:
224,120,181719,1,0,0:0:0:0:
48,312,181884,1,8,0:0:0:0:
112,40,182049,1,0,0:0:0:0:
240,288,182214,6,0,B|272:312|272:312|432:328,1,192,4|0,0:0|0:0,0:0:0:0:
508,248,182543,2,0,B|476:224|476:224|425:211|425:211|368:220|368:220|316:208,1,192,8|0,0:0|0:0,0:0:0:0:
192,188,182873,2,0,P|208:156|248:128,1,64
420,64,183038,1,0,0:0:0:0:
264,28,183203,1,8,0:0:0:0:
452,160,183367,1,0,0:0:0:0:
168,80,183532,6,0,P|104:128|76:188,1,128,12|0,0:0|0:0,0:0:0:0:
84,220,183779,1,0,0:0:0:0:
124,252,183862,2,0,P|224:248|264:208,1,128,8|0,0:0|0:0,0:0:0:0:
272,192,184109,1,0,0:0:0:0:
272,140,184192,1,8,0:0:0:0:
296,96,184274,1,0,0:0:0:0:
340,76,184356,1,0,0:0:0:0:
392,88,184439,1,0,0:0:0:0:
428,124,184521,2,0,P|464:192|452:256,1,128,8|0,0:0|0:0,0:0:0:0:
440,288,184768,1,0,0:0:0:0:
404,324,184851,6,0,B|340:352|340:352|248:336|248:336|164:348,1,192,12|0,0:0|0:0,0:0:0:0:
56,244,185181,2,0,B|120:216|120:216|212:232|212:232|296:220,1,192,8|0,0:0|0:0,0:0:0:0:
288,212,185510,1,0,0:0:0:0:
336,196,185593,1,0,0:0:0:0:
384,180,185675,2,0,B|424:168|424:168|480:76,1,128,0|8,0:0|0:0,0:0:0:0:
264,36,185922,1,0,0:0:0:0:
232,24,186005,2,0,B|192:36|192:36|136:128,1,128,0|4,0:0|0:0,0:0:0:0:
136,308,186334,5,0,0:0:0:0:
356,296,186499,1,8,0:0:0:0:
240,116,186664,1,0,0:0:0:0:
64,256,186829,2,0,P|48:328|48:336,2,64
132,56,187159,1,8,0:0:0:0:
244,304,187323,1,0,0:0:0:0:
344,44,187488,6,0,P|416:48|464:96,2,128,4|0|8,0:0|0:0|0:0,0:0:0:0:
152,236,187983,1,0,0:0:0:0:
376,144,188148,2,0,P|396:220|388:288,1,128
364,312,188395,1,0,0:0:0:0:
316,332,188477,2,0,P|236:320|180:260,1,128,8|0,0:0|0:0,0:0:0:0:
68,164,188807,5,12,0:0:0:0:
68,132,188889,1,0,0:0:0:0:
88,100,188972,1,0,0:0:0:0:
120,80,189054,1,0,0:0:0:0:
164,80,189137,1,8,0:0:0:0:
200,108,189219,1,0,0:0:0:0:
220,156,189301,1,0,0:0:0:0:
220,208,189384,1,0,0:0:0:0:
188,256,189466,5,8,0:0:0:0:
132,276,189549,1,0,0:0:0:0:
72,264,189631,1,0,0:0:0:0:
24,220,189714,1,0,0:0:0:0:
24,156,189796,1,8,0:0:0:0:
48,96,189878,1,0,0:0:0:0:
100,56,189961,1,0,0:0:0:0:
172,40,190043,1,0,0:0:0:0:
252,48,190126,6,0,P|336:60|428:72,1,145.600004887695,12|0,0:0|0:0,0:0:0:0:
448,80,190373,1,0,0:0:0:0:
500,88,190455,1,8,0:0:0:0:
412,296,190620,2,0,L|432:376,2,72.8000024438477,0|0|8,0:0|0:0|0:0,0:0:0:0:
180,136,190950,1,0,0:0:0:0:
468,176,191115,2,0,L|368:224,1,72.8000024438477,8|0,0:0|0:0,0:0:0:0:
216,304,191279,1,0,0:0:0:0:
64,152,191444,6,0,B|32:108|32:108|28:12,1,145.600004887695,12|0,0:0|0:0,0:0:0:0:
344,52,191774,2,0,B|376:96|376:96|384:172,2,72.8000024438477,8|0|0,0:0|0:0|0:0,0:0:0:0:
124,232,192104,1,8,0:0:0:0:
348,228,192268,1,0,0:0:0:0:
236,40,192433,1,8,0:0:0:0:
236,40,192516,1,0,0:0:0:0:
236,40,192598,1,0,0:0:0:0:
236,312,192763,6,0,B|280:340|280:340|400:328,1,145.600004887695,12|0,0:0|0:0,0:0:0:0:
128,72,193093,2,0,B|84:44|84:44|-4:48,2,72.8000024438477,8|0|0,0:0|0:0|0:0,0:0:0:0:
368,32,193422,1,8,0:0:0:0:
304,252,193587,1,0,0:0:0:0:
144,224,193752,2,0,L|76:284,2,72.8000024438477,8|0|0,0:0|0:0|0:0,0:0:0:0:
392,124,194082,5,12,0:0:0:0:
424,180,194164,1,0,0:0:0:0:
460,236,194246,1,0,0:0:0:0:
496,292,194329,1,0,0:0:0:0:
412,312,194411,5,8,0:0:0:0:
372,280,194494,1,0,0:0:0:0:
336,248,194576,1,0,0:0:0:0:
300,212,194659,1,0,0:0:0:0:
232,248,194741,5,8,0:0:0:0:
240,282,194823,1,0,0:0:0:0:
248,317,194906,1,0,0:0:0:0:
257,352,194988,1,0,0:0:0:0:
172,348,195071,6,0,L|128:268,1,80,8|12,0:0|0:0,0:0:0:0:
36,148,195565,1,0,0:0:0:0:
276,84,195730,1,8,0:0:0:0:
276,84,195812,1,0,0:0:0:0:
276,84,195895,1,0,0:0:0:0:
412,312,196060,2,0,B|440:276|440:276|428:136,1,145.600004887695,8|0,0:0|0:0,0:0:0:0:
152,28,196389,1,8,0:0:0:0:
140,80,196472,1,0,0:0:0:0:
128,128,196554,1,0,0:0:0:0:
88,332,196719,6,0,B|128:324|128:324|212:248,1,145.600004887695,12|0,0:0|0:0,0:0:0:0:
384,44,197049,2,0,L|360:124,1,72.8000024438477,8|0,0:0|0:0,0:0:0:0:
304,320,197214,1,0,0:0:0:0:
248,88,197378,1,8,0:0:0:0:
76,236,197543,1,0,0:0:0:0:
380,216,197708,2,0,L|292:200,1,72.8000024438477,8|0,0:0|0:0,0:0:0:0:
128,128,197873,1,0,0:0:0:0:
192,316,198038,5,8,0:0:0:0:
236,344,198120,1,0,0:0:0:0:
288,356,198203,1,0,0:0:0:0:
336,348,198285,1,0,0:0:0:0:
376,320,198367,1,8,0:0:0:0:
396,272,198450,1,0,0:0:0:0:
384,224,198532,1,0,0:0:0:0:
364,176,198615,1,0,0:0:0:0:
368,124,198697,5,8,0:0:0:0:
328,156,198779,1,0,0:0:0:0:
280,172,198862,1,0,0:0:0:0:
236,144,198944,1,0,0:0:0:0:
228,100,199027,1,8,0:0:0:0:
200,64,199109,1,0,0:0:0:0:
156,52,199192,1,0,0:0:0:0:
112,60,199274,1,0,0:0:0:0:
80,88,199356,5,8,0:0:0:0:
60,128,199439,1,0,0:0:0:0:
64,172,199521,1,0,0:0:0:0:
84,212,199604,1,0,0:0:0:0:
128,236,199686,1,8,0:0:0:0:
184,228,199768,1,0,0:0:0:0:
228,192,199851,1,0,0:0:0:0:
248,136,199933,1,0,0:0:0:0:
292,88,200016,5,8,0:0:0:0:
356,76,200098,1,0,0:0:0:0:
416,100,200181,1,0,0:0:0:0:
448,156,200263,1,0,0:0:0:0:
452,228,200345,1,8,0:0:0:0:
416,300,200428,1,0,0:0:0:0:
344,332,200510,1,0,0:0:0:0:
264,328,200593,1,0,0:0:0:0:
184,280,200675,6,0,B|152:168|152:168|172:132|184:88,1,180.000006866455,12|12,0:0|0:0,0:0:0:0:
188,80,201252,1,8,0:0:0:0:
192,48,201334,1,12,0:0:0:0:
