osu file format v13

[General]
AudioFilename: 04. AiAe.mp3
AudioLeadIn: 0
PreviewTime: 43674
Countdown: 0
SampleSet: Soft
StackLeniency: 0.7
Mode: 3
LetterboxInBreaks: 0
SpecialStyle: 0
WidescreenStoryboard: 1

[Editor]
DistanceSpacing: 2
BeatDivisor: 4
GridSize: 8
TimelineZoom: 1.1

[Metadata]
Title:AiAe
TitleUnicode:AiAe
Artist:Yuyoyuppe
ArtistUnicode:ゆよゆっぺ
Creator:Fullerene-
Version:NM
Source:
Tags:waflessmo Yolomania 3 Yolo3 YUYOYU EP DJ'TEKINA//SOMETHING Hatsune Miku Append Dark Vocaloid Hardcore Dubstep
BeatmapID:451509
BeatmapSetID:174381

[Difficulty]
HPDrainRate:6
CircleSize:4
OverallDifficulty:7
ApproachRate:5
SliderMultiplier:1.4
SliderTickRate:1

[Events]
//Background and Video events
0,0,"bg.png",0,0
//Break Periods
//Storyboard Layer 0 (Background)
//Storyboard Layer 1 (Fail)
//Storyboard Layer 2 (Pass)
//Storyboard Layer 3 (Foreground)
//Storyboard Sound Samples
//Background Colour Transformations
3,100,163,162,255

[TimingPoints]
1008,333.333,4,2,1,50,1,0
107674,-100,4,2,1,50,0,1
127674,-100,4,2,1,50,0,0
171674,-100,4,2,1,50,0,1
214341,-100,4,2,1,50,0,0

[HitObjects]
64,192,1008,5,6,0:0:0:0:
448,192,1008,1,0,0:0:0:0:
320,192,1341,1,8,0:0:0:0:
192,192,1341,1,0,0:0:0:0:
320,192,1841,1,2,0:0:0:0:
192,192,2008,1,8,0:0:0:0:
448,192,2008,1,0,0:0:0:0:
64,192,2341,1,2,0:0:0:0:
448,192,2674,1,8,0:0:0:0:
320,192,2674,1,0,0:0:0:0:
448,192,3174,1,2,0:0:0:0:
320,192,3341,1,8,0:0:0:0:
64,192,3341,1,0,0:0:0:0:
192,192,3674,1,2,0:0:0:0:
448,192,4008,1,8,0:0:0:0:
64,192,4008,1,0,0:0:0:0:
192,192,4508,1,2,0:0:0:0:
448,192,4674,1,8,0:0:0:0:
320,192,4674,1,0,0:0:0:0:
64,192,5008,1,2,0:0:0:0:
192,192,5341,1,8,0:0:0:0:
64,192,5341,1,0,0:0:0:0:
448,192,5508,1,2,0:0:0:0:
320,192,5841,1,2,0:0:0:0:
448,192,6008,1,8,0:0:0:0:
64,192,6008,1,0,0:0:0:0:
320,192,6174,1,2,0:0:0:0:
64,192,6341,1,2,0:0:0:0:
448,192,6341,1,4,0:0:0:0:
320,192,6674,1,8,0:0:0:0:
192,192,6674,1,0,0:0:0:0:
64,192,7174,1,2,0:0:0:0:
192,192,7341,1,8,0:0:0:0:
320,192,7341,1,0,0:0:0:0:
448,192,7674,1,2,0:0:0:0:
64,192,8008,1,8,0:0:0:0:
192,192,8008,1,0,0:0:0:0:
448,192,8508,1,2,0:0:0:0:
320,192,8674,1,8,0:0:0:0:
64,192,8674,1,0,0:0:0:0:
192,192,9008,1,2,0:0:0:0:
448,192,9341,1,0,0:0:0:0:
320,192,9341,1,8,0:0:0:0:
192,192,9841,1,2,0:0:0:0:
64,192,10008,1,8,0:0:0:0:
320,192,10008,1,0,0:0:0:0:
448,192,10341,1,2,0:0:0:0:
192,192,10674,1,8,0:0:0:0:
320,192,10674,1,0,0:0:0:0:
448,192,10841,1,2,0:0:0:0:
64,192,11008,1,0,0:0:0:0:
192,192,11174,1,2,0:0:0:0:
320,192,11341,1,8,0:0:0:0:
64,192,11341,1,0,0:0:0:0:
192,192,11508,1,8,0:0:0:0:
64,192,11674,1,0,0:0:0:0:
448,192,11674,1,6,0:0:0:0:
192,192,12008,1,0,0:0:0:0:
320,192,12008,1,8,0:0:0:0:
64,192,12508,1,2,0:0:0:0:
320,192,12674,1,8,0:0:0:0:
448,192,12674,1,0,0:0:0:0:
192,192,13008,1,2,0:0:0:0:
448,192,13341,1,8,0:0:0:0:
64,192,13341,1,0,0:0:0:0:
320,192,13841,1,2,0:0:0:0:
448,192,14008,1,8,0:0:0:0:
192,192,14008,1,0,0:0:0:0:
64,192,14341,1,2,0:0:0:0:
192,192,14674,1,8,0:0:0:0:
320,192,14674,1,0,0:0:0:0:
320,192,15174,1,2,0:0:0:0:
192,192,15341,1,8,0:0:0:0:
448,192,15341,1,0,0:0:0:0:
64,192,15674,1,2,0:0:0:0:
320,192,16008,1,0,0:0:0:0:
192,192,16008,1,8,0:0:0:0:
64,192,16174,1,2,0:0:0:0:
192,192,16508,1,2,0:0:0:0:
448,192,16674,1,0,0:0:0:0:
320,192,16674,1,8,0:0:0:0:
192,192,16841,1,8,0:0:0:0:
64,192,17008,1,6,0:0:0:0:
448,192,17008,1,0,0:0:0:0:
448,192,17341,1,8,0:0:0:0:
320,192,17341,1,0,0:0:0:0:
192,192,17841,1,2,0:0:0:0:
64,192,18008,1,8,0:0:0:0:
448,192,18008,1,0,0:0:0:0:
320,192,18341,1,2,0:0:0:0:
64,192,18674,1,8,0:0:0:0:
448,192,18674,1,0,0:0:0:0:
192,192,19174,1,2,0:0:0:0:
448,192,19341,1,8,0:0:0:0:
64,192,19341,1,0,0:0:0:0:
192,192,19674,1,2,0:0:0:0:
448,192,20008,1,0,0:0:0:0:
64,192,20008,1,8,0:0:0:0:
192,192,20341,1,2,0:0:0:0:
448,192,20674,1,0,0:0:0:0:
64,192,20674,1,8,0:0:0:0:
192,192,21008,1,2,0:0:0:0:
64,192,21008,1,0,0:0:0:0:
320,192,21341,1,2,0:0:0:0:
448,192,21341,1,0,0:0:0:0:
192,192,21674,1,2,0:0:0:0:
64,192,21674,1,0,0:0:0:0:
320,192,22008,1,0,0:0:0:0:
448,192,22008,1,0,0:0:0:0:
192,192,22341,1,6,0:0:0:0:
64,192,22341,1,0,2:0:0:0:
448,192,23008,1,0,2:0:0:0:
320,192,23674,1,0,2:0:0:0:
192,192,24341,1,0,2:0:0:0:
64,192,25008,1,0,2:0:0:0:
320,192,25674,1,0,2:0:0:0:
192,192,26341,1,0,2:0:0:0:
320,192,27008,1,2,0:0:0:0:
64,192,27674,1,6,0:0:0:0:
192,192,28341,1,0,2:0:0:0:
448,192,29008,1,0,2:0:0:0:
320,192,29674,1,2,0:0:0:0:
64,192,30341,1,6,0:0:0:0:
192,192,31008,1,0,2:0:0:0:
320,192,31674,1,6,2:0:0:0:
192,192,32341,1,0,2:0:0:0:
64,192,33008,1,4,2:0:0:0:
448,192,33008,1,2,0:0:0:0:
448,192,33674,1,8,2:0:0:0:
320,192,34341,1,8,2:0:0:0:
192,192,35008,1,8,2:0:0:0:
64,192,35674,1,8,2:0:0:0:
192,192,36341,1,8,2:0:0:0:
320,192,37008,1,8,2:0:0:0:
448,192,37674,1,8,2:0:0:0:
64,192,38341,1,8,2:0:0:0:
192,192,39008,1,8,2:0:0:0:
448,192,39674,1,8,2:0:0:0:
320,192,40341,1,8,2:0:0:0:
64,192,41008,128,8,42008:0:0:0:0:
192,192,41341,1,8,0:0:0:0:
320,192,41508,1,8,0:0:0:0:
448,192,41674,1,8,0:0:0:0:
448,192,42008,1,8,0:0:0:0:
320,192,42341,1,0,0:0:0:0:
192,192,42674,1,0,0:0:0:0:
320,192,43008,1,0,1:0:0:0:
64,192,43674,1,6,0:0:0:0:
448,192,43674,1,0,0:0:0:0:
192,192,44008,1,8,0:0:0:0:
320,192,44008,1,0,0:0:0:0:
448,192,44341,1,2,0:0:0:0:
192,192,44674,1,8,0:0:0:0:
64,192,44674,1,0,0:0:0:0:
320,192,45008,1,2,0:0:0:0:
192,192,45341,1,8,0:0:0:0:
448,192,45341,1,0,0:0:0:0:
64,192,45674,1,2,0:0:0:0:
448,192,46008,1,8,0:0:0:0:
320,192,46008,1,0,0:0:0:0:
64,192,46341,1,2,0:0:0:0:
320,192,46674,1,8,0:0:0:0:
192,192,46674,1,0,0:0:0:0:
64,192,47008,1,2,0:0:0:0:
448,192,47341,1,8,0:0:0:0:
320,192,47341,1,0,0:0:0:0:
64,192,47674,1,2,0:0:0:0:
192,192,48008,1,8,0:0:0:0:
448,192,48008,1,0,0:0:0:0:
320,192,48341,1,2,0:0:0:0:
448,192,48674,1,8,0:0:0:0:
64,192,48674,1,0,0:0:0:0:
192,192,49008,1,0,0:0:0:0:
64,192,49008,1,6,0:0:0:0:
320,192,49341,1,8,0:0:0:0:
448,192,49341,1,0,0:0:0:0:
64,192,49674,1,2,0:0:0:0:
192,192,50008,1,8,0:0:0:0:
320,192,50008,1,0,0:0:0:0:
448,192,50341,1,2,0:0:0:0:
192,192,50674,1,8,0:0:0:0:
64,192,50674,1,0,0:0:0:0:
320,192,51008,1,2,0:0:0:0:
64,192,51341,1,0,0:0:0:0:
448,192,51341,1,8,0:0:0:0:
192,192,51674,1,2,0:0:0:0:
320,192,52008,1,8,0:0:0:0:
448,192,52008,1,0,0:0:0:0:
192,192,52341,1,2,0:0:0:0:
448,192,52674,1,8,0:0:0:0:
64,192,52674,1,0,0:0:0:0:
320,192,53008,1,10,0:0:0:0:
192,192,53008,1,0,0:0:0:0:
448,192,53341,1,10,0:0:0:0:
64,192,53341,1,0,0:0:0:0:
192,192,53674,1,0,0:0:0:0:
320,192,53674,1,10,0:0:0:0:
448,192,54008,1,8,0:0:0:0:
64,192,54008,1,2,0:0:0:0:
64,192,54341,1,6,0:0:0:0:
320,192,54341,1,0,0:0:0:0:
192,192,54674,1,0,0:0:0:0:
448,192,54674,1,8,0:0:0:0:
448,192,55008,1,2,0:0:0:0:
64,192,55341,1,8,0:0:0:0:
192,192,55341,1,0,0:0:0:0:
320,192,55674,1,2,0:0:0:0:
64,192,56008,1,0,0:0:0:0:
448,192,56008,1,8,0:0:0:0:
192,192,56341,1,2,0:0:0:0:
320,192,56674,1,8,0:0:0:0:
448,192,56674,1,0,0:0:0:0:
192,192,57008,1,2,0:0:0:0:
448,192,57341,1,8,0:0:0:0:
64,192,57341,1,0,0:0:0:0:
320,192,57674,1,2,0:0:0:0:
448,192,58008,1,8,0:0:0:0:
192,192,58008,1,0,0:0:0:0:
64,192,58341,1,2,0:0:0:0:
192,192,58674,1,8,0:0:0:0:
448,192,58674,1,0,0:0:0:0:
320,192,59008,1,2,0:0:0:0:
448,192,59341,1,8,0:0:0:0:
64,192,59341,1,0,0:0:0:0:
320,192,59674,1,4,0:0:0:0:
192,192,59674,1,2,0:0:0:0:
192,192,60008,1,8,0:0:0:0:
448,192,60008,1,0,0:0:0:0:
64,192,60341,1,2,0:0:0:0:
320,192,60674,1,8,0:0:0:0:
448,192,60674,1,0,0:0:0:0:
192,192,61008,1,6,0:0:0:0:
64,192,61008,1,0,0:0:0:0:
448,192,61341,1,8,0:0:0:0:
320,192,61341,1,0,0:0:0:0:
320,192,61674,1,2,0:0:0:0:
64,192,62008,1,8,0:0:0:0:
448,192,62008,1,0,0:0:0:0:
192,192,62341,1,2,0:0:0:0:
320,192,62341,1,4,0:0:0:0:
320,192,62674,1,0,0:0:0:0:
448,192,62674,1,8,0:0:0:0:
64,192,63008,1,0,0:0:0:0:
192,192,63008,1,6,0:0:0:0:
448,192,63341,1,8,0:0:0:0:
320,192,63341,1,0,0:0:0:0:
192,192,63674,1,6,0:0:0:0:
64,192,63674,1,0,0:0:0:0:
320,192,64008,1,14,0:0:0:0:
448,192,64008,1,0,0:0:0:0:
64,192,64341,1,0,0:0:0:0:
192,192,64341,1,14,0:0:0:0:
320,192,64674,1,14,0:0:0:0:
448,192,64674,1,0,0:0:0:0:
64,192,65008,1,6,0:0:0:0:
448,192,65008,1,0,0:0:0:0:
320,192,65508,1,2,0:0:0:0:
192,192,66341,1,2,0:0:0:0:
448,192,66841,1,2,0:0:0:0:
320,192,67674,1,2,0:0:0:0:
64,192,68174,1,2,0:0:0:0:
448,192,69008,1,2,0:0:0:0:
320,192,69508,1,2,0:0:0:0:
192,192,70341,1,6,0:0:0:0:
64,192,70341,1,0,0:0:0:0:
320,192,70841,1,2,0:0:0:0:
64,192,71674,1,2,0:0:0:0:
192,192,72174,1,2,0:0:0:0:
320,192,73008,1,2,0:0:0:0:
448,192,73508,1,2,0:0:0:0:
64,192,74341,1,2,0:0:0:0:
320,192,74841,1,2,0:0:0:0:
192,192,75674,1,6,0:0:0:0:
64,192,75674,1,0,0:0:0:0:
320,192,76174,1,2,0:0:0:0:
448,192,77008,1,2,0:0:0:0:
320,192,77508,1,2,0:0:0:0:
192,192,78341,1,2,0:0:0:0:
64,192,78841,1,2,0:0:0:0:
192,192,79674,1,2,0:0:0:0:
320,192,80174,1,2,0:0:0:0:
448,192,81008,1,6,0:0:0:0:
320,192,81008,1,0,0:0:0:0:
192,192,81508,1,2,0:0:0:0:
320,192,82341,1,2,0:0:0:0:
448,192,82841,1,2,0:0:0:0:
64,192,83674,1,2,0:0:0:0:
192,192,84174,1,2,0:0:0:0:
448,192,85008,1,6,0:0:0:0:
320,192,85008,1,0,0:0:0:0:
64,192,85341,1,10,0:0:0:0:
448,192,85674,1,2,0:0:0:0:
64,192,86008,1,10,0:0:0:0:
192,192,86341,1,6,0:0:0:0:
320,192,86341,1,0,0:0:0:0:
448,192,86674,1,0,0:0:0:0:
64,192,86674,1,8,0:0:0:0:
320,192,87341,1,0,0:0:0:0:
192,192,87341,1,8,0:0:0:0:
448,192,88008,1,8,0:0:0:0:
320,192,88008,1,0,0:0:0:0:
64,192,88341,1,2,0:0:0:0:
192,192,88674,1,0,0:0:0:0:
448,192,88674,1,8,0:0:0:0:
64,192,89008,1,2,0:0:0:0:
320,192,89341,1,8,0:0:0:0:
448,192,89341,1,0,0:0:0:0:
192,192,89674,1,2,0:0:0:0:
448,192,90008,1,8,0:0:0:0:
64,192,90008,1,0,0:0:0:0:
320,192,90341,1,2,0:0:0:0:
448,192,90674,1,8,0:0:0:0:
64,192,90674,1,0,0:0:0:0:
192,192,91008,1,2,0:0:0:0:
320,192,91341,1,8,0:0:0:0:
448,192,91341,1,0,0:0:0:0:
192,192,91508,1,8,0:0:0:0:
64,192,91674,1,0,0:0:0:0:
320,192,91674,1,6,0:0:0:0:
320,192,92008,1,8,0:0:0:0:
192,192,92008,1,0,0:0:0:0:
448,192,92674,1,8,0:0:0:0:
320,192,92674,1,0,0:0:0:0:
192,192,93341,1,8,0:0:0:0:
64,192,93341,1,0,0:0:0:0:
320,192,93674,1,2,0:0:0:0:
448,192,94008,1,8,0:0:0:0:
64,192,94008,1,0,0:0:0:0:
192,192,94341,1,2,0:0:0:0:
320,192,94674,1,8,0:0:0:0:
448,192,94674,1,0,0:0:0:0:
64,192,95008,1,2,0:0:0:0:
192,192,95341,1,8,0:0:0:0:
448,192,95341,1,0,0:0:0:0:
320,192,95674,1,2,0:0:0:0:
64,192,96008,1,0,0:0:0:0:
192,192,96008,1,8,0:0:0:0:
448,192,96341,128,2,97008:0:0:0:0:
64,192,96674,1,0,0:0:0:0:
320,192,97008,1,0,0:0:0:0:
192,192,97008,1,6,0:0:0:0:
64,192,97341,1,0,0:0:0:0:
448,192,97341,1,8,0:0:0:0:
320,192,98008,1,8,0:0:0:0:
192,192,98008,1,0,0:0:0:0:
448,192,98674,1,8,0:0:0:0:
192,192,98674,1,0,0:0:0:0:
64,192,99008,1,2,0:0:0:0:
192,192,99341,1,8,0:0:0:0:
448,192,99341,1,0,0:0:0:0:
320,192,99674,1,2,0:0:0:0:
448,192,100008,1,8,0:0:0:0:
64,192,100008,1,0,0:0:0:0:
320,192,100341,1,2,0:0:0:0:
192,192,100674,1,8,0:0:0:0:
448,192,100674,1,0,0:0:0:0:
64,192,101008,1,2,0:0:0:0:
320,192,101341,1,8,0:0:0:0:
448,192,101341,1,0,0:0:0:0:
192,192,101674,1,2,0:0:0:0:
448,192,102008,1,8,0:0:0:0:
64,192,102008,1,0,0:0:0:0:
320,192,102674,1,8,0:0:0:0:
448,192,102674,1,0,0:0:0:0:
192,192,103341,1,8,0:0:0:0:
320,192,103341,1,0,0:0:0:0:
448,192,103674,1,2,0:0:0:0:
64,192,104008,1,8,0:0:0:0:
192,192,104008,1,4,0:0:0:0:
448,192,104341,1,2,0:0:0:0:
192,192,104674,1,10,0:0:0:0:
320,192,105008,1,0,0:0:0:0:
448,192,105008,1,6,0:0:0:0:
320,192,105341,1,8,0:0:0:0:
448,192,105341,1,0,0:0:0:0:
192,192,105674,1,8,0:0:0:0:
64,192,105674,1,4,0:0:0:0:
192,192,106008,1,8,0:0:0:0:
64,192,106008,1,0,0:0:0:0:
320,192,106341,1,2,0:0:0:0:
320,192,106674,1,2,0:0:0:0:
448,192,107008,1,2,0:0:0:0:
64,192,107341,1,2,0:0:0:0:
192,192,107674,1,6,0:0:0:0:
320,192,107674,1,4,0:0:0:0:
192,192,108008,1,2,0:0:0:0:
320,192,108341,1,8,0:0:0:0:
448,192,108341,1,0,0:0:0:0:
64,192,109008,1,2,0:0:0:0:
320,192,109674,1,8,0:0:0:0:
448,192,109674,1,0,0:0:0:0:
320,192,110341,1,2,0:0:0:0:
320,192,110674,1,2,0:0:0:0:
64,192,111008,1,8,0:0:0:0:
192,192,111008,1,0,0:0:0:0:
448,192,111674,1,2,0:0:0:0:
320,192,112008,1,2,0:0:0:0:
448,192,112174,1,2,0:0:0:0:
64,192,112341,1,8,0:0:0:0:
192,192,112341,1,0,0:0:0:0:
320,192,112674,1,2,0:0:0:0:
64,192,113008,1,6,0:0:0:0:
320,192,113674,1,8,0:0:0:0:
448,192,113674,1,0,0:0:0:0:
64,192,114341,1,2,0:0:0:0:
64,192,114674,1,2,1:0:0:0:
320,192,115008,1,8,0:0:0:0:
448,192,115008,1,0,0:0:0:0:
448,192,115674,1,2,0:0:0:0:
192,192,116341,1,8,0:0:0:0:
64,192,116341,1,0,0:0:0:0:
320,192,117008,1,2,0:0:0:0:
192,192,117674,1,8,0:0:0:0:
64,192,117674,1,0,0:0:0:0:
64,192,118341,1,6,0:0:0:0:
448,192,118341,1,4,0:0:0:0:
64,192,118674,1,2,1:0:0:0:
320,192,119008,1,8,0:0:0:0:
448,192,119008,1,0,0:0:0:0:
192,192,119674,1,2,0:0:0:0:
448,192,120341,1,8,0:0:0:0:
320,192,120341,1,0,0:0:0:0:
320,192,121008,1,2,0:0:0:0:
320,192,121341,1,2,0:0:0:0:
192,192,121674,1,8,0:0:0:0:
64,192,121674,1,0,0:0:0:0:
320,192,122341,1,2,0:0:0:0:
448,192,122674,1,2,0:0:0:0:
320,192,122841,1,2,1:0:0:0:
192,192,123008,1,8,0:0:0:0:
64,192,123008,1,0,0:0:0:0:
320,192,123341,1,2,0:0:0:0:
64,192,123674,1,6,0:0:0:0:
320,192,124341,1,8,0:0:0:0:
448,192,124341,1,0,0:0:0:0:
320,192,125008,1,2,0:0:0:0:
448,192,125341,1,2,0:0:0:0:
192,192,125674,1,8,0:0:0:0:
64,192,125674,1,0,0:0:0:0:
320,192,126341,1,6,0:0:0:0:
192,192,127008,1,8,0:0:0:0:
64,192,127008,1,0,0:0:0:0:
64,192,127674,1,6,0:0:0:0:
448,192,127674,1,2,0:0:0:0:
64,192,129008,1,6,0:0:0:0:
448,192,129008,1,2,0:0:0:0:
192,192,129341,1,8,0:0:0:0:
320,192,129341,1,0,0:0:0:0:
448,192,129674,1,2,0:0:0:0:
64,192,130008,1,0,0:0:0:0:
192,192,130008,1,8,0:0:0:0:
320,192,130341,1,2,0:0:0:0:
64,192,130674,1,8,0:0:0:0:
192,192,130674,1,0,0:0:0:0:
448,192,131008,1,2,0:0:0:0:
192,192,131341,1,8,0:0:0:0:
320,192,131341,1,0,0:0:0:0:
64,192,131508,1,2,0:0:0:0:
448,192,131674,1,2,0:0:0:0:
320,192,132008,1,8,0:0:0:0:
64,192,132008,1,0,0:0:0:0:
192,192,132341,1,2,0:0:0:0:
64,192,132674,1,8,0:0:0:0:
448,192,132674,1,0,0:0:0:0:
192,192,133008,1,2,0:0:0:0:
320,192,133174,1,2,0:0:0:0:
192,192,133341,1,8,0:0:0:0:
64,192,133341,1,0,0:0:0:0:
320,192,133674,1,2,0:0:0:0:
64,192,133841,1,2,0:0:0:0:
320,192,134008,1,8,0:0:0:0:
448,192,134008,1,0,0:0:0:0:
192,192,134174,1,8,0:0:0:0:
448,192,134341,1,6,0:0:0:0:
64,192,134341,1,0,0:0:0:0:
192,192,134674,1,8,0:0:0:0:
320,192,134674,1,0,0:0:0:0:
320,192,135008,1,2,0:0:0:0:
64,192,135341,1,8,0:0:0:0:
448,192,135341,1,0,0:0:0:0:
192,192,135674,1,2,0:0:0:0:
64,192,136008,1,0,0:0:0:0:
320,192,136008,1,8,0:0:0:0:
320,192,136341,1,0,0:0:0:0:
192,192,136674,1,8,0:0:0:0:
64,192,136674,1,0,0:0:0:0:
448,192,137008,1,2,0:0:0:0:
320,192,137341,1,8,0:0:0:0:
64,192,137341,1,0,0:0:0:0:
192,192,137508,1,8,0:0:0:0:
320,192,137674,1,2,0:0:0:0:
64,192,138008,1,0,0:0:0:0:
320,192,138008,1,8,0:0:0:0:
448,192,138174,1,8,0:0:0:0:
192,192,138341,1,2,0:0:0:0:
192,192,138674,1,8,0:0:0:0:
448,192,138674,1,0,0:0:0:0:
320,192,139008,1,2,0:0:0:0:
192,192,139174,1,2,0:0:0:0:
448,192,139341,1,8,0:0:0:0:
64,192,139341,1,0,0:0:0:0:
320,192,139508,1,2,0:0:0:0:
64,192,139674,1,6,0:0:0:0:
192,192,139674,1,0,0:0:0:0:
320,192,140008,1,8,0:0:0:0:
448,192,140008,1,0,0:0:0:0:
192,192,140341,1,0,0:0:0:0:
448,192,140674,1,0,0:0:0:0:
320,192,140674,1,8,0:0:0:0:
64,192,141008,1,0,0:0:0:0:
192,192,141341,1,8,0:0:0:0:
448,192,141341,1,0,0:0:0:0:
320,192,141674,1,0,0:0:0:0:
448,192,142008,1,8,0:0:0:0:
64,192,142008,1,0,0:0:0:0:
320,192,142174,1,2,0:0:0:0:
192,192,142341,1,2,0:0:0:0:
64,192,142674,1,8,0:0:0:0:
192,192,142674,1,0,0:0:0:0:
320,192,143008,1,0,0:0:0:0:
448,192,143341,1,8,0:0:0:0:
192,192,143341,1,0,0:0:0:0:
64,192,143674,1,0,0:0:0:0:
320,192,143841,1,0,0:0:0:0:
192,192,144008,1,0,0:0:0:0:
448,192,144008,1,8,0:0:0:0:
320,192,144341,1,0,0:0:0:0:
64,192,144508,1,0,0:0:0:0:
448,192,144674,1,8,0:0:0:0:
320,192,144674,1,0,0:0:0:0:
192,192,144841,1,8,0:0:0:0:
320,192,145008,1,6,0:0:0:0:
64,192,145008,1,0,0:0:0:0:
192,192,145341,1,0,0:0:0:0:
448,192,145341,1,8,0:0:0:0:
448,192,145674,1,0,0:0:0:0:
64,192,146008,1,0,0:0:0:0:
320,192,146008,1,8,0:0:0:0:
192,192,146341,1,0,0:0:0:0:
320,192,146674,1,0,0:0:0:0:
448,192,146674,1,8,0:0:0:0:
64,192,147008,1,0,0:0:0:0:
320,192,147341,1,8,0:0:0:0:
192,192,147341,1,0,0:0:0:0:
448,192,147508,1,2,0:0:0:0:
192,192,147674,1,2,0:0:0:0:
448,192,148008,1,8,0:0:0:0:
64,192,148008,1,0,0:0:0:0:
320,192,148341,1,0,0:0:0:0:
192,192,148674,1,8,0:0:0:0:
448,192,148674,1,0,0:0:0:0:
64,192,149008,1,2,0:0:0:0:
320,192,149174,1,0,0:0:0:0:
64,192,149341,1,0,0:0:0:0:
448,192,149674,1,2,0:0:0:0:
192,192,149841,1,0,0:0:0:0:
448,192,150008,1,2,0:0:0:0:
320,192,150174,1,8,0:0:0:0:
64,192,150341,1,4,0:0:0:0:
192,192,150341,1,0,2:0:0:0:
448,192,151008,1,0,2:0:0:0:
320,192,151674,1,0,0:0:0:0:
192,192,152341,1,0,0:0:0:0:
64,192,153008,1,0,2:0:0:0:
320,192,153674,1,0,0:0:0:0:
192,192,154341,1,0,2:0:0:0:
320,192,155008,1,2,2:0:0:0:
64,192,155674,1,6,2:0:0:0:
448,192,155674,1,0,0:0:0:0:
192,192,156341,1,0,0:0:0:0:
448,192,157008,1,0,2:0:0:0:
320,192,157674,1,2,0:0:0:0:
64,192,158341,1,6,2:0:0:0:
448,192,158341,1,0,0:0:0:0:
192,192,159008,1,0,2:0:0:0:
64,192,159674,1,6,2:0:0:0:
320,192,159674,1,0,0:0:0:0:
192,192,160341,1,2,0:0:0:0:
64,192,161008,1,6,2:0:0:0:
448,192,161008,1,0,0:0:0:0:
448,192,161674,1,0,0:0:0:0:
320,192,162341,1,0,0:0:0:0:
192,192,163008,1,0,2:0:0:0:
64,192,163674,1,0,0:0:0:0:
192,192,164341,1,0,0:0:0:0:
320,192,165008,1,0,2:0:0:0:
448,192,165674,1,0,2:0:0:0:
64,192,166341,1,12,1:0:0:0:
192,192,166674,1,8,0:0:0:0:
64,192,167008,1,8,2:0:0:0:
320,192,167341,1,8,0:0:0:0:
192,192,167674,1,8,2:0:0:0:
448,192,168008,1,8,0:0:0:0:
320,192,168341,1,8,2:0:0:0:
448,192,168674,1,8,0:0:0:0:
64,192,169007,128,8,170007:2:0:0:0:
192,192,169341,1,8,0:0:0:0:
448,192,169508,1,8,0:0:0:0:
320,192,169674,1,8,0:0:0:0:
448,192,170008,1,8,0:0:0:0:
64,192,171674,1,6,0:0:0:0:
448,192,171674,1,6,0:0:0:0:
192,192,172008,1,8,0:0:0:0:
320,192,172008,1,0,0:0:0:0:
448,192,172341,1,0,0:0:0:0:
192,192,172674,1,0,0:0:0:0:
64,192,172674,1,8,0:0:0:0:
320,192,173008,1,0,0:0:0:0:
192,192,173341,1,8,0:0:0:0:
448,192,173341,1,0,0:0:0:0:
64,192,173674,1,0,0:0:0:0:
448,192,174008,1,8,0:0:0:0:
320,192,174008,1,0,0:0:0:0:
64,192,174341,1,0,0:0:0:0:
320,192,174674,1,8,0:0:0:0:
192,192,174674,1,0,0:0:0:0:
64,192,175008,1,0,0:0:0:0:
448,192,175341,1,8,0:0:0:0:
320,192,175341,1,0,0:0:0:0:
64,192,175674,1,0,0:0:0:0:
192,192,176008,1,0,0:0:0:0:
448,192,176008,1,8,0:0:0:0:
320,192,176341,1,2,0:0:0:0:
448,192,176674,1,0,0:0:0:0:
64,192,176674,1,8,0:0:0:0:
192,192,177008,1,2,0:0:0:0:
64,192,177008,1,6,0:0:0:0:
320,192,177341,1,8,0:0:0:0:
448,192,177341,1,0,0:0:0:0:
64,192,177674,1,0,0:0:0:0:
192,192,178008,1,0,0:0:0:0:
320,192,178008,1,8,0:0:0:0:
448,192,178341,1,0,0:0:0:0:
192,192,178674,1,8,0:0:0:0:
64,192,178674,1,0,0:0:0:0:
320,192,179008,1,0,0:0:0:0:
64,192,179341,1,0,0:0:0:0:
448,192,179341,1,8,0:0:0:0:
192,192,179674,1,0,0:0:0:0:
320,192,180008,1,8,0:0:0:0:
448,192,180008,1,0,0:0:0:0:
192,192,180341,1,0,0:0:0:0:
448,192,180674,1,8,0:0:0:0:
64,192,180674,1,0,0:0:0:0:
320,192,181008,1,10,0:0:0:0:
192,192,181008,1,0,0:0:0:0:
448,192,181341,1,10,0:0:0:0:
64,192,181341,1,0,0:0:0:0:
192,192,181674,1,0,0:0:0:0:
320,192,181674,1,10,0:0:0:0:
448,192,182008,1,10,0:0:0:0:
64,192,182008,1,0,0:0:0:0:
64,192,182341,1,6,0:0:0:0:
320,192,182341,1,6,0:0:0:0:
192,192,182674,1,8,0:0:0:0:
448,192,182674,1,0,0:0:0:0:
448,192,183008,1,0,0:0:0:0:
64,192,183341,1,8,0:0:0:0:
192,192,183341,1,0,0:0:0:0:
320,192,183674,1,0,0:0:0:0:
64,192,184008,1,8,0:0:0:0:
448,192,184008,1,0,0:0:0:0:
192,192,184341,1,0,0:0:0:0:
320,192,184674,1,8,0:0:0:0:
448,192,184674,1,0,0:0:0:0:
192,192,185008,1,0,0:0:0:0:
448,192,185341,1,0,0:0:0:0:
64,192,185341,1,8,0:0:0:0:
320,192,185674,1,0,0:0:0:0:
448,192,186008,1,8,0:0:0:0:
192,192,186008,1,0,0:0:0:0:
64,192,186341,1,0,0:0:0:0:
192,192,186674,1,8,0:0:0:0:
448,192,186674,1,0,0:0:0:0:
320,192,187008,1,2,0:0:0:0:
448,192,187341,1,2,0:0:0:0:
64,192,187341,1,8,0:0:0:0:
320,192,187674,1,4,0:0:0:0:
192,192,187674,1,2,0:0:0:0:
192,192,188008,1,8,0:0:0:0:
448,192,188008,1,0,0:0:0:0:
64,192,188341,1,0,0:0:0:0:
320,192,188674,1,8,0:0:0:0:
448,192,188674,1,0,0:0:0:0:
192,192,189008,1,4,0:0:0:0:
64,192,189008,1,0,0:0:0:0:
448,192,189341,1,8,0:0:0:0:
320,192,189341,1,0,0:0:0:0:
320,192,189674,1,0,0:0:0:0:
64,192,190008,1,0,0:0:0:0:
448,192,190008,1,8,0:0:0:0:
192,192,190341,1,4,0:0:0:0:
320,192,190341,1,2,0:0:0:0:
320,192,190674,1,8,0:0:0:0:
448,192,190674,1,0,0:0:0:0:
64,192,191008,1,2,0:0:0:0:
192,192,191008,1,4,0:0:0:0:
448,192,191341,1,0,0:0:0:0:
320,192,191341,1,8,0:0:0:0:
192,192,191674,1,4,0:0:0:0:
64,192,191674,1,2,0:0:0:0:
320,192,192008,1,4,0:0:0:0:
448,192,192008,1,8,0:0:0:0:
64,192,192341,1,2,0:0:0:0:
192,192,192341,1,4,0:0:0:0:
320,192,192674,1,6,0:0:0:0:
448,192,192674,1,8,0:0:0:0:
448,192,193008,1,6,0:0:0:0:
64,192,193008,1,6,0:0:0:0:
192,192,193341,1,8,0:0:0:0:
320,192,193341,1,0,0:0:0:0:
64,192,193674,1,0,0:0:0:0:
320,192,194008,1,8,0:0:0:0:
448,192,194008,1,0,0:0:0:0:
192,192,194341,1,0,0:0:0:0:
64,192,194674,1,0,0:0:0:0:
320,192,194674,1,8,0:0:0:0:
448,192,195008,1,0,0:0:0:0:
192,192,195341,1,8,0:0:0:0:
64,192,195341,1,0,0:0:0:0:
448,192,195674,1,0,0:0:0:0:
192,192,196008,1,0,0:0:0:0:
320,192,196008,1,8,0:0:0:0:
448,192,196341,1,0,0:0:0:0:
192,192,196674,1,8,0:0:0:0:
64,192,196674,1,0,0:0:0:0:
448,192,197008,1,0,0:0:0:0:
64,192,197341,1,8,0:0:0:0:
320,192,197341,1,0,0:0:0:0:
192,192,197674,1,0,0:0:0:0:
64,192,198008,1,8,0:0:0:0:
448,192,198008,1,0,0:0:0:0:
192,192,198341,1,2,0:0:0:0:
320,192,198341,1,4,0:0:0:0:
64,192,198674,1,8,0:0:0:0:
192,192,198674,1,0,0:0:0:0:
448,192,199008,1,0,0:0:0:0:
192,192,199341,1,8,0:0:0:0:
320,192,199341,1,0,0:0:0:0:
64,192,199674,1,0,0:0:0:0:
320,192,200008,1,8,0:0:0:0:
448,192,200008,1,0,0:0:0:0:
192,192,200341,1,0,0:0:0:0:
64,192,200674,1,8,0:0:0:0:
448,192,200674,1,0,0:0:0:0:
320,192,201008,1,0,0:0:0:0:
64,192,201341,1,8,0:0:0:0:
192,192,201341,1,0,0:0:0:0:
320,192,201674,1,0,0:0:0:0:
64,192,202008,1,0,0:0:0:0:
448,192,202008,1,8,0:0:0:0:
320,192,202341,1,10,0:0:0:0:
192,192,202341,1,0,0:0:0:0:
448,192,202674,1,8,0:0:0:0:
64,192,202674,1,2,0:0:0:0:
320,192,203008,1,8,0:0:0:0:
192,192,203008,1,2,0:0:0:0:
448,192,203341,1,10,0:0:0:0:
64,192,203341,1,0,0:0:0:0:
448,192,203674,1,6,0:0:0:0:
192,192,203674,1,6,0:0:0:0:
320,192,204008,1,0,0:0:0:0:
64,192,204008,1,8,0:0:0:0:
64,192,204341,1,0,0:0:0:0:
320,192,204674,1,8,0:0:0:0:
448,192,204674,1,0,0:0:0:0:
192,192,205008,1,0,0:0:0:0:
64,192,205341,1,8,0:0:0:0:
448,192,205341,1,0,0:0:0:0:
320,192,205674,1,0,0:0:0:0:
192,192,206008,1,8,0:0:0:0:
64,192,206008,1,0,0:0:0:0:
320,192,206341,1,0,0:0:0:0:
448,192,206674,1,8,0:0:0:0:
64,192,206674,1,0,0:0:0:0:
192,192,207008,1,0,0:0:0:0:
320,192,207341,1,8,0:0:0:0:
64,192,207341,1,0,0:0:0:0:
448,192,207674,1,0,0:0:0:0:
320,192,208008,1,8,0:0:0:0:
64,192,208008,1,0,0:0:0:0:
192,192,208341,1,0,0:0:0:0:
448,192,208674,1,8,0:0:0:0:
64,192,208674,1,0,0:0:0:0:
192,192,209008,1,4,0:0:0:0:
320,192,209008,1,2,0:0:0:0:
64,192,209341,1,8,0:0:0:0:
320,192,209341,1,0,0:0:0:0:
448,192,209674,1,0,0:0:0:0:
192,192,210008,1,8,0:0:0:0:
64,192,210008,1,0,0:0:0:0:
448,192,210341,1,4,0:0:0:0:
320,192,210341,1,2,0:0:0:0:
192,192,210674,1,8,0:0:0:0:
64,192,210674,1,0,0:0:0:0:
192,192,211008,1,0,0:0:0:0:
64,192,211341,1,0,0:0:0:0:
448,192,211341,1,8,0:0:0:0:
192,192,211674,1,4,0:0:0:0:
320,192,211674,1,2,0:0:0:0:
192,192,212008,1,8,0:0:0:0:
64,192,212008,1,0,0:0:0:0:
320,192,212341,1,2,0:0:0:0:
448,192,212341,1,4,0:0:0:0:
192,192,212674,1,8,0:0:0:0:
64,192,212674,1,0,0:0:0:0:
320,192,213008,1,2,0:0:0:0:
448,192,213008,1,4,0:0:0:0:
64,192,213341,1,8,0:0:0:0:
192,192,213341,1,4,0:0:0:0:
320,192,213674,1,2,0:0:0:0:
448,192,213674,1,4,0:0:0:0:
192,192,214008,1,12,0:0:0:0:
64,192,214008,1,0,0:0:0:0:
64,192,214341,1,6,0:0:0:0:
448,192,214341,1,6,0:0:0:0:
192,192,214674,1,2,0:0:0:0:
320,192,215008,1,2,0:0:0:0:
448,192,215341,1,2,0:0:0:0:
64,192,215674,1,2,0:0:0:0:
192,192,216008,1,2,0:0:0:0:
320,192,216341,1,2,0:0:0:0:
448,192,216674,1,2,0:0:0:0:
64,192,217008,1,2,0:0:0:0:
192,192,217341,1,2,0:0:0:0:
320,192,217674,1,2,0:0:0:0:
448,192,218008,1,2,0:0:0:0:
64,192,218341,1,2,0:0:0:0:
192,192,218674,1,2,0:0:0:0:
320,192,219008,1,2,0:0:0:0:
448,192,219341,1,2,0:0:0:0:
64,192,219674,1,6,0:0:0:0:
320,192,220008,1,2,0:0:0:0:
192,192,220341,1,2,0:0:0:0:
448,192,220674,1,2,0:0:0:0:
64,192,221008,1,2,0:0:0:0:
320,192,221341,1,2,0:0:0:0:
192,192,221674,1,2,0:0:0:0:
448,192,222008,1,2,0:0:0:0:
64,192,222341,1,2,0:0:0:0:
320,192,222674,1,2,0:0:0:0:
192,192,223008,1,2,0:0:0:0:
448,192,223341,1,2,0:0:0:0:
64,192,223674,1,2,0:0:0:0:
320,192,224008,1,2,0:0:0:0:
192,192,224341,1,2,0:0:0:0:
448,192,224674,1,2,0:0:0:0:
192,192,225008,1,6,0:0:0:0:
448,192,225341,1,2,0:0:0:0:
64,192,225674,1,2,0:0:0:0:
320,192,226008,1,2,0:0:0:0:
192,192,226341,1,2,0:0:0:0:
448,192,226674,1,2,0:0:0:0:
64,192,227008,1,2,0:0:0:0:
320,192,227341,1,2,0:0:0:0:
192,192,227674,1,2,0:0:0:0:
320,192,228008,1,2,0:0:0:0:
192,192,228341,1,2,0:0:0:0:
320,192,228674,1,2,0:0:0:0:
448,192,229008,1,2,0:0:0:0:
64,192,229341,1,2,0:0:0:0:
320,192,229674,1,2,0:0:0:0:
192,192,230008,1,2,0:0:0:0:
448,192,230341,1,6,0:0:0:0:
64,192,230674,1,2,0:0:0:0:
320,192,231008,1,2,0:0:0:0:
192,192,231341,1,2,0:0:0:0:
448,192,231674,1,2,0:0:0:0:
64,192,232008,1,2,0:0:0:0:
320,192,232341,1,2,0:0:0:0:
192,192,232674,1,2,0:0:0:0:
448,192,233008,1,2,0:0:0:0:
64,192,233341,1,2,0:0:0:0:
448,192,233674,1,2,0:0:0:0:
192,192,234008,1,2,0:0:0:0:
448,192,234341,1,2,0:0:0:0:
320,192,234674,1,2,0:0:0:0:
448,192,235008,1,2,0:0:0:0:
64,192,235341,1,2,0:0:0:0:
192,192,235674,1,0,0:0:0:0:
