osu file format v13

[General]
AudioFilename: 04. AiAe.mp3
AudioLeadIn: 0
PreviewTime: 43674
Countdown: 0
SampleSet: Soft
StackLeniency: 0.7
Mode: 3
LetterboxInBreaks: 0
SpecialStyle: 0
WidescreenStoryboard: 1

[Editor]
DistanceSpacing: 2
BeatDivisor: 4
GridSize: 8
TimelineZoom: 1.4

[Metadata]
Title:AiAe
TitleUnicode:AiAe
Artist:Yuyoyuppe
ArtistUnicode:ゆよゆっぺ
Creator:Fullerene-
Version:MX
Source:
Tags:waflessmo Yolomania 3 Yolo3 YUYOYU EP DJ'TEKINA//SOMETHING Hatsune Miku Append Dark Vocaloid Hardcore Dubstep
BeatmapID:421063
BeatmapSetID:174381

[Difficulty]
HPDrainRate:7
CircleSize:4
OverallDifficulty:8
ApproachRate:5
SliderMultiplier:1.4
SliderTickRate:1

[Events]
//Background and Video events
0,0,"bg.png",0,0
//Break Periods
//Storyboard Layer 0 (Background)
//Storyboard Layer 1 (Fail)
//Storyboard Layer 2 (Pass)
//Storyboard Layer 3 (Foreground)
//Storyboard Sound Samples
//Background Colour Transformations
3,100,163,162,255

[TimingPoints]
1008,333.333,4,2,1,50,1,0
22341,-111.111111111111,4,2,1,50,0,0
32674,-62.5,4,2,1,50,0,0
32841,-100,4,2,1,50,0,0
33008,-111.111111111111,4,2,1,50,0,0
38341,-100,4,2,1,50,0,0
42341,-111.111111111111,4,2,1,50,0,0
43341,-100,4,2,1,50,0,0
106341,-133.333333333333,4,2,1,15,0,0
106508,-80,4,2,1,15,0,0
106674,-133.333333333333,4,2,1,15,0,0
106841,-80,4,2,1,15,0,0
107008,-133.333333333333,4,2,1,15,0,0
107174,-80,4,2,1,15,0,0
107341,-133.333333333333,4,2,1,15,0,0
107424,-100,4,2,1,15,0,0
107508,-80,4,2,1,15,0,0
107591,-66.6666666666667,4,2,1,15,0,0
107674,-100,4,2,1,50,0,1
127674,-111.111111111111,4,2,1,30,0,0
129008,-100,4,2,1,50,0,0
150341,-111.111111111111,4,2,1,50,0,0
155674,-100,4,2,1,50,0,0
171674,-100,4,2,1,50,0,1
214341,-100,4,2,1,30,0,0

[HitObjects]
320,0,675,128,0,1008:1:0:0:0:
64,192,1008,5,6,0:0:0:0:
192,192,1008,1,0,0:0:0:0:
448,192,1008,1,0,0:0:0:0:
320,192,1174,1,0,0:0:0:0:
64,192,1174,1,0,0:0:0:0:
192,192,1341,1,8,0:0:0:0:
448,192,1341,1,0,0:0:0:0:
320,192,1508,1,0,0:0:0:0:
448,192,1674,1,0,0:0:0:0:
64,192,1841,1,2,0:0:0:0:
320,192,1841,1,0,0:0:0:0:
192,192,2008,1,8,0:0:0:0:
448,192,2008,1,0,0:0:0:0:
320,192,2174,1,0,0:0:0:0:
64,192,2341,1,2,0:0:0:0:
448,192,2341,1,0,0:0:0:0:
64,192,2508,1,0,0:0:0:0:
192,192,2674,1,8,0:0:0:0:
448,192,2674,1,0,0:0:0:0:
320,192,2841,1,0,0:0:0:0:
448,192,3008,1,0,0:0:0:0:
64,192,3174,1,2,0:0:0:0:
192,192,3174,1,0,0:0:0:0:
192,192,3341,1,8,0:0:0:0:
448,192,3341,1,0,0:0:0:0:
64,192,3508,1,0,0:0:0:0:
192,192,3591,1,8,0:0:0:0:
320,192,3674,1,2,0:0:0:0:
448,192,3674,1,0,0:0:0:0:
64,192,3841,1,0,0:0:0:0:
192,192,4008,1,8,0:0:0:0:
448,192,4008,1,0,0:0:0:0:
320,192,4174,1,0,0:0:0:0:
448,192,4341,1,0,0:0:0:0:
64,192,4508,1,2,0:0:0:0:
192,192,4508,1,0,0:0:0:0:
192,192,4674,1,8,0:0:0:0:
448,192,4674,1,0,0:0:0:0:
320,192,4841,1,0,0:0:0:0:
64,192,5008,1,0,0:0:0:0:
448,192,5008,1,2,0:0:0:0:
64,192,5174,1,0,0:0:0:0:
192,192,5258,1,2,0:0:0:0:
320,192,5258,1,0,0:0:0:0:
64,192,5341,1,8,0:0:0:0:
448,192,5341,1,0,0:0:0:0:
192,192,5508,1,0,0:0:0:0:
320,192,5508,1,2,0:0:0:0:
448,192,5674,1,0,0:0:0:0:
64,192,5841,1,2,0:0:0:0:
192,192,5841,1,0,0:0:0:0:
192,192,6008,1,8,0:0:0:0:
448,192,6008,1,0,0:0:0:0:
64,192,6174,1,0,0:0:0:0:
320,192,6174,1,2,0:0:0:0:
192,192,6258,1,2,0:0:0:0:
64,192,6341,1,6,0:0:0:0:
320,192,6341,1,4,0:0:0:0:
448,192,6341,1,0,0:0:0:0:
448,192,6508,1,0,0:0:0:0:
64,192,6674,1,8,0:0:0:0:
320,192,6674,1,0,0:0:0:0:
192,192,6841,1,0,0:0:0:0:
64,192,7008,1,0,0:0:0:0:
192,192,7174,1,2,0:0:0:0:
448,192,7174,1,0,0:0:0:0:
64,192,7341,1,8,0:0:0:0:
320,192,7341,1,0,0:0:0:0:
192,192,7508,1,0,0:0:0:0:
64,192,7674,1,2,0:0:0:0:
448,192,7674,1,0,0:0:0:0:
448,192,7841,1,0,0:0:0:0:
64,192,8008,1,8,0:0:0:0:
320,192,8008,1,0,0:0:0:0:
192,192,8174,1,0,0:0:0:0:
64,192,8341,1,0,0:0:0:0:
320,192,8508,1,0,0:0:0:0:
448,192,8508,1,2,0:0:0:0:
64,192,8674,1,8,0:0:0:0:
320,192,8674,1,0,0:0:0:0:
192,192,8841,1,0,0:0:0:0:
320,192,8924,1,8,0:0:0:0:
64,192,9008,1,2,0:0:0:0:
192,192,9008,1,0,0:0:0:0:
448,192,9174,1,0,0:0:0:0:
64,192,9341,1,0,0:0:0:0:
320,192,9341,1,8,0:0:0:0:
192,192,9508,1,0,0:0:0:0:
64,192,9674,1,0,0:0:0:0:
320,192,9841,1,0,0:0:0:0:
448,192,9841,1,2,0:0:0:0:
64,192,10008,1,8,0:0:0:0:
320,192,10008,1,0,0:0:0:0:
192,192,10174,1,0,0:0:0:0:
64,192,10341,1,2,0:0:0:0:
448,192,10341,1,0,0:0:0:0:
192,192,10508,1,0,0:0:0:0:
64,192,10674,1,8,0:0:0:0:
320,192,10674,1,0,0:0:0:0:
192,192,10841,1,2,0:0:0:0:
320,192,10841,1,0,0:0:0:0:
64,192,11008,1,0,0:0:0:0:
192,192,11174,1,2,0:0:0:0:
320,192,11174,1,0,0:0:0:0:
64,192,11341,1,8,0:0:0:0:
320,192,11341,1,0,0:0:0:0:
192,192,11424,1,8,0:0:0:0:
64,192,11508,1,8,0:0:0:0:
448,192,11508,1,0,0:0:0:0:
192,192,11591,1,8,0:0:0:0:
64,192,11674,1,6,0:0:0:0:
320,192,11674,1,6,0:0:0:0:
448,192,11674,1,0,0:0:0:0:
64,192,11841,1,0,0:0:0:0:
320,192,12008,1,8,0:0:0:0:
448,192,12008,1,0,0:0:0:0:
192,192,12174,1,0,0:0:0:0:
448,192,12341,1,0,0:0:0:0:
64,192,12508,1,2,0:0:0:0:
192,192,12508,1,0,0:0:0:0:
320,192,12674,1,8,0:0:0:0:
448,192,12674,1,0,0:0:0:0:
192,192,12841,1,0,0:0:0:0:
64,192,13008,1,2,0:0:0:0:
448,192,13008,1,0,0:0:0:0:
64,192,13174,1,0,0:0:0:0:
320,192,13341,1,8,0:0:0:0:
448,192,13341,1,0,0:0:0:0:
192,192,13508,1,0,0:0:0:0:
448,192,13674,1,0,0:0:0:0:
64,192,13841,1,2,0:0:0:0:
320,192,13841,1,0,0:0:0:0:
320,192,14008,1,8,0:0:0:0:
448,192,14008,1,0,0:0:0:0:
192,192,14174,1,0,0:0:0:0:
320,192,14258,1,8,0:0:0:0:
192,192,14341,1,2,0:0:0:0:
448,192,14341,1,0,0:0:0:0:
64,192,14508,1,0,0:0:0:0:
320,192,14674,1,8,0:0:0:0:
448,192,14674,1,0,0:0:0:0:
192,192,14841,1,0,0:0:0:0:
448,192,15008,1,0,0:0:0:0:
64,192,15174,1,2,0:0:0:0:
320,192,15174,1,0,0:0:0:0:
320,192,15341,1,0,0:0:0:0:
448,192,15341,1,8,0:0:0:0:
192,192,15508,1,0,0:0:0:0:
64,192,15674,1,2,0:0:0:0:
448,192,15674,1,0,0:0:0:0:
64,192,15841,1,0,0:0:0:0:
320,192,16008,1,8,0:0:0:0:
448,192,16008,1,0,0:0:0:0:
64,192,16174,1,0,0:0:0:0:
192,192,16174,1,2,0:0:0:0:
448,192,16341,1,0,0:0:0:0:
192,192,16424,1,8,0:0:0:0:
64,192,16508,1,2,0:0:0:0:
320,192,16508,1,0,0:0:0:0:
320,192,16674,1,8,0:0:0:0:
448,192,16674,1,0,0:0:0:0:
64,192,16841,1,8,0:0:0:0:
192,192,16841,1,0,0:0:0:0:
64,192,17008,1,6,0:0:0:0:
192,192,17008,1,4,0:0:0:0:
448,192,17008,1,0,0:0:0:0:
448,192,17174,1,0,0:0:0:0:
64,192,17341,1,8,0:0:0:0:
192,192,17341,1,0,0:0:0:0:
320,192,17508,1,0,0:0:0:0:
64,192,17674,1,0,0:0:0:0:
320,192,17841,1,2,0:0:0:0:
448,192,17841,1,0,0:0:0:0:
64,192,18008,1,8,0:0:0:0:
192,192,18008,1,0,0:0:0:0:
320,192,18174,1,0,0:0:0:0:
64,192,18341,1,2,0:0:0:0:
448,192,18341,1,2,0:0:0:0:
448,192,18508,1,0,0:0:0:0:
64,192,18674,1,8,0:0:0:0:
192,192,18674,1,0,0:0:0:0:
320,192,18841,1,0,0:0:0:0:
64,192,19008,1,0,0:0:0:0:
192,192,19174,1,2,0:0:0:0:
448,192,19174,1,0,0:0:0:0:
64,192,19341,1,8,0:0:0:0:
192,192,19341,1,0,0:0:0:0:
320,192,19508,1,0,0:0:0:0:
192,192,19591,1,8,0:0:0:0:
64,192,19674,1,2,0:0:0:0:
320,192,19674,1,2,0:0:0:0:
448,192,19841,1,0,0:0:0:0:
64,192,20008,1,0,0:0:0:0:
192,192,20008,1,8,0:0:0:0:
320,192,20174,1,0,0:0:0:0:
64,192,20341,1,2,0:0:0:0:
192,192,20341,1,2,0:0:0:0:
448,192,20341,1,0,0:0:0:0:
448,192,20508,1,0,0:0:0:0:
64,192,20674,1,0,0:0:0:0:
192,192,20674,1,8,0:0:0:0:
320,192,20841,1,0,0:0:0:0:
64,192,21008,1,2,0:0:0:0:
192,192,21008,1,0,0:0:0:0:
448,192,21008,1,0,0:0:0:0:
320,192,21258,1,8,0:0:0:0:
448,192,21258,1,0,0:0:0:0:
64,192,21341,1,2,0:0:0:0:
192,192,21341,1,0,0:0:0:0:
320,192,21591,1,8,0:0:0:0:
448,192,21591,1,0,0:0:0:0:
64,192,21674,1,2,0:0:0:0:
192,192,21674,1,0,0:0:0:0:
320,192,21841,1,2,0:0:0:0:
448,192,21841,1,0,0:0:0:0:
64,192,21924,1,2,0:0:0:0:
192,192,21924,1,0,0:0:0:0:
320,0,22008,128,2,22091:0:0:0:0:
448,0,22008,128,0,22091:0:0:0:0:
64,192,22091,1,0,0:0:0:0:
192,192,22091,1,2,0:0:0:0:
320,192,22174,1,2,0:0:0:0:
448,192,22174,1,0,0:0:0:0:
64,192,22258,1,2,0:0:0:0:
320,192,22341,1,6,0:0:0:0:
448,192,22341,1,6,2:0:0:0:
192,0,22341,128,0,22841:0:0:0:0:
448,0,23008,128,0,23508:2:0:0:0:
320,0,23674,128,0,24174:2:0:0:0:
192,0,24341,128,0,24841:2:0:0:0:
64,0,25008,128,0,25508:2:0:0:0:
320,0,25674,128,0,26174:2:0:0:0:
192,0,26341,128,0,27008:2:0:0:0:
320,192,27008,128,2,27508:0:0:0:0:
192,192,27341,128,2,27508:0:0:0:0:
448,192,27674,1,4,0:0:0:0:
64,0,27674,128,6,28174:2:0:0:0:
192,0,28341,128,0,28841:2:0:0:0:
448,0,29008,128,0,29508:2:0:0:0:
320,0,29674,128,2,30174:0:0:0:0:
192,192,30008,128,2,30174:0:0:0:0:
448,192,30341,1,4,0:0:0:0:
64,0,30341,128,6,30841:2:0:0:0:
192,0,31008,128,0,31341:2:0:0:0:
448,192,31674,1,6,2:0:0:0:
320,0,31674,128,0,32174:0:0:0:0:
448,0,32174,128,0,32341:2:0:0:0:
320,0,32341,128,0,32508:2:0:0:0:
64,192,32508,1,2,0:0:0:0:
192,192,32508,1,0,0:0:0:0:
320,192,32591,1,2,0:0:0:0:
448,192,32591,1,0,0:0:0:0:
64,192,32674,1,8,0:0:0:0:
192,192,32674,1,2,0:0:0:0:
320,192,33008,1,4,2:0:0:0:
448,192,33008,1,6,0:0:0:0:
64,0,33008,128,2,33508:0:0:0:0:
192,192,33341,1,0,0:0:0:0:
320,192,33341,1,0,0:0:0:0:
192,192,33674,1,8,2:0:0:0:
448,0,33674,128,2,34174:0:0:0:0:
64,192,34008,1,0,0:0:0:0:
192,192,34008,1,0,0:0:0:0:
448,192,34341,1,8,2:0:0:0:
320,0,34341,128,2,34841:0:0:0:0:
64,192,34674,1,0,0:0:0:0:
448,192,34674,1,0,0:0:0:0:
64,192,35008,1,8,2:0:0:0:
192,0,35008,128,2,35508:0:0:0:0:
64,192,35341,1,0,0:0:0:0:
448,192,35341,1,0,0:0:0:0:
320,192,35674,1,8,2:0:0:0:
64,0,35674,128,2,36174:0:0:0:0:
192,192,36008,1,0,0:0:0:0:
320,192,36008,1,0,0:0:0:0:
448,192,36341,1,8,2:0:0:0:
192,0,36341,128,2,36841:0:0:0:0:
320,192,36674,1,0,0:0:0:0:
64,192,36674,1,0,0:0:0:0:
448,192,37008,1,8,2:0:0:0:
320,0,37008,128,2,37508:0:0:0:0:
64,192,37341,1,0,0:0:0:0:
192,192,37341,1,0,0:0:0:0:
448,0,37508,128,0,37674:2:0:0:0:
192,192,37674,1,8,2:0:0:0:
320,0,37674,128,2,38008:0:0:0:0:
64,192,38008,1,0,0:0:0:0:
448,192,38008,1,0,0:0:0:0:
192,192,38174,1,0,0:0:0:0:
320,192,38174,1,0,0:0:0:0:
448,192,38341,1,8,2:0:0:0:
64,0,38341,128,6,38841:0:0:0:0:
448,192,38508,1,0,0:0:0:0:
192,192,38674,1,8,0:0:0:0:
320,192,38674,1,0,0:0:0:0:
320,192,38841,1,0,0:0:0:0:
448,192,39008,1,8,2:0:0:0:
192,0,39008,128,0,39508:0:0:0:0:
448,192,39174,1,0,0:0:0:0:
64,192,39341,1,8,0:0:0:0:
320,192,39341,1,0,0:0:0:0:
64,192,39508,1,0,0:0:0:0:
320,192,39674,1,8,2:0:0:0:
448,0,39674,128,0,40174:0:0:0:0:
320,192,39841,1,0,0:0:0:0:
64,192,40008,1,8,0:0:0:0:
192,192,40008,1,0,0:0:0:0:
192,192,40174,1,0,0:0:0:0:
448,192,40341,1,8,2:0:0:0:
320,0,40341,128,0,40841:0:0:0:0:
448,192,40508,1,0,0:0:0:0:
64,192,40674,1,8,0:0:0:0:
192,192,40674,1,8,0:0:0:0:
64,192,40841,1,0,0:0:0:0:
64,192,41008,1,8,0:0:0:0:
448,192,41008,1,0,0:0:0:0:
320,192,41091,1,0,0:0:0:0:
64,192,41174,1,0,0:0:0:0:
192,192,41258,1,0,0:0:0:0:
320,192,41341,1,8,0:0:0:0:
448,192,41341,1,0,0:0:0:0:
192,192,41424,1,0,0:0:0:0:
320,192,41508,1,8,0:0:0:0:
448,192,41508,1,0,0:0:0:0:
192,192,41591,1,0,0:0:0:0:
320,192,41674,1,8,0:0:0:0:
448,192,41674,1,0,0:0:0:0:
64,192,41758,1,0,0:0:0:0:
448,192,41841,1,0,0:0:0:0:
64,192,41924,1,0,0:0:0:0:
320,192,42008,1,8,0:0:0:0:
448,192,42008,1,0,0:0:0:0:
64,192,42091,1,0,0:0:0:0:
448,192,42174,1,0,0:0:0:0:
64,192,42258,1,0,0:0:0:0:
320,192,42341,1,0,0:0:0:0:
448,0,42341,128,0,42424:1:0:0:0:
64,192,42508,1,0,0:0:0:0:
192,192,42674,1,0,0:0:0:0:
448,0,42674,128,0,42758:1:0:0:0:
320,192,42841,1,0,0:0:0:0:
64,192,43008,1,0,1:0:0:0:
448,0,43008,128,0,43091:0:0:0:0:
64,192,43341,1,0,0:0:0:0:
192,192,43383,1,0,0:0:0:0:
320,192,43424,1,0,0:0:0:0:
448,192,43466,1,0,0:0:0:0:
64,192,43508,1,0,0:0:0:0:
192,192,43549,1,0,0:0:0:0:
320,192,43591,1,0,0:0:0:0:
448,192,43633,1,0,0:0:0:0:
192,192,43674,1,6,0:0:0:0:
64,192,43674,1,0,0:0:0:0:
320,192,43758,1,0,0:0:0:0:
192,192,43841,1,0,0:0:0:0:
320,192,43924,1,0,0:0:0:0:
64,192,44008,1,8,0:0:0:0:
320,192,44091,1,0,0:0:0:0:
192,192,44174,1,0,0:0:0:0:
448,192,44258,1,8,0:0:0:0:
64,192,44341,1,2,0:0:0:0:
192,192,44341,1,0,0:0:0:0:
448,192,44424,1,0,0:0:0:0:
64,192,44508,1,0,0:0:0:0:
192,192,44591,1,0,0:0:0:0:
320,192,44674,1,8,0:0:0:0:
192,192,44758,1,0,0:0:0:0:
320,192,44841,1,0,0:0:0:0:
448,192,44924,1,0,0:0:0:0:
64,192,45008,1,2,0:0:0:0:
192,192,45008,1,0,0:0:0:0:
448,192,45091,1,0,0:0:0:0:
64,192,45174,1,0,0:0:0:0:
192,192,45258,1,0,0:0:0:0:
320,192,45341,1,8,0:0:0:0:
192,192,45424,1,0,0:0:0:0:
64,192,45508,1,0,0:0:0:0:
320,192,45591,1,8,0:0:0:0:
64,192,45674,1,2,0:0:0:0:
192,192,45674,1,0,0:0:0:0:
448,192,45758,1,0,0:0:0:0:
320,192,45841,1,0,0:0:0:0:
192,192,45924,1,0,0:0:0:0:
64,192,46008,1,8,0:0:0:0:
320,192,46091,1,0,0:0:0:0:
192,192,46174,1,0,0:0:0:0:
448,192,46258,1,0,0:0:0:0:
192,192,46341,1,2,0:0:0:0:
320,192,46341,1,0,0:0:0:0:
448,192,46424,1,0,0:0:0:0:
64,192,46508,1,0,0:0:0:0:
320,192,46591,1,0,0:0:0:0:
192,192,46674,1,8,0:0:0:0:
320,192,46758,1,0,0:0:0:0:
448,192,46841,1,0,0:0:0:0:
64,192,46924,1,8,0:0:0:0:
320,192,47008,1,0,0:0:0:0:
448,192,47008,1,2,0:0:0:0:
192,192,47091,1,0,0:0:0:0:
64,192,47174,1,0,0:0:0:0:
448,192,47258,1,0,0:0:0:0:
320,192,47341,1,8,0:0:0:0:
64,192,47424,1,0,0:0:0:0:
448,192,47508,1,0,0:0:0:0:
320,192,47591,1,0,0:0:0:0:
64,192,47674,1,2,0:0:0:0:
192,192,47674,1,0,0:0:0:0:
320,192,47758,1,0,0:0:0:0:
448,192,47841,1,0,0:0:0:0:
192,192,47924,1,0,0:0:0:0:
64,192,48008,1,8,0:0:0:0:
320,192,48091,1,0,0:0:0:0:
192,192,48174,1,0,0:0:0:0:
320,192,48258,1,8,0:0:0:0:
64,192,48341,1,2,0:0:0:0:
192,192,48341,1,0,0:0:0:0:
320,192,48424,1,0,0:0:0:0:
64,192,48508,1,2,0:0:0:0:
192,192,48591,1,0,0:0:0:0:
320,192,48674,1,8,0:0:0:0:
192,192,48758,1,0,0:0:0:0:
448,192,48841,1,2,0:0:0:0:
320,192,48924,1,0,0:0:0:0:
64,192,49008,1,6,0:0:0:0:
192,192,49008,1,6,0:0:0:0:
448,192,49008,1,0,0:0:0:0:
320,192,49091,1,0,0:0:0:0:
192,192,49174,1,0,0:0:0:0:
320,192,49258,1,0,0:0:0:0:
448,192,49341,1,8,0:0:0:0:
192,192,49424,1,0,0:0:0:0:
320,192,49508,1,0,0:0:0:0:
192,192,49591,1,8,0:0:0:0:
64,192,49674,1,2,0:0:0:0:
320,192,49674,1,0,0:0:0:0:
448,192,49758,1,0,0:0:0:0:
64,192,49841,1,0,0:0:0:0:
320,192,49924,1,0,0:0:0:0:
192,192,50008,1,8,0:0:0:0:
320,192,50091,1,0,0:0:0:0:
192,192,50174,1,0,0:0:0:0:
448,192,50258,1,0,0:0:0:0:
64,192,50341,1,2,0:0:0:0:
320,192,50341,1,0,0:0:0:0:
448,192,50424,1,0,0:0:0:0:
64,192,50508,1,0,0:0:0:0:
320,192,50591,1,0,0:0:0:0:
192,192,50674,1,8,0:0:0:0:
320,192,50758,1,0,0:0:0:0:
64,192,50841,1,0,0:0:0:0:
448,192,50924,1,8,0:0:0:0:
64,192,51008,1,0,0:0:0:0:
320,192,51008,1,2,0:0:0:0:
448,192,51091,1,0,0:0:0:0:
192,192,51174,1,0,0:0:0:0:
320,192,51258,1,0,0:0:0:0:
64,192,51341,1,8,0:0:0:0:
192,192,51424,1,0,0:0:0:0:
320,192,51508,1,0,0:0:0:0:
192,192,51591,1,0,0:0:0:0:
64,192,51674,1,0,0:0:0:0:
448,192,51674,1,2,0:0:0:0:
320,192,51758,1,0,0:0:0:0:
192,192,51841,1,0,0:0:0:0:
448,192,51924,1,0,0:0:0:0:
64,192,52008,1,8,0:0:0:0:
192,192,52091,1,0,0:0:0:0:
448,192,52174,1,0,0:0:0:0:
64,192,52258,1,8,0:0:0:0:
192,192,52341,1,2,0:0:0:0:
448,192,52341,1,0,0:0:0:0:
320,192,52424,1,0,0:0:0:0:
64,192,52508,1,0,0:0:0:0:
448,192,52591,1,0,0:0:0:0:
192,192,52674,1,8,0:0:0:0:
64,192,52758,1,0,0:0:0:0:
448,192,52841,1,0,0:0:0:0:
192,192,52924,1,0,0:0:0:0:
64,192,53008,1,10,0:0:0:0:
320,192,53008,1,0,0:0:0:0:
448,192,53091,1,0,0:0:0:0:
192,192,53174,1,0,0:0:0:0:
320,192,53258,1,0,0:0:0:0:
64,192,53341,1,10,0:0:0:0:
448,192,53341,1,0,0:0:0:0:
320,192,53424,1,0,0:0:0:0:
192,192,53508,1,0,0:0:0:0:
64,192,53591,1,8,0:0:0:0:
448,192,53591,1,0,0:0:0:0:
192,192,53674,1,10,0:0:0:0:
320,192,53674,1,0,0:0:0:0:
448,192,53758,1,0,0:0:0:0:
64,192,53841,1,0,0:0:0:0:
320,192,53924,1,0,0:0:0:0:
64,192,54008,1,8,0:0:0:0:
192,192,54008,1,2,0:0:0:0:
320,192,54091,1,10,0:0:0:0:
448,192,54091,1,0,0:0:0:0:
64,192,54174,1,8,0:0:0:0:
192,192,54174,1,2,0:0:0:0:
320,192,54257,1,0,0:0:0:0:
448,192,54258,1,10,0:0:0:0:
64,192,54341,1,6,0:0:0:0:
192,192,54341,1,6,0:0:0:0:
448,192,54424,1,0,0:0:0:0:
192,192,54508,1,0,0:0:0:0:
64,192,54591,1,0,0:0:0:0:
320,192,54674,1,8,0:0:0:0:
448,192,54758,1,0,0:0:0:0:
64,192,54841,1,0,0:0:0:0:
320,192,54924,1,8,0:0:0:0:
64,192,55008,1,0,0:0:0:0:
192,192,55008,1,2,0:0:0:0:
320,192,55091,1,0,0:0:0:0:
192,192,55174,1,0,0:0:0:0:
64,192,55258,1,0,0:0:0:0:
320,192,55341,1,8,0:0:0:0:
64,192,55424,1,0,0:0:0:0:
448,192,55508,1,0,0:0:0:0:
320,192,55591,1,0,0:0:0:0:
64,192,55674,1,0,0:0:0:0:
192,192,55674,1,2,0:0:0:0:
320,192,55758,1,0,0:0:0:0:
192,192,55841,1,0,0:0:0:0:
64,192,55924,1,0,0:0:0:0:
320,192,56008,1,8,0:0:0:0:
64,192,56091,1,0,0:0:0:0:
192,192,56174,1,0,0:0:0:0:
320,192,56258,1,8,0:0:0:0:
64,192,56341,1,2,0:0:0:0:
192,192,56341,1,0,0:0:0:0:
320,192,56424,1,0,0:0:0:0:
448,192,56508,1,0,0:0:0:0:
64,192,56591,1,0,0:0:0:0:
192,192,56674,1,8,0:0:0:0:
448,192,56758,1,0,0:0:0:0:
64,192,56841,1,0,0:0:0:0:
320,192,56924,1,0,0:0:0:0:
64,192,57008,1,0,0:0:0:0:
192,192,57008,1,2,0:0:0:0:
320,192,57091,1,0,0:0:0:0:
448,192,57174,1,0,0:0:0:0:
320,192,57258,1,0,0:0:0:0:
192,192,57341,1,8,0:0:0:0:
448,192,57424,1,0,0:0:0:0:
320,192,57508,1,0,0:0:0:0:
192,192,57591,1,8,0:0:0:0:
320,192,57674,1,2,0:0:0:0:
448,192,57674,1,0,0:0:0:0:
64,192,57758,1,0,0:0:0:0:
192,192,57841,1,0,0:0:0:0:
320,192,57924,1,0,0:0:0:0:
448,192,58008,1,8,0:0:0:0:
192,192,58091,1,0,0:0:0:0:
320,192,58174,1,0,0:0:0:0:
448,192,58258,1,0,0:0:0:0:
64,192,58341,1,0,0:0:0:0:
192,192,58341,1,2,0:0:0:0:
448,192,58424,1,0,0:0:0:0:
320,192,58508,1,0,0:0:0:0:
64,192,58591,1,0,0:0:0:0:
192,192,58674,1,8,0:0:0:0:
320,192,58758,1,0,0:0:0:0:
64,192,58841,1,0,0:0:0:0:
448,192,58841,1,0,0:0:0:0:
320,192,58924,1,8,0:0:0:0:
64,192,59008,1,0,0:0:0:0:
192,192,59008,1,2,0:0:0:0:
448,192,59091,1,0,0:0:0:0:
320,192,59174,1,0,0:0:0:0:
192,192,59258,1,0,0:0:0:0:
448,192,59341,1,8,0:0:0:0:
320,192,59424,1,0,0:0:0:0:
192,192,59508,1,0,0:0:0:0:
320,192,59591,1,0,0:0:0:0:
64,192,59674,1,6,0:0:0:0:
192,192,59674,1,6,0:0:0:0:
448,192,59674,1,0,0:0:0:0:
320,192,59758,1,0,0:0:0:0:
64,192,59841,1,0,0:0:0:0:
448,192,59924,1,0,0:0:0:0:
320,192,60008,1,8,0:0:0:0:
64,192,60091,1,0,0:0:0:0:
320,192,60174,1,0,0:0:0:0:
448,192,60174,1,0,0:0:0:0:
64,192,60258,1,8,0:0:0:0:
192,192,60341,1,2,0:0:0:0:
448,192,60341,1,0,0:0:0:0:
320,192,60424,1,0,0:0:0:0:
192,192,60508,1,0,0:0:0:0:
448,192,60591,1,0,0:0:0:0:
320,192,60674,1,8,0:0:0:0:
448,192,60758,1,0,0:0:0:0:
64,192,60841,1,0,0:0:0:0:
320,192,60924,1,0,0:0:0:0:
64,192,61008,1,6,0:0:0:0:
192,192,61008,1,6,0:0:0:0:
448,192,61008,1,0,0:0:0:0:
320,192,61091,1,0,0:0:0:0:
192,192,61174,1,0,0:0:0:0:
448,192,61258,1,0,0:0:0:0:
64,192,61341,1,8,0:0:0:0:
448,192,61424,1,0,0:0:0:0:
320,192,61508,1,0,0:0:0:0:
64,192,61591,1,8,0:0:0:0:
192,192,61674,1,2,0:0:0:0:
448,192,61674,1,0,0:0:0:0:
320,192,61758,1,0,0:0:0:0:
64,192,61841,1,0,0:0:0:0:
448,192,61924,1,0,0:0:0:0:
320,192,62008,1,8,0:0:0:0:
64,192,62091,1,0,0:0:0:0:
448,192,62174,1,0,0:0:0:0:
64,192,62258,1,0,0:0:0:0:
192,192,62341,1,6,0:0:0:0:
320,192,62341,1,6,0:0:0:0:
448,192,62341,1,0,0:0:0:0:
64,192,62424,1,0,0:0:0:0:
320,192,62508,1,0,0:0:0:0:
192,192,62591,1,0,0:0:0:0:
64,192,62674,1,8,0:0:0:0:
320,192,62758,1,0,0:0:0:0:
192,192,62841,1,0,0:0:0:0:
320,192,62924,1,8,0:0:0:0:
64,192,63008,1,6,0:0:0:0:
192,192,63008,1,6,0:0:0:0:
448,192,63008,1,0,0:0:0:0:
320,192,63091,1,0,0:0:0:0:
64,192,63174,1,0,0:0:0:0:
192,192,63258,1,0,0:0:0:0:
320,192,63341,1,8,0:0:0:0:
448,192,63341,1,0,0:0:0:0:
192,192,63424,1,0,0:0:0:0:
64,192,63508,1,0,0:0:0:0:
320,192,63591,1,0,0:0:0:0:
64,192,63674,1,6,0:0:0:0:
192,192,63674,1,6,0:0:0:0:
448,192,63674,1,0,0:0:0:0:
320,192,63758,1,0,0:0:0:0:
192,192,63841,1,8,0:0:0:0:
64,192,63841,1,0,0:0:0:0:
320,192,63924,1,8,0:0:0:0:
448,192,63924,1,0,0:0:0:0:
64,192,64008,1,14,0:0:0:0:
192,192,64008,1,4,0:0:0:0:
320,192,64091,1,0,0:0:0:0:
192,192,64174,1,8,0:0:0:0:
64,192,64174,1,0,0:0:0:0:
320,192,64258,1,8,0:0:0:0:
448,192,64258,1,0,0:0:0:0:
64,192,64341,1,12,0:0:0:0:
192,192,64341,1,6,0:0:0:0:
320,192,64424,1,0,0:0:0:0:
64,192,64508,1,0,0:0:0:0:
448,192,64508,1,8,0:0:0:0:
192,192,64591,1,0,0:0:0:0:
320,192,64591,1,8,0:0:0:0:
64,192,64674,1,14,0:0:0:0:
448,192,64674,1,4,0:0:0:0:
192,192,64758,1,10,0:0:0:0:
320,192,64758,1,0,0:0:0:0:
64,192,64841,1,10,0:0:0:0:
448,192,64841,1,0,0:0:0:0:
192,192,64924,1,10,0:0:0:0:
320,192,64924,1,0,0:0:0:0:
448,192,65007,1,6,0:0:0:0:
64,192,65008,1,6,0:0:0:0:
320,192,65341,1,8,0:0:0:0:
448,192,65341,1,0,0:0:0:0:
192,192,65508,1,2,0:0:0:0:
64,192,65841,1,2,0:0:0:0:
192,192,65924,1,0,0:0:0:0:
320,192,66008,1,8,0:0:0:0:
448,192,66008,1,0,0:0:0:0:
192,192,66091,1,0,0:0:0:0:
448,192,66174,1,0,0:0:0:0:
320,192,66258,1,0,0:0:0:0:
64,192,66341,1,2,0:0:0:0:
192,192,66508,1,0,0:0:0:0:
64,192,66674,1,0,0:0:0:0:
320,192,66674,1,8,0:0:0:0:
192,192,66841,1,2,0:0:0:0:
448,192,67008,1,0,0:0:0:0:
320,192,67341,1,8,0:0:0:0:
448,192,67341,1,0,0:0:0:0:
64,192,67424,1,8,0:0:0:0:
192,192,67424,1,0,0:0:0:0:
320,192,67508,1,8,0:0:0:0:
448,192,67508,1,0,0:0:0:0:
64,192,67591,1,8,0:0:0:0:
192,192,67591,1,0,0:0:0:0:
320,192,67674,1,2,0:0:0:0:
448,192,67674,1,0,0:0:0:0:
192,192,67841,1,0,0:0:0:0:
320,192,68008,1,8,0:0:0:0:
448,192,68008,1,0,0:0:0:0:
64,192,68341,1,0,0:0:0:0:
192,192,68508,1,2,0:0:0:0:
320,192,68674,1,8,0:0:0:0:
448,192,68674,1,0,0:0:0:0:
192,192,68841,1,0,0:0:0:0:
320,192,69008,1,2,0:0:0:0:
192,192,69341,1,8,0:0:0:0:
448,192,69341,1,0,0:0:0:0:
64,192,69508,1,2,0:0:0:0:
192,192,69674,1,0,0:0:0:0:
64,192,70008,1,8,0:0:0:0:
320,192,70008,1,0,0:0:0:0:
192,192,70091,1,8,0:0:0:0:
448,192,70091,1,0,0:0:0:0:
64,192,70174,1,8,0:0:0:0:
320,192,70174,1,0,0:0:0:0:
192,192,70258,1,8,0:0:0:0:
64,192,70341,1,6,0:0:0:0:
320,192,70341,1,0,0:0:0:0:
448,192,70341,1,0,0:0:0:0:
64,192,70674,1,0,0:0:0:0:
192,192,70674,1,8,0:0:0:0:
320,192,70841,1,2,0:0:0:0:
192,192,71174,1,2,0:0:0:0:
320,192,71258,1,0,0:0:0:0:
64,192,71341,1,8,0:0:0:0:
448,192,71341,1,0,0:0:0:0:
320,192,71508,1,0,0:0:0:0:
64,192,71674,1,2,0:0:0:0:
192,192,71674,1,0,0:0:0:0:
320,192,72008,1,8,0:0:0:0:
448,192,72008,1,0,0:0:0:0:
192,192,72174,1,2,0:0:0:0:
64,192,72341,1,0,0:0:0:0:
192,192,72424,1,0,0:0:0:0:
320,192,72508,1,2,0:0:0:0:
448,192,72591,1,0,0:0:0:0:
64,192,72674,1,8,0:0:0:0:
192,192,72674,1,0,0:0:0:0:
320,192,72758,1,8,0:0:0:0:
448,192,72758,1,0,0:0:0:0:
64,192,72841,1,8,0:0:0:0:
192,192,72841,1,0,0:0:0:0:
320,192,72924,1,8,0:0:0:0:
448,192,72924,1,0,0:0:0:0:
64,192,73008,1,2,0:0:0:0:
192,192,73008,1,0,0:0:0:0:
320,192,73174,1,0,0:0:0:0:
192,192,73341,1,8,0:0:0:0:
448,192,73341,1,0,0:0:0:0:
64,192,73508,1,2,0:0:0:0:
320,192,73674,1,0,0:0:0:0:
192,192,73841,1,2,0:0:0:0:
320,192,73924,1,0,0:0:0:0:
64,192,74008,1,0,0:0:0:0:
448,192,74008,1,8,0:0:0:0:
192,192,74091,1,0,0:0:0:0:
320,192,74174,1,0,0:0:0:0:
448,192,74258,1,0,0:0:0:0:
320,192,74341,1,2,0:0:0:0:
64,192,74674,1,8,0:0:0:0:
192,192,74674,1,0,0:0:0:0:
448,192,75008,1,0,0:0:0:0:
64,192,75341,1,8,0:0:0:0:
192,192,75341,1,0,0:0:0:0:
64,192,75508,1,8,0:0:0:0:
192,192,75508,1,0,0:0:0:0:
320,192,75591,1,8,0:0:0:0:
64,192,75674,1,6,0:0:0:0:
192,192,75674,1,6,0:0:0:0:
448,192,75674,1,0,0:0:0:0:
64,192,76008,1,8,0:0:0:0:
448,192,76008,1,0,0:0:0:0:
320,192,76174,1,2,0:0:0:0:
64,192,76508,1,2,0:0:0:0:
320,192,76591,1,0,0:0:0:0:
64,192,76674,1,8,0:0:0:0:
192,192,76674,1,0,0:0:0:0:
320,192,76758,1,0,0:0:0:0:
448,192,76841,1,0,0:0:0:0:
192,192,76924,1,0,0:0:0:0:
64,192,77008,1,2,0:0:0:0:
448,192,77008,1,0,0:0:0:0:
192,192,77174,1,0,0:0:0:0:
320,192,77341,1,8,0:0:0:0:
448,192,77341,1,0,0:0:0:0:
192,192,77508,1,2,0:0:0:0:
448,192,77674,1,0,0:0:0:0:
320,192,78008,1,8,0:0:0:0:
448,192,78008,1,0,0:0:0:0:
64,192,78091,1,8,0:0:0:0:
192,192,78091,1,0,0:0:0:0:
320,192,78174,1,8,0:0:0:0:
448,192,78174,1,0,0:0:0:0:
64,192,78258,1,8,0:0:0:0:
192,192,78258,1,0,0:0:0:0:
320,192,78341,1,2,0:0:0:0:
448,192,78341,1,0,0:0:0:0:
192,192,78508,1,0,0:0:0:0:
64,192,78674,1,8,0:0:0:0:
448,192,78674,1,0,0:0:0:0:
192,192,79008,1,0,0:0:0:0:
320,192,79174,1,2,0:0:0:0:
64,192,79341,1,8,0:0:0:0:
448,192,79341,1,0,0:0:0:0:
320,192,79508,1,0,0:0:0:0:
192,192,79674,1,2,0:0:0:0:
64,192,80008,1,8,0:0:0:0:
320,192,80008,1,0,0:0:0:0:
448,192,80341,1,0,0:0:0:0:
64,192,80674,1,8,0:0:0:0:
320,192,80674,1,0,0:0:0:0:
192,192,80758,1,2,0:0:0:0:
320,192,80841,1,8,0:0:0:0:
448,192,80841,1,0,0:0:0:0:
192,192,80924,1,8,0:0:0:0:
64,192,81008,1,6,0:0:0:0:
320,192,81008,1,0,0:0:0:0:
448,192,81008,1,0,0:0:0:0:
64,192,81341,1,8,0:0:0:0:
448,192,81341,1,0,0:0:0:0:
320,192,81508,1,2,0:0:0:0:
64,192,81841,1,2,0:0:0:0:
192,192,82008,1,8,0:0:0:0:
448,192,82008,1,0,0:0:0:0:
320,192,82174,1,0,0:0:0:0:
192,192,82341,1,2,0:0:0:0:
320,192,82674,1,8,0:0:0:0:
448,192,82674,1,0,0:0:0:0:
64,192,82841,1,2,0:0:0:0:
192,192,83008,1,0,0:0:0:0:
320,192,83091,1,0,0:0:0:0:
448,192,83174,1,2,0:0:0:0:
320,192,83341,1,8,0:0:0:0:
448,192,83341,1,0,0:0:0:0:
64,192,83424,1,8,0:0:0:0:
192,192,83424,1,0,0:0:0:0:
320,192,83508,1,8,0:0:0:0:
448,192,83508,1,0,0:0:0:0:
64,192,83591,1,8,0:0:0:0:
192,192,83591,1,0,0:0:0:0:
320,192,83674,1,2,0:0:0:0:
448,192,83674,1,0,0:0:0:0:
192,192,83841,1,0,0:0:0:0:
64,192,84008,1,0,0:0:0:0:
448,192,84008,1,8,0:0:0:0:
320,192,84174,1,2,0:0:0:0:
64,192,84341,1,0,0:0:0:0:
320,192,84508,1,2,0:0:0:0:
192,192,84591,1,0,0:0:0:0:
64,192,84674,1,8,0:0:0:0:
448,192,84674,1,0,0:0:0:0:
320,192,84758,1,0,0:0:0:0:
64,192,84841,1,2,0:0:0:0:
192,192,84841,1,0,0:0:0:0:
320,192,84924,1,2,0:0:0:0:
448,192,84924,1,0,0:0:0:0:
64,192,85008,1,6,0:0:0:0:
192,192,85008,1,0,0:0:0:0:
64,192,85174,1,2,0:0:0:0:
192,192,85174,1,0,0:0:0:0:
64,192,85341,1,10,0:0:0:0:
192,192,85341,1,0,0:0:0:0:
320,192,85508,1,2,0:0:0:0:
448,192,85508,1,0,0:0:0:0:
64,192,85591,1,2,0:0:0:0:
192,192,85591,1,0,0:0:0:0:
448,192,85674,1,0,0:0:0:0:
320,192,85716,1,0,0:0:0:0:
192,192,85758,1,0,0:0:0:0:
64,192,85799,1,0,0:0:0:0:
320,192,85841,1,2,0:0:0:0:
448,192,85841,1,0,0:0:0:0:
64,192,85924,1,2,0:0:0:0:
192,192,85924,1,0,0:0:0:0:
320,192,86008,1,0,0:0:0:0:
448,192,86008,1,10,0:0:0:0:
64,192,86091,1,2,0:0:0:0:
192,192,86091,1,0,0:0:0:0:
320,192,86174,1,0,0:0:0:0:
448,192,86174,1,2,0:0:0:0:
192,192,86257,1,0,0:0:0:0:
64,192,86258,1,2,0:0:0:0:
320,192,86341,1,6,0:0:0:0:
448,192,86341,1,6,0:0:0:0:
64,192,86424,1,0,0:0:0:0:
320,192,86508,1,0,0:0:0:0:
192,192,86591,1,0,0:0:0:0:
448,192,86674,1,8,0:0:0:0:
192,192,86758,1,0,0:0:0:0:
320,192,86841,1,0,0:0:0:0:
192,192,86924,1,0,0:0:0:0:
64,192,87008,1,2,0:0:0:0:
448,192,87091,1,0,0:0:0:0:
320,192,87174,1,0,0:0:0:0:
192,192,87258,1,0,0:0:0:0:
64,192,87341,1,8,0:0:0:0:
320,192,87424,1,0,0:0:0:0:
192,192,87508,1,2,0:0:0:0:
320,192,87591,1,0,0:0:0:0:
448,192,87591,1,0,0:0:0:0:
64,192,87674,1,2,0:0:0:0:
192,192,87674,1,0,0:0:0:0:
448,192,87758,1,0,0:0:0:0:
320,192,87841,1,0,0:0:0:0:
192,192,87924,1,0,0:0:0:0:
64,192,88008,1,8,0:0:0:0:
192,192,88091,1,0,0:0:0:0:
320,192,88174,1,0,0:0:0:0:
192,192,88258,1,0,0:0:0:0:
320,192,88341,1,2,0:0:0:0:
448,192,88424,1,0,0:0:0:0:
320,192,88508,1,0,0:0:0:0:
192,192,88591,1,0,0:0:0:0:
64,192,88674,1,8,0:0:0:0:
320,192,88758,1,0,0:0:0:0:
192,192,88841,1,2,0:0:0:0:
320,192,88924,1,0,0:0:0:0:
448,192,88924,1,0,0:0:0:0:
64,192,89008,1,2,0:0:0:0:
192,192,89008,1,0,0:0:0:0:
448,192,89091,1,0,0:0:0:0:
320,192,89174,1,0,0:0:0:0:
192,192,89258,1,0,0:0:0:0:
448,192,89341,1,8,0:0:0:0:
320,192,89424,1,0,0:0:0:0:
192,192,89508,1,0,0:0:0:0:
320,192,89591,1,0,0:0:0:0:
448,192,89674,1,2,0:0:0:0:
320,192,89758,1,0,0:0:0:0:
64,192,89841,1,0,0:0:0:0:
192,192,89924,1,0,0:0:0:0:
320,192,90008,1,8,0:0:0:0:
448,192,90008,1,0,0:0:0:0:
192,192,90091,1,0,0:0:0:0:
320,192,90174,1,0,0:0:0:0:
448,192,90258,1,0,0:0:0:0:
64,192,90341,1,2,0:0:0:0:
192,192,90341,1,0,0:0:0:0:
320,192,90424,1,0,0:0:0:0:
192,192,90508,1,0,0:0:0:0:
64,192,90591,1,0,0:0:0:0:
320,192,90674,1,8,0:0:0:0:
192,192,90758,1,0,0:0:0:0:
320,192,90841,1,0,0:0:0:0:
448,192,90924,1,0,0:0:0:0:
64,192,91008,1,2,0:0:0:0:
192,192,91091,1,0,0:0:0:0:
448,192,91174,1,0,0:0:0:0:
320,192,91258,1,0,0:0:0:0:
64,192,91341,1,8,0:0:0:0:
192,192,91341,1,2,0:0:0:0:
320,192,91424,1,0,0:0:0:0:
64,192,91508,1,2,0:0:0:0:
192,192,91508,1,0,0:0:0:0:
320,192,91591,1,0,0:0:0:0:
64,192,91674,1,6,0:0:0:0:
192,192,91674,1,6,0:0:0:0:
448,192,91674,1,0,0:0:0:0:
320,192,91758,1,0,0:0:0:0:
192,192,91841,1,0,0:0:0:0:
64,192,91924,1,0,0:0:0:0:
320,192,92008,1,8,0:0:0:0:
192,192,92091,1,0,0:0:0:0:
64,192,92174,1,0,0:0:0:0:
448,192,92258,1,0,0:0:0:0:
320,192,92341,1,2,0:0:0:0:
192,192,92424,1,0,0:0:0:0:
64,192,92508,1,0,0:0:0:0:
448,192,92591,1,0,0:0:0:0:
320,192,92674,1,8,0:0:0:0:
64,192,92758,1,0,0:0:0:0:
448,192,92841,1,2,0:0:0:0:
64,192,92924,1,0,0:0:0:0:
192,192,92924,1,0,0:0:0:0:
320,192,93008,1,2,0:0:0:0:
448,192,93008,1,0,0:0:0:0:
192,192,93091,1,0,0:0:0:0:
64,192,93174,1,0,0:0:0:0:
448,192,93258,1,0,0:0:0:0:
192,192,93341,1,8,0:0:0:0:
320,192,93424,1,0,0:0:0:0:
64,192,93508,1,0,0:0:0:0:
448,192,93591,1,0,0:0:0:0:
320,192,93674,1,2,0:0:0:0:
192,192,93758,1,0,0:0:0:0:
64,192,93841,1,0,0:0:0:0:
448,192,93924,1,0,0:0:0:0:
320,192,94008,1,8,0:0:0:0:
64,192,94091,1,0,0:0:0:0:
448,192,94174,1,2,0:0:0:0:
64,192,94258,1,0,0:0:0:0:
192,192,94258,1,0,0:0:0:0:
320,192,94341,1,2,0:0:0:0:
448,192,94341,1,0,0:0:0:0:
192,192,94424,1,0,0:0:0:0:
64,192,94508,1,0,0:0:0:0:
448,192,94591,1,0,0:0:0:0:
192,192,94674,1,8,0:0:0:0:
320,192,94674,1,0,0:0:0:0:
64,192,94758,1,0,0:0:0:0:
320,192,94841,1,2,0:0:0:0:
448,192,94841,1,0,0:0:0:0:
64,192,94924,1,0,0:0:0:0:
192,192,95008,1,2,0:0:0:0:
320,192,95008,1,0,0:0:0:0:
64,192,95091,1,0,0:0:0:0:
192,192,95174,1,0,0:0:0:0:
448,192,95258,1,0,0:0:0:0:
64,192,95341,1,8,0:0:0:0:
192,192,95341,1,0,0:0:0:0:
448,192,95424,1,0,0:0:0:0:
64,192,95508,1,0,0:0:0:0:
192,192,95591,1,0,0:0:0:0:
320,192,95674,1,2,0:0:0:0:
448,192,95674,1,0,0:0:0:0:
64,192,95758,1,0,0:0:0:0:
448,192,95841,1,0,0:0:0:0:
320,192,95924,1,0,0:0:0:0:
192,192,96008,1,8,0:0:0:0:
448,192,96091,1,0,0:0:0:0:
192,192,96174,1,0,0:0:0:0:
64,192,96258,1,0,0:0:0:0:
320,192,96341,1,2,0:0:0:0:
448,192,96341,1,0,0:0:0:0:
64,192,96424,1,0,0:0:0:0:
320,192,96508,1,2,0:0:0:0:
448,192,96508,1,0,0:0:0:0:
64,192,96591,1,0,0:0:0:0:
320,192,96674,1,10,0:0:0:0:
448,192,96674,1,0,0:0:0:0:
64,192,96758,1,0,0:0:0:0:
192,192,96758,1,2,0:0:0:0:
320,192,96841,1,2,0:0:0:0:
448,192,96841,1,0,0:0:0:0:
64,192,96924,1,2,0:0:0:0:
192,192,96924,1,6,0:0:0:0:
320,192,97008,1,6,0:0:0:0:
448,192,97008,1,0,0:0:0:0:
64,192,97091,1,0,0:0:0:0:
320,192,97174,1,0,0:0:0:0:
448,192,97258,1,0,0:0:0:0:
64,192,97341,1,8,0:0:0:0:
448,192,97424,1,0,0:0:0:0:
320,192,97508,1,0,0:0:0:0:
192,192,97591,1,0,0:0:0:0:
320,192,97674,1,2,0:0:0:0:
64,192,97758,1,0,0:0:0:0:
320,192,97841,1,0,0:0:0:0:
192,192,97924,1,0,0:0:0:0:
448,192,98008,1,8,0:0:0:0:
320,192,98091,1,0,0:0:0:0:
192,192,98174,1,2,0:0:0:0:
320,192,98258,1,0,0:0:0:0:
448,192,98258,1,0,0:0:0:0:
64,192,98341,1,2,0:0:0:0:
192,192,98341,1,0,0:0:0:0:
448,192,98424,1,0,0:0:0:0:
320,192,98508,1,0,0:0:0:0:
192,192,98591,1,0,0:0:0:0:
64,192,98674,1,8,0:0:0:0:
192,192,98758,1,0,0:0:0:0:
320,192,98841,1,0,0:0:0:0:
192,192,98924,1,0,0:0:0:0:
320,192,99008,1,2,0:0:0:0:
64,192,99091,1,0,0:0:0:0:
448,192,99174,1,0,0:0:0:0:
320,192,99258,1,0,0:0:0:0:
192,192,99341,1,8,0:0:0:0:
448,192,99424,1,0,0:0:0:0:
64,192,99508,1,2,0:0:0:0:
192,192,99591,1,0,0:0:0:0:
320,192,99591,1,0,0:0:0:0:
64,192,99674,1,2,0:0:0:0:
448,192,99674,1,0,0:0:0:0:
320,192,99758,1,0,0:0:0:0:
192,192,99841,1,0,0:0:0:0:
320,192,99924,1,0,0:0:0:0:
64,192,100008,1,8,0:0:0:0:
192,192,100091,1,0,0:0:0:0:
448,192,100174,1,0,0:0:0:0:
192,192,100258,1,0,0:0:0:0:
320,192,100341,1,2,0:0:0:0:
448,192,100424,1,0,0:0:0:0:
64,192,100508,1,0,0:0:0:0:
192,192,100591,1,0,0:0:0:0:
64,192,100674,1,0,0:0:0:0:
320,192,100674,1,8,0:0:0:0:
448,192,100758,1,0,0:0:0:0:
320,192,100841,1,0,0:0:0:0:
64,192,100924,1,0,0:0:0:0:
192,192,101008,1,2,0:0:0:0:
448,192,101008,1,0,0:0:0:0:
320,192,101091,1,0,0:0:0:0:
192,192,101174,1,0,0:0:0:0:
448,192,101258,1,0,0:0:0:0:
320,192,101341,1,8,0:0:0:0:
192,192,101424,1,0,0:0:0:0:
320,192,101508,1,0,0:0:0:0:
64,192,101591,1,0,0:0:0:0:
448,192,101674,1,2,0:0:0:0:
320,192,101758,1,0,0:0:0:0:
192,192,101841,1,0,0:0:0:0:
64,192,101924,1,0,0:0:0:0:
320,192,102008,1,10,0:0:0:0:
448,192,102008,1,0,0:0:0:0:
192,192,102091,1,0,0:0:0:0:
320,192,102174,1,2,0:0:0:0:
448,192,102174,1,0,0:0:0:0:
192,192,102258,1,0,0:0:0:0:
64,192,102341,1,6,0:0:0:0:
320,192,102341,1,6,0:0:0:0:
448,192,102341,1,0,0:0:0:0:
192,192,102424,1,0,0:0:0:0:
320,192,102508,1,0,0:0:0:0:
448,192,102591,1,0,0:0:0:0:
64,192,102674,1,8,0:0:0:0:
192,192,102758,1,0,0:0:0:0:
448,192,102841,1,0,0:0:0:0:
320,192,102924,1,0,0:0:0:0:
192,192,103008,1,2,0:0:0:0:
448,192,103091,1,0,0:0:0:0:
64,192,103174,1,0,0:0:0:0:
320,192,103258,1,0,0:0:0:0:
448,192,103341,1,8,0:0:0:0:
192,192,103424,1,0,0:0:0:0:
320,192,103508,1,2,0:0:0:0:
192,192,103591,1,0,0:0:0:0:
64,192,103674,1,6,0:0:0:0:
320,192,103674,1,6,0:0:0:0:
448,192,103674,1,0,0:0:0:0:
192,192,103758,1,0,0:0:0:0:
448,192,103841,1,2,0:0:0:0:
192,192,103924,1,0,0:0:0:0:
64,192,104008,1,2,0:0:0:0:
448,192,104008,1,8,0:0:0:0:
320,192,104091,1,0,0:0:0:0:
64,192,104174,1,2,0:0:0:0:
320,192,104258,1,0,0:0:0:0:
64,192,104341,1,2,0:0:0:0:
448,192,104341,1,2,0:0:0:0:
192,192,104424,1,0,0:0:0:0:
448,192,104508,1,2,0:0:0:0:
192,192,104591,1,0,0:0:0:0:
64,192,104674,1,2,0:0:0:0:
448,192,104674,1,8,0:0:0:0:
320,192,104758,1,0,0:0:0:0:
64,192,104841,1,2,0:0:0:0:
320,192,104924,1,0,0:0:0:0:
64,192,105008,1,14,0:0:0:0:
192,192,105008,1,6,0:0:0:0:
448,192,105091,1,0,0:0:0:0:
320,192,105091,1,0,0:0:0:0:
64,192,105174,1,0,0:0:0:0:
192,192,105174,1,0,0:0:0:0:
448,192,105257,1,0,0:0:0:0:
320,192,105258,1,0,0:0:0:0:
64,192,105341,1,8,0:0:0:0:
192,192,105341,1,0,0:0:0:0:
320,192,105424,1,0,0:0:0:0:
448,192,105424,1,0,0:0:0:0:
192,192,105507,1,0,0:0:0:0:
64,192,105508,1,8,0:0:0:0:
320,192,105591,1,0,0:0:0:0:
448,192,105591,1,0,0:0:0:0:
64,192,105674,1,12,0:0:0:0:
192,192,105674,1,0,0:0:0:0:
320,192,105757,1,0,0:0:0:0:
192,192,105841,1,0,0:0:0:0:
320,192,105924,1,0,0:0:0:0:
64,192,106007,1,8,0:0:0:0:
448,192,106091,1,0,0:0:0:0:
64,192,106174,1,0,0:0:0:0:
448,192,106258,1,0,0:0:0:0:
64,192,106341,1,2,0:0:0:0:
192,192,106341,1,0,0:0:0:0:
320,192,106674,1,2,0:0:0:0:
448,192,107008,1,2,0:0:0:0:
64,192,107341,1,2,0:0:0:0:
192,192,107341,1,0,0:0:0:0:
64,192,107674,1,6,0:0:0:0:
320,192,107674,1,6,0:0:0:0:
448,192,107674,1,6,0:0:0:0:
192,192,107841,1,0,0:0:0:0:
64,0,108008,128,2,108258:0:0:0:0:
448,0,108008,128,0,108258:0:0:0:0:
64,192,108341,1,0,0:0:0:0:
192,192,108341,1,8,0:0:0:0:
448,192,108341,1,0,0:0:0:0:
320,192,108424,1,0,0:0:0:0:
64,192,108508,1,0,0:0:0:0:
320,192,108591,1,0,0:0:0:0:
64,192,108674,1,0,0:0:0:0:
320,192,108758,1,0,0:0:0:0:
64,192,108841,1,0,0:0:0:0:
320,192,108924,1,0,0:0:0:0:
192,192,109008,1,2,0:0:0:0:
448,192,109008,1,0,0:0:0:0:
64,192,109091,1,0,0:0:0:0:
448,192,109174,1,0,0:0:0:0:
64,192,109258,1,0,0:0:0:0:
192,0,109341,128,0,109591:0:0:0:0:
64,192,109674,1,8,0:0:0:0:
320,192,109674,1,0,0:0:0:0:
448,192,109674,1,0,0:0:0:0:
192,192,109758,1,0,0:0:0:0:
320,192,109841,1,0,0:0:0:0:
192,192,109924,1,0,0:0:0:0:
448,0,110008,128,0,110258:0:0:0:0:
64,192,110341,1,2,0:0:0:0:
192,192,110341,1,0,0:0:0:0:
448,192,110508,1,0,0:0:0:0:
64,192,110674,1,0,0:0:0:0:
320,192,110674,1,2,0:0:0:0:
192,192,110841,1,0,0:0:0:0:
64,192,111008,1,8,0:0:0:0:
320,192,111008,1,0,0:0:0:0:
448,192,111008,1,0,0:0:0:0:
448,192,111174,1,0,0:0:0:0:
192,192,111258,1,0,0:0:0:0:
448,192,111341,1,0,0:0:0:0:
192,192,111424,1,0,0:0:0:0:
448,192,111508,1,0,0:0:0:0:
192,192,111591,1,0,0:0:0:0:
64,192,111674,1,2,0:0:0:0:
320,192,111674,1,0,0:0:0:0:
448,0,111841,128,0,111924:0:0:0:0:
64,0,112008,128,2,112091:0:0:0:0:
320,0,112008,128,0,112091:1:0:0:0:
64,0,112174,128,2,112258:0:0:0:0:
320,0,112174,128,0,112258:0:0:0:0:
320,192,112341,1,0,0:0:0:0:
448,192,112341,1,0,0:0:0:0:
192,192,112341,1,8,0:0:0:0:
192,192,112508,128,0,112674:0:0:0:0:
64,192,112674,128,2,112924:0:0:0:0:
448,192,112674,1,0,0:0:0:0:
320,192,112758,1,0,0:0:0:0:
448,192,112841,1,0,0:0:0:0:
320,192,112924,1,0,0:0:0:0:
192,192,113008,1,6,0:0:0:0:
64,192,113008,1,6,0:0:0:0:
448,192,113008,1,0,0:0:0:0:
192,192,113174,1,0,0:0:0:0:
448,0,113341,128,0,113591:1:0:0:0:
64,192,113674,1,8,0:0:0:0:
192,192,113674,1,0,0:0:0:0:
448,192,113674,1,0,0:0:0:0:
320,192,113758,1,0,0:0:0:0:
64,192,113841,1,0,0:0:0:0:
320,192,113924,1,0,0:0:0:0:
64,192,114008,1,0,0:0:0:0:
320,192,114091,1,0,0:0:0:0:
64,192,114174,1,0,0:0:0:0:
320,192,114258,1,0,0:0:0:0:
192,192,114341,1,2,0:0:0:0:
448,192,114341,1,0,0:0:0:0:
64,192,114424,1,0,0:0:0:0:
448,192,114508,1,0,0:0:0:0:
64,192,114591,1,0,0:0:0:0:
320,192,114674,1,2,1:0:0:0:
192,0,114674,128,0,114924:0:0:0:0:
64,192,115008,1,8,0:0:0:0:
320,192,115008,1,0,0:0:0:0:
448,192,115008,1,0,0:0:0:0:
192,192,115091,1,0,0:0:0:0:
320,192,115174,1,0,0:0:0:0:
192,192,115258,1,0,0:0:0:0:
448,0,115341,128,0,115591:0:0:0:0:
64,192,115674,1,2,0:0:0:0:
192,192,115674,1,0,0:0:0:0:
320,192,115841,1,0,0:0:0:0:
192,192,116008,1,0,0:0:0:0:
64,192,116174,1,0,0:0:0:0:
192,192,116341,1,8,0:0:0:0:
320,192,116341,1,0,0:0:0:0:
448,192,116341,1,0,0:0:0:0:
448,192,116508,1,0,0:0:0:0:
192,192,116591,1,0,0:0:0:0:
448,192,116674,1,0,0:0:0:0:
192,192,116758,1,0,0:0:0:0:
448,192,116841,1,0,0:0:0:0:
192,192,116924,1,0,0:0:0:0:
64,192,117008,128,2,117174:0:0:0:0:
320,192,117008,1,0,1:0:0:0:
448,192,117174,128,0,117341:0:0:0:0:
320,192,117341,128,0,117508:0:0:0:0:
192,192,117508,128,0,117674:0:0:0:0:
320,192,117674,128,8,117841:0:0:0:0:
64,192,117674,1,0,0:0:0:0:
448,192,117674,1,0,0:0:0:0:
64,192,117841,1,0,0:0:0:0:
448,192,118008,128,0,118174:0:0:0:0:
320,192,118341,1,6,0:0:0:0:
64,192,118341,1,6,0:0:0:0:
192,192,118341,1,6,0:0:0:0:
192,192,118508,1,0,0:0:0:0:
64,0,118674,128,2,118924:1:0:0:0:
448,0,118674,128,0,118924:1:0:0:0:
64,192,119008,1,0,0:0:0:0:
192,192,119008,1,8,0:0:0:0:
448,192,119008,1,0,0:0:0:0:
320,192,119091,1,0,0:0:0:0:
64,192,119174,1,0,0:0:0:0:
320,192,119258,1,0,0:0:0:0:
64,192,119341,1,0,0:0:0:0:
320,192,119424,1,0,0:0:0:0:
64,192,119508,1,0,0:0:0:0:
320,192,119591,1,0,0:0:0:0:
192,192,119674,1,2,0:0:0:0:
448,192,119674,1,0,0:0:0:0:
64,192,119758,1,0,0:0:0:0:
448,192,119841,1,0,0:0:0:0:
64,192,119924,1,0,0:0:0:0:
192,0,120008,128,0,120258:0:0:0:0:
64,192,120341,1,8,0:0:0:0:
320,192,120341,1,0,0:0:0:0:
448,192,120341,1,0,0:0:0:0:
192,192,120424,1,0,0:0:0:0:
320,192,120508,1,0,0:0:0:0:
192,192,120591,1,0,0:0:0:0:
448,0,120674,128,0,120924:0:0:0:0:
320,192,121008,1,2,0:0:0:0:
64,192,121008,1,0,0:0:0:0:
448,192,121174,1,0,0:0:0:0:
64,192,121341,1,2,0:0:0:0:
192,192,121341,1,0,0:0:0:0:
320,192,121508,1,0,0:0:0:0:
64,192,121674,1,8,0:0:0:0:
320,192,121674,1,0,0:0:0:0:
448,192,121674,1,0,0:0:0:0:
448,192,121841,1,0,0:0:0:0:
192,192,121924,1,0,0:0:0:0:
448,192,122008,1,0,0:0:0:0:
192,192,122091,1,0,0:0:0:0:
448,192,122174,1,0,0:0:0:0:
192,192,122258,1,0,0:0:0:0:
64,192,122341,1,2,0:0:0:0:
320,192,122341,1,0,0:0:0:0:
64,0,122508,128,0,122591:0:0:0:0:
320,192,122674,1,2,0:0:0:0:
448,192,122674,1,0,0:0:0:0:
320,0,122841,128,2,122924:1:0:0:0:
448,0,122841,128,0,122924:1:0:0:0:
64,192,123008,1,8,0:0:0:0:
320,192,123008,1,0,0:0:0:0:
448,192,123008,1,0,0:0:0:0:
448,0,123174,128,0,123258:0:0:0:0:
64,192,123341,1,2,0:0:0:0:
192,192,123341,1,0,0:0:0:0:
320,0,123508,128,0,123591:0:0:0:0:
64,192,123674,1,6,0:0:0:0:
320,192,123674,1,6,0:0:0:0:
448,192,123674,1,0,0:0:0:0:
192,192,123841,1,0,0:0:0:0:
448,0,124008,128,0,124258:0:0:0:0:
64,192,124341,1,8,0:0:0:0:
192,192,124341,1,0,0:0:0:0:
448,192,124341,1,0,0:0:0:0:
320,192,124424,1,0,0:0:0:0:
64,192,124508,1,0,0:0:0:0:
320,192,124591,1,0,0:0:0:0:
64,192,124674,1,0,0:0:0:0:
320,192,124758,1,0,0:0:0:0:
64,192,124841,1,0,0:0:0:0:
320,192,124924,1,0,0:0:0:0:
192,192,125008,1,2,0:0:0:0:
448,192,125008,1,0,0:0:0:0:
64,192,125091,1,0,0:0:0:0:
448,192,125174,1,0,0:0:0:0:
64,192,125258,1,0,0:0:0:0:
320,192,125341,1,0,0:0:0:0:
192,0,125341,128,2,125591:1:0:0:0:
64,192,125674,1,8,0:0:0:0:
320,192,125674,1,0,0:0:0:0:
448,192,125674,1,0,0:0:0:0:
192,192,125758,1,0,0:0:0:0:
320,192,125841,1,0,0:0:0:0:
192,192,125924,1,0,0:0:0:0:
448,0,126008,128,0,126258:0:0:0:0:
64,192,126341,1,6,0:0:0:0:
192,192,126341,1,0,0:0:0:0:
448,192,126341,1,0,0:0:0:0:
448,0,126508,128,0,126591:0:0:0:0:
192,0,126674,128,0,126758:0:0:0:0:
320,0,126841,128,0,126924:0:0:0:0:
64,192,127008,1,8,0:0:0:0:
448,192,127008,1,0,0:0:0:0:
192,0,127008,128,0,127091:0:0:0:0:
64,0,127174,128,0,127258:0:0:0:0:
320,0,127341,128,0,127424:0:0:0:0:
448,0,127508,128,0,127591:0:0:0:0:
64,192,127674,1,6,0:0:0:0:
192,192,127674,1,6,0:0:0:0:
320,192,127674,1,0,0:0:0:0:
448,192,127841,1,0,0:0:0:0:
192,192,127924,1,0,0:0:0:0:
448,192,128008,1,0,0:0:0:0:
448,192,128174,1,0,0:0:0:0:
320,192,128341,1,0,0:0:0:0:
448,192,128341,1,0,0:0:0:0:
448,192,128508,1,0,0:0:0:0:
448,192,128674,1,0,0:0:0:0:
448,192,128841,1,0,0:0:0:0:
64,192,129008,1,6,0:0:0:0:
192,192,129008,1,6,0:0:0:0:
320,192,129008,1,0,0:0:0:0:
448,192,129091,1,0,0:0:0:0:
64,192,129174,1,0,0:0:0:0:
320,192,129258,1,0,0:0:0:0:
448,192,129341,1,8,0:0:0:0:
192,192,129424,1,0,0:0:0:0:
320,192,129508,1,0,0:0:0:0:
448,192,129591,1,0,0:0:0:0:
64,192,129674,1,2,0:0:0:0:
192,192,129758,1,0,0:0:0:0:
320,192,129841,1,0,0:0:0:0:
192,192,129924,1,0,0:0:0:0:
64,192,130008,1,8,0:0:0:0:
320,192,130091,1,0,0:0:0:0:
192,192,130174,1,2,0:0:0:0:
64,192,130258,1,0,0:0:0:0:
448,192,130341,1,2,0:0:0:0:
320,192,130424,1,0,0:0:0:0:
192,192,130508,1,0,0:0:0:0:
320,192,130591,1,0,0:0:0:0:
192,192,130674,1,8,0:0:0:0:
64,192,130758,1,0,0:0:0:0:
320,192,130841,1,0,0:0:0:0:
192,192,130924,1,0,0:0:0:0:
320,192,131008,1,2,0:0:0:0:
448,192,131091,1,0,0:0:0:0:
192,192,131174,1,0,0:0:0:0:
64,192,131258,1,0,0:0:0:0:
192,192,131341,1,8,0:0:0:0:
320,192,131424,1,0,0:0:0:0:
64,192,131508,1,2,0:0:0:0:
448,192,131508,1,0,0:0:0:0:
192,192,131591,1,0,0:0:0:0:
448,192,131674,1,2,0:0:0:0:
64,192,131758,1,0,0:0:0:0:
192,192,131841,1,0,0:0:0:0:
448,192,131924,1,0,0:0:0:0:
192,192,132008,1,8,0:0:0:0:
64,192,132091,1,0,0:0:0:0:
320,192,132174,1,0,0:0:0:0:
192,192,132258,1,0,0:0:0:0:
448,192,132341,1,2,0:0:0:0:
320,192,132424,1,0,0:0:0:0:
192,192,132508,1,0,0:0:0:0:
448,192,132591,1,0,0:0:0:0:
64,192,132674,1,8,0:0:0:0:
192,192,132758,1,0,0:0:0:0:
320,192,132841,1,2,0:0:0:0:
64,192,132924,1,0,0:0:0:0:
320,192,133008,1,2,0:0:0:0:
448,192,133008,1,0,0:0:0:0:
192,192,133091,1,2,0:0:0:0:
320,192,133174,1,2,0:0:0:0:
448,192,133174,1,0,0:0:0:0:
192,192,133258,1,2,0:0:0:0:
320,192,133341,1,8,0:0:0:0:
448,192,133341,1,0,0:0:0:0:
192,192,133424,1,0,0:0:0:0:
64,192,133508,1,0,0:0:0:0:
320,192,133591,1,0,0:0:0:0:
64,192,133674,1,2,0:0:0:0:
192,192,133758,1,2,0:0:0:0:
448,192,133841,1,0,0:0:0:0:
64,192,133841,1,2,0:0:0:0:
320,192,133924,1,2,0:0:0:0:
64,192,134008,1,8,0:0:0:0:
192,192,134008,1,0,0:0:0:0:
320,192,134091,1,0,0:0:0:0:
64,192,134174,1,8,0:0:0:0:
192,192,134174,1,0,0:0:0:0:
320,192,134258,1,0,0:0:0:0:
64,192,134341,1,6,0:0:0:0:
192,192,134341,1,6,0:0:0:0:
448,192,134341,1,0,0:0:0:0:
320,192,134424,1,0,0:0:0:0:
192,192,134508,1,0,0:0:0:0:
448,192,134591,1,0,0:0:0:0:
320,192,134674,1,8,0:0:0:0:
192,192,134758,1,0,0:0:0:0:
64,192,134841,1,0,0:0:0:0:
320,192,134924,1,0,0:0:0:0:
192,192,135008,1,2,0:0:0:0:
320,192,135091,1,0,0:0:0:0:
448,192,135174,1,0,0:0:0:0:
192,192,135258,1,0,0:0:0:0:
320,192,135341,1,8,0:0:0:0:
192,192,135424,1,0,0:0:0:0:
320,192,135508,1,2,0:0:0:0:
448,192,135591,1,0,0:0:0:0:
192,192,135674,1,2,0:0:0:0:
320,192,135758,1,0,0:0:0:0:
64,192,135841,1,0,0:0:0:0:
448,192,135924,1,0,0:0:0:0:
320,192,136008,1,8,0:0:0:0:
192,192,136091,1,0,0:0:0:0:
320,192,136174,1,0,0:0:0:0:
192,192,136258,1,0,0:0:0:0:
64,192,136341,1,2,0:0:0:0:
448,192,136424,1,0,0:0:0:0:
320,192,136508,1,0,0:0:0:0:
448,192,136591,1,0,0:0:0:0:
64,192,136674,1,8,0:0:0:0:
192,192,136758,1,0,0:0:0:0:
320,192,136841,1,2,0:0:0:0:
448,192,136841,1,0,0:0:0:0:
192,192,136924,1,0,0:0:0:0:
320,192,137008,1,2,0:0:0:0:
64,192,137091,1,0,0:0:0:0:
448,192,137174,1,2,0:0:0:0:
192,192,137174,1,0,0:0:0:0:
320,192,137258,1,0,0:0:0:0:
64,192,137341,1,8,0:0:0:0:
192,192,137341,1,0,0:0:0:0:
320,192,137424,1,0,0:0:0:0:
64,192,137508,1,8,0:0:0:0:
192,192,137508,1,0,0:0:0:0:
320,192,137591,1,0,0:0:0:0:
192,192,137674,1,2,0:0:0:0:
64,192,137758,1,0,0:0:0:0:
320,192,137841,1,2,0:0:0:0:
448,192,137841,1,0,0:0:0:0:
192,192,137924,1,0,0:0:0:0:
64,192,138008,1,0,0:0:0:0:
448,192,138008,1,8,0:0:0:0:
192,192,138091,1,0,0:0:0:0:
64,192,138174,1,0,0:0:0:0:
320,192,138174,1,8,0:0:0:0:
192,192,138258,1,0,0:0:0:0:
320,192,138341,1,2,0:0:0:0:
448,192,138341,1,0,0:0:0:0:
64,192,138424,1,0,0:0:0:0:
320,192,138508,1,2,0:0:0:0:
448,192,138508,1,0,0:0:0:0:
64,192,138591,1,0,0:0:0:0:
320,192,138674,1,10,0:0:0:0:
448,192,138674,1,0,0:0:0:0:
192,192,138758,1,0,0:0:0:0:
64,192,138841,1,0,0:0:0:0:
192,192,138924,1,0,0:0:0:0:
320,192,139008,1,2,0:0:0:0:
448,192,139008,1,0,0:0:0:0:
64,192,139091,1,2,0:0:0:0:
320,192,139174,1,2,0:0:0:0:
448,192,139174,1,0,0:0:0:0:
64,192,139258,1,2,0:0:0:0:
320,192,139341,1,0,0:0:0:0:
448,192,139341,1,10,0:0:0:0:
192,192,139424,1,0,0:0:0:0:
64,192,139424,1,2,0:0:0:0:
320,192,139508,1,0,0:0:0:0:
448,192,139508,1,2,0:0:0:0:
64,192,139591,1,2,0:0:0:0:
192,192,139591,1,6,0:0:0:0:
320,192,139674,1,6,0:0:0:0:
448,192,139674,1,0,0:0:0:0:
64,192,139758,1,0,0:0:0:0:
320,192,139841,1,0,0:0:0:0:
448,192,139841,1,0,0:0:0:0:
192,192,139924,1,0,0:0:0:0:
448,192,140008,1,8,0:0:0:0:
320,192,140091,1,0,0:0:0:0:
192,192,140174,1,0,0:0:0:0:
448,192,140258,1,0,0:0:0:0:
64,192,140341,1,0,0:0:0:0:
192,192,140341,1,0,0:0:0:0:
320,192,140424,1,0,0:0:0:0:
448,192,140508,1,0,0:0:0:0:
320,192,140591,1,0,0:0:0:0:
64,192,140674,1,8,0:0:0:0:
192,192,140758,1,0,0:0:0:0:
320,192,140841,1,0,0:0:0:0:
64,192,140924,1,0,0:0:0:0:
320,192,141008,1,0,0:0:0:0:
448,192,141008,1,0,0:0:0:0:
192,192,141091,1,0,0:0:0:0:
64,192,141174,1,0,0:0:0:0:
192,192,141258,1,0,0:0:0:0:
320,192,141341,1,8,0:0:0:0:
64,192,141424,1,0,0:0:0:0:
448,192,141508,1,0,0:0:0:0:
320,192,141591,1,0,0:0:0:0:
64,192,141674,1,0,0:0:0:0:
192,192,141674,1,0,0:0:0:0:
448,192,141758,1,0,0:0:0:0:
320,192,141841,1,0,0:0:0:0:
192,192,141924,1,0,0:0:0:0:
64,192,142008,1,8,0:0:0:0:
320,192,142091,1,0,0:0:0:0:
64,192,142174,1,2,0:0:0:0:
448,192,142174,1,0,0:0:0:0:
320,192,142258,1,0,0:0:0:0:
64,192,142341,1,2,0:0:0:0:
192,192,142341,1,0,0:0:0:0:
448,192,142424,1,0,0:0:0:0:
192,192,142508,1,0,0:0:0:0:
448,192,142591,1,0,0:0:0:0:
320,192,142674,1,8,0:0:0:0:
64,192,142758,1,0,0:0:0:0:
192,192,142841,1,0,0:0:0:0:
320,192,142924,1,0,0:0:0:0:
64,192,143008,1,0,0:0:0:0:
448,192,143008,1,0,0:0:0:0:
192,192,143091,1,0,0:0:0:0:
320,192,143174,1,0,0:0:0:0:
448,192,143258,1,0,0:0:0:0:
64,192,143341,1,8,0:0:0:0:
448,192,143424,1,0,0:0:0:0:
320,192,143508,1,0,0:0:0:0:
64,192,143591,1,0,0:0:0:0:
320,192,143674,1,2,0:0:0:0:
448,192,143674,1,0,0:0:0:0:
192,192,143758,1,0,0:0:0:0:
320,192,143841,1,2,0:0:0:0:
448,192,143841,1,0,0:0:0:0:
192,192,143924,1,0,0:0:0:0:
320,192,144008,1,8,0:0:0:0:
448,192,144008,1,0,0:0:0:0:
192,192,144091,1,0,0:0:0:0:
64,192,144174,1,0,0:0:0:0:
320,192,144258,1,0,0:0:0:0:
64,192,144341,1,2,0:0:0:0:
192,192,144341,1,0,0:0:0:0:
448,192,144424,1,0,0:0:0:0:
64,192,144508,1,2,0:0:0:0:
192,192,144508,1,0,0:0:0:0:
448,192,144591,1,0,0:0:0:0:
64,192,144674,1,8,0:0:0:0:
192,192,144674,1,0,0:0:0:0:
320,192,144758,1,0,0:0:0:0:
64,192,144841,1,8,0:0:0:0:
192,192,144841,1,0,0:0:0:0:
320,192,144924,1,0,0:0:0:0:
64,192,145008,1,6,0:0:0:0:
192,192,145008,1,6,0:0:0:0:
448,192,145008,1,0,0:0:0:0:
320,192,145091,1,0,0:0:0:0:
192,192,145174,1,0,0:0:0:0:
448,192,145258,1,0,0:0:0:0:
192,192,145341,1,8,0:0:0:0:
320,192,145424,1,0,0:0:0:0:
64,192,145508,1,0,0:0:0:0:
192,192,145591,1,0,0:0:0:0:
320,192,145674,1,0,0:0:0:0:
448,192,145674,1,0,0:0:0:0:
192,192,145758,1,0,0:0:0:0:
64,192,145841,1,0,0:0:0:0:
320,192,145924,1,0,0:0:0:0:
192,192,146008,1,8,0:0:0:0:
320,192,146091,1,0,0:0:0:0:
192,192,146174,1,0,0:0:0:0:
448,192,146258,1,0,0:0:0:0:
64,192,146341,1,0,0:0:0:0:
320,192,146341,1,0,0:0:0:0:
192,192,146424,1,0,0:0:0:0:
320,192,146508,1,0,0:0:0:0:
448,192,146591,1,0,0:0:0:0:
192,192,146674,1,8,0:0:0:0:
320,192,146758,1,0,0:0:0:0:
448,192,146841,1,0,0:0:0:0:
320,192,146924,1,0,0:0:0:0:
64,192,147008,1,0,0:0:0:0:
192,192,147008,1,0,0:0:0:0:
448,192,147091,1,0,0:0:0:0:
320,192,147174,1,0,0:0:0:0:
448,192,147258,1,0,0:0:0:0:
64,192,147341,1,8,0:0:0:0:
320,192,147424,1,0,0:0:0:0:
64,192,147508,1,0,0:0:0:0:
448,192,147508,1,2,0:0:0:0:
320,192,147591,1,0,0:0:0:0:
192,192,147674,1,2,0:0:0:0:
64,192,147758,1,0,0:0:0:0:
320,192,147841,1,2,0:0:0:0:
448,192,147841,1,0,0:0:0:0:
192,192,147924,1,0,0:0:0:0:
448,192,148008,1,8,0:0:0:0:
320,192,148091,1,0,0:0:0:0:
64,192,148174,1,0,0:0:0:0:
192,192,148174,1,8,0:0:0:0:
320,192,148258,1,0,0:0:0:0:
64,192,148341,1,2,0:0:0:0:
192,192,148424,1,0,0:0:0:0:
320,192,148508,1,2,0:0:0:0:
448,192,148508,1,0,0:0:0:0:
192,192,148591,1,0,0:0:0:0:
448,192,148674,1,8,0:0:0:0:
320,192,148758,1,0,0:0:0:0:
64,192,148841,1,0,0:0:0:0:
192,192,148841,1,8,0:0:0:0:
320,192,148924,1,0,0:0:0:0:
64,192,149008,1,2,0:0:0:0:
192,192,149008,1,0,0:0:0:0:
448,192,149008,1,0,0:0:0:0:
320,192,149091,1,0,0:0:0:0:
64,192,149174,1,2,0:0:0:0:
192,192,149174,1,0,0:0:0:0:
320,192,149258,1,0,0:0:0:0:
448,192,149258,1,0,0:0:0:0:
64,192,149341,1,2,0:0:0:0:
192,192,149341,1,0,0:0:0:0:
320,192,149591,1,0,0:0:0:0:
192,192,149674,1,2,0:0:0:0:
64,192,149674,1,0,0:0:0:0:
448,192,149757,1,0,0:0:0:0:
320,192,149758,1,0,0:0:0:0:
192,192,149841,1,2,0:0:0:0:
64,192,149841,1,0,0:0:0:0:
320,192,149924,1,0,0:0:0:0:
64,192,150007,1,0,0:0:0:0:
192,192,150008,1,2,0:0:0:0:
320,192,150091,1,0,0:0:0:0:
448,192,150091,1,0,0:0:0:0:
192,192,150174,1,2,0:0:0:0:
64,192,150174,1,0,0:0:0:0:
320,192,150258,1,0,0:0:0:0:
64,192,150341,1,6,0:0:0:0:
192,0,150341,128,6,150841:2:0:0:0:
448,0,151008,128,0,151508:2:0:0:0:
320,0,151674,128,0,152174:0:0:0:0:
192,0,152341,128,0,152841:0:0:0:0:
64,0,153008,128,0,153508:2:0:0:0:
320,0,153674,128,0,154174:0:0:0:0:
192,0,154341,128,0,155008:2:0:0:0:
320,192,155008,128,2,155508:2:0:0:0:
192,192,155341,128,2,155508:2:0:0:0:
320,192,155674,1,6,2:0:0:0:
448,192,155674,1,4,0:0:0:0:
64,0,155674,128,0,156174:0:0:0:0:
448,192,156008,1,8,0:0:0:0:
192,0,156341,128,0,156841:0:0:0:0:
64,192,156508,1,0,0:0:0:0:
448,192,156674,1,8,0:0:0:0:
448,0,157008,128,0,157508:2:0:0:0:
64,192,157174,1,0,0:0:0:0:
320,192,157341,1,8,0:0:0:0:
320,0,157674,128,2,158174:0:0:0:0:
64,192,157841,1,0,0:0:0:0:
448,192,158008,1,10,0:0:0:0:
192,192,158341,1,6,2:0:0:0:
448,192,158341,1,4,0:0:0:0:
64,0,158341,128,0,158841:0:0:0:0:
320,192,158508,1,0,0:0:0:0:
448,192,158674,1,8,0:0:0:0:
192,0,159008,128,0,159508:2:0:0:0:
64,192,159174,1,0,0:0:0:0:
448,192,159341,1,8,0:0:0:0:
64,192,159674,1,6,2:0:0:0:
448,192,159674,1,4,0:0:0:0:
320,0,159674,128,0,160174:1:0:0:0:
64,192,160008,1,8,0:0:0:0:
448,0,160174,128,0,160341:2:0:0:0:
192,192,160341,1,2,0:0:0:0:
320,192,160341,1,0,0:0:0:0:
64,192,160424,1,2,0:0:0:0:
448,192,160424,1,0,0:0:0:0:
192,192,160508,1,2,0:0:0:0:
320,192,160549,1,0,0:0:0:0:
64,192,160591,1,2,0:0:0:0:
448,192,160633,1,0,0:0:0:0:
192,192,160674,1,2,0:0:0:0:
320,192,160674,1,0,0:0:0:0:
64,192,160758,1,2,0:0:0:0:
448,192,160758,1,0,0:0:0:0:
192,192,160841,1,2,0:0:0:0:
320,192,160841,1,0,0:0:0:0:
192,192,161008,1,6,2:0:0:0:
320,192,161008,1,4,0:0:0:0:
64,0,161008,128,0,161508:1:0:0:0:
192,192,161341,1,8,0:0:0:0:
320,192,161341,1,0,0:0:0:0:
192,192,161674,1,0,0:0:0:0:
320,192,161674,1,0,2:0:0:0:
448,0,161674,128,0,162174:0:0:0:0:
64,192,162008,1,8,0:0:0:0:
192,192,162008,1,0,0:0:0:0:
64,192,162341,1,0,0:0:0:0:
448,192,162341,1,0,2:0:0:0:
320,0,162341,128,0,162841:0:0:0:0:
64,192,162674,1,8,0:0:0:0:
448,192,162674,1,0,0:0:0:0:
64,192,163008,1,0,2:0:0:0:
320,192,163008,1,0,0:0:0:0:
192,0,163008,128,0,163508:1:0:0:0:
320,192,163341,1,8,0:0:0:0:
448,192,163341,1,0,0:0:0:0:
320,192,163591,1,8,0:0:0:0:
192,192,163674,1,0,0:0:0:0:
448,192,163674,1,0,2:0:0:0:
64,0,163674,128,0,164174:0:0:0:0:
320,192,164008,1,8,0:0:0:0:
448,192,164008,1,0,0:0:0:0:
320,192,164341,1,0,0:0:0:0:
448,192,164341,1,0,2:0:0:0:
192,0,164341,128,0,164841:0:0:0:0:
64,192,164674,1,8,0:0:0:0:
448,192,164674,1,0,0:0:0:0:
64,192,165008,1,0,2:0:0:0:
448,192,165008,1,0,0:0:0:0:
320,0,165008,128,0,165508:1:0:0:0:
64,192,165341,1,8,0:0:0:0:
192,192,165341,1,0,0:0:0:0:
448,0,165508,128,0,165674:2:0:0:0:
192,192,165591,1,8,0:0:0:0:
64,192,165674,1,0,2:0:0:0:
320,0,165674,128,0,166008:0:0:0:0:
64,192,166008,1,8,0:0:0:0:
448,192,166008,1,0,0:0:0:0:
192,192,166174,1,2,0:0:0:0:
320,192,166174,1,0,0:0:0:0:
320,192,166341,1,14,1:0:0:0:
448,192,166341,1,4,0:0:0:0:
64,0,166341,128,0,166841:0:0:0:0:
448,192,166508,1,0,0:0:0:0:
192,192,166674,1,8,0:0:0:0:
320,192,166674,1,0,0:0:0:0:
320,192,166841,1,0,0:0:0:0:
64,192,167008,1,8,2:0:0:0:
448,192,167008,1,0,0:0:0:0:
192,0,167008,128,0,167508:1:0:0:0:
448,192,167174,1,0,0:0:0:0:
64,192,167341,1,8,0:0:0:0:
320,192,167341,1,0,0:0:0:0:
64,192,167508,1,0,0:0:0:0:
192,192,167674,1,8,2:0:0:0:
320,192,167674,1,0,0:0:0:0:
448,0,167674,128,0,168174:0:0:0:0:
192,192,167841,1,0,0:0:0:0:
64,192,168008,1,8,0:0:0:0:
320,192,168008,1,0,0:0:0:0:
64,192,168174,1,0,0:0:0:0:
192,192,168341,1,8,2:0:0:0:
448,192,168341,1,0,0:0:0:0:
320,0,168341,128,0,168841:0:0:0:0:
448,192,168508,1,0,0:0:0:0:
64,192,168674,1,8,0:0:0:0:
192,192,168674,1,0,0:0:0:0:
64,192,168841,1,0,0:0:0:0:
64,192,169008,1,8,0:0:0:0:
192,192,169008,1,0,0:0:0:0:
448,192,169008,1,0,0:0:0:0:
320,192,169091,1,0,0:0:0:0:
64,192,169174,1,0,0:0:0:0:
192,192,169258,1,0,0:0:0:0:
320,192,169341,1,8,0:0:0:0:
448,192,169341,1,0,0:0:0:0:
64,192,169424,1,0,0:0:0:0:
192,192,169508,1,8,0:0:0:0:
320,192,169508,1,0,0:0:0:0:
448,192,169591,1,0,0:0:0:0:
64,192,169674,1,8,0:0:0:0:
192,192,169674,1,0,0:0:0:0:
320,192,169758,1,0,0:0:0:0:
192,192,169841,1,0,0:0:0:0:
320,192,169924,1,0,0:0:0:0:
64,192,170008,1,8,0:0:0:0:
192,192,170008,1,0,0:0:0:0:
320,192,170091,1,0,0:0:0:0:
192,192,170174,1,0,0:0:0:0:
320,192,170258,1,0,0:0:0:0:
64,0,170341,128,0,170591:2:0:0:0:
192,192,170341,1,0,0:0:0:0:
192,0,170674,128,0,170924:2:0:0:0:
320,192,171008,128,0,171563:2:0:0:0:
448,0,171119,128,0,171563:2:0:0:0:
64,192,171674,1,6,0:0:0:0:
192,192,171674,1,6,0:0:0:0:
448,192,171674,1,6,0:0:0:0:
320,192,171758,1,0,0:0:0:0:
192,192,171841,1,0,0:0:0:0:
448,192,171924,1,0,0:0:0:0:
64,192,172008,1,8,0:0:0:0:
320,192,172008,1,0,0:0:0:0:
448,192,172091,1,0,0:0:0:0:
64,192,172174,1,0,0:0:0:0:
320,192,172258,1,8,0:0:0:0:
448,192,172258,1,0,0:0:0:0:
64,192,172341,1,0,0:0:0:0:
192,192,172341,1,0,0:0:0:0:
320,192,172424,1,0,0:0:0:0:
448,192,172508,1,0,0:0:0:0:
64,192,172591,1,0,0:0:0:0:
192,192,172674,1,8,0:0:0:0:
320,192,172674,1,0,0:0:0:0:
64,192,172758,1,0,0:0:0:0:
448,192,172841,1,0,0:0:0:0:
320,192,172924,1,0,0:0:0:0:
64,192,173008,1,0,0:0:0:0:
192,192,173008,1,0,0:0:0:0:
320,192,173091,1,0,0:0:0:0:
448,192,173174,1,0,0:0:0:0:
192,192,173258,1,0,0:0:0:0:
64,192,173341,1,8,0:0:0:0:
448,192,173341,1,0,0:0:0:0:
192,192,173424,1,0,0:0:0:0:
320,192,173508,1,0,0:0:0:0:
64,192,173591,1,0,0:0:0:0:
448,192,173591,1,8,0:0:0:0:
192,192,173674,1,0,0:0:0:0:
320,192,173674,1,0,0:0:0:0:
64,192,173758,1,0,0:0:0:0:
448,192,173841,1,0,0:0:0:0:
320,192,173924,1,0,0:0:0:0:
64,192,174008,1,8,0:0:0:0:
192,192,174008,1,0,0:0:0:0:
320,192,174091,1,0,0:0:0:0:
64,192,174174,1,0,0:0:0:0:
192,192,174258,1,0,0:0:0:0:
320,192,174258,1,0,0:0:0:0:
64,192,174341,1,0,0:0:0:0:
448,192,174341,1,0,0:0:0:0:
320,192,174424,1,0,0:0:0:0:
192,192,174508,1,0,0:0:0:0:
448,192,174591,1,0,0:0:0:0:
64,192,174674,1,8,0:0:0:0:
320,192,174674,1,0,0:0:0:0:
448,192,174758,1,0,0:0:0:0:
320,192,174841,1,0,0:0:0:0:
64,192,174924,1,8,0:0:0:0:
192,192,174924,1,0,0:0:0:0:
320,192,175008,1,0,0:0:0:0:
448,192,175008,1,0,0:0:0:0:
64,192,175091,1,0,0:0:0:0:
192,192,175174,1,0,0:0:0:0:
320,192,175258,1,0,0:0:0:0:
64,192,175341,1,0,0:0:0:0:
448,192,175341,1,8,0:0:0:0:
320,192,175424,1,0,0:0:0:0:
64,192,175508,1,0,0:0:0:0:
448,192,175591,1,0,0:0:0:0:
64,192,175674,1,0,0:0:0:0:
192,192,175674,1,0,0:0:0:0:
448,192,175758,1,0,0:0:0:0:
320,192,175841,1,0,0:0:0:0:
64,192,175924,1,0,0:0:0:0:
320,192,176008,1,8,0:0:0:0:
448,192,176008,1,0,0:0:0:0:
64,192,176091,1,0,0:0:0:0:
192,192,176174,1,0,0:0:0:0:
320,192,176258,1,0,0:0:0:0:
448,192,176258,1,8,0:0:0:0:
64,192,176341,1,2,0:0:0:0:
192,192,176341,1,0,0:0:0:0:
448,192,176424,1,0,0:0:0:0:
192,192,176508,1,2,0:0:0:0:
64,192,176591,1,0,0:0:0:0:
320,192,176674,1,10,0:0:0:0:
448,192,176674,1,0,0:0:0:0:
64,192,176758,1,0,0:0:0:0:
192,192,176841,1,2,0:0:0:0:
448,192,176924,1,0,0:0:0:0:
64,192,177008,1,6,0:0:0:0:
192,192,177008,1,6,0:0:0:0:
320,192,177008,1,0,0:0:0:0:
448,192,177091,1,0,0:0:0:0:
64,192,177174,1,0,0:0:0:0:
320,192,177258,1,0,0:0:0:0:
192,192,177341,1,0,0:0:0:0:
448,192,177341,1,8,0:0:0:0:
320,192,177424,1,0,0:0:0:0:
192,192,177508,1,0,0:0:0:0:
64,192,177591,1,8,0:0:0:0:
320,192,177591,1,0,0:0:0:0:
192,192,177674,1,0,0:0:0:0:
448,192,177674,1,0,0:0:0:0:
320,192,177758,1,0,0:0:0:0:
64,192,177841,1,0,0:0:0:0:
448,192,177924,1,0,0:0:0:0:
192,192,178008,1,8,0:0:0:0:
320,192,178008,1,0,0:0:0:0:
448,192,178091,1,0,0:0:0:0:
64,192,178174,1,0,0:0:0:0:
320,192,178258,1,0,0:0:0:0:
192,192,178341,1,0,0:0:0:0:
448,192,178341,1,0,0:0:0:0:
320,192,178424,1,0,0:0:0:0:
192,192,178508,1,0,0:0:0:0:
64,192,178591,1,0,0:0:0:0:
320,192,178674,1,8,0:0:0:0:
448,192,178674,1,0,0:0:0:0:
64,192,178758,1,0,0:0:0:0:
448,192,178841,1,0,0:0:0:0:
64,192,178924,1,0,0:0:0:0:
320,192,178924,1,8,0:0:0:0:
192,192,179008,1,0,0:0:0:0:
448,192,179008,1,0,0:0:0:0:
320,192,179091,1,0,0:0:0:0:
64,192,179174,1,0,0:0:0:0:
448,192,179258,1,0,0:0:0:0:
192,192,179341,1,8,0:0:0:0:
320,192,179341,1,0,0:0:0:0:
448,192,179424,1,0,0:0:0:0:
192,192,179508,1,0,0:0:0:0:
64,192,179591,1,0,0:0:0:0:
192,192,179674,1,0,0:0:0:0:
320,192,179674,1,0,0:0:0:0:
448,192,179758,1,0,0:0:0:0:
64,192,179841,1,0,0:0:0:0:
320,192,179924,1,0,0:0:0:0:
192,192,180008,1,8,0:0:0:0:
448,192,180008,1,0,0:0:0:0:
320,192,180091,1,0,0:0:0:0:
64,192,180174,1,0,0:0:0:0:
192,192,180258,1,8,0:0:0:0:
448,192,180258,1,0,0:0:0:0:
64,192,180341,1,0,0:0:0:0:
320,192,180341,1,0,0:0:0:0:
448,192,180424,1,0,0:0:0:0:
192,192,180508,1,0,0:0:0:0:
320,192,180591,1,0,0:0:0:0:
64,192,180674,1,8,0:0:0:0:
448,192,180674,1,0,0:0:0:0:
320,192,180758,1,0,0:0:0:0:
192,192,180841,1,0,0:0:0:0:
64,192,180924,1,0,0:0:0:0:
320,192,181008,1,10,0:0:0:0:
448,192,181008,1,0,0:0:0:0:
64,192,181091,1,0,0:0:0:0:
192,192,181174,1,0,0:0:0:0:
448,192,181258,1,0,0:0:0:0:
64,192,181341,1,10,0:0:0:0:
320,192,181341,1,0,0:0:0:0:
448,192,181424,1,0,0:0:0:0:
64,192,181508,1,0,0:0:0:0:
192,192,181591,1,8,0:0:0:0:
320,192,181591,1,0,0:0:0:0:
64,192,181674,1,10,0:0:0:0:
448,192,181674,1,0,0:0:0:0:
320,192,181758,1,0,0:0:0:0:
192,192,181841,1,0,0:0:0:0:
448,192,181924,1,0,0:0:0:0:
64,192,182008,1,10,0:0:0:0:
192,192,182008,1,0,0:0:0:0:
320,192,182091,1,10,0:0:0:0:
448,192,182091,1,0,0:0:0:0:
64,192,182174,1,10,0:0:0:0:
192,192,182174,1,0,0:0:0:0:
320,192,182258,1,10,0:0:0:0:
448,192,182258,1,0,0:0:0:0:
64,192,182341,1,6,0:0:0:0:
192,192,182341,1,6,0:0:0:0:
320,192,182341,1,0,0:0:0:0:
448,192,182424,1,0,0:0:0:0:
64,192,182508,1,0,0:0:0:0:
320,192,182591,1,0,0:0:0:0:
192,192,182674,1,8,0:0:0:0:
448,192,182674,1,0,0:0:0:0:
320,192,182758,1,0,0:0:0:0:
192,192,182841,1,0,0:0:0:0:
320,192,182924,1,8,0:0:0:0:
448,192,182924,1,0,0:0:0:0:
64,192,183008,1,0,0:0:0:0:
192,192,183008,1,0,0:0:0:0:
448,192,183091,1,0,0:0:0:0:
320,192,183174,1,0,0:0:0:0:
192,192,183258,1,0,0:0:0:0:
64,192,183341,1,8,0:0:0:0:
448,192,183341,1,0,0:0:0:0:
192,192,183424,1,0,0:0:0:0:
320,192,183508,1,0,0:0:0:0:
448,192,183591,1,0,0:0:0:0:
64,192,183674,1,0,0:0:0:0:
192,192,183674,1,0,0:0:0:0:
448,192,183758,1,0,0:0:0:0:
320,192,183841,1,0,0:0:0:0:
64,192,183924,1,0,0:0:0:0:
192,192,184008,1,8,0:0:0:0:
320,192,184008,1,0,0:0:0:0:
64,192,184091,1,0,0:0:0:0:
448,192,184174,1,0,0:0:0:0:
192,192,184258,1,8,0:0:0:0:
320,192,184258,1,0,0:0:0:0:
64,192,184341,1,0,0:0:0:0:
448,192,184341,1,0,0:0:0:0:
192,192,184424,1,0,0:0:0:0:
320,192,184508,1,0,0:0:0:0:
448,192,184591,1,0,0:0:0:0:
64,192,184674,1,8,0:0:0:0:
192,192,184674,1,0,0:0:0:0:
448,192,184758,1,0,0:0:0:0:
192,192,184841,1,0,0:0:0:0:
64,192,184924,1,0,0:0:0:0:
448,192,184924,1,0,0:0:0:0:
192,192,185008,1,0,0:0:0:0:
320,192,185008,1,0,0:0:0:0:
448,192,185091,1,0,0:0:0:0:
64,192,185174,1,0,0:0:0:0:
192,192,185174,1,0,0:0:0:0:
320,192,185258,1,0,0:0:0:0:
64,192,185341,1,8,0:0:0:0:
448,192,185341,1,0,0:0:0:0:
320,192,185424,1,0,0:0:0:0:
448,192,185508,1,0,0:0:0:0:
64,192,185591,1,8,0:0:0:0:
192,192,185591,1,0,0:0:0:0:
320,192,185674,1,0,0:0:0:0:
448,192,185674,1,0,0:0:0:0:
192,192,185758,1,0,0:0:0:0:
64,192,185841,1,0,0:0:0:0:
448,192,185924,1,0,0:0:0:0:
64,192,186008,1,8,0:0:0:0:
192,192,186008,1,0,0:0:0:0:
448,192,186091,1,0,0:0:0:0:
192,192,186174,1,0,0:0:0:0:
320,192,186258,1,0,0:0:0:0:
64,192,186341,1,0,0:0:0:0:
192,192,186341,1,0,0:0:0:0:
320,192,186424,1,0,0:0:0:0:
448,192,186508,1,0,0:0:0:0:
192,192,186591,1,0,0:0:0:0:
320,192,186674,1,8,0:0:0:0:
448,192,186674,1,0,0:0:0:0:
192,192,186758,1,0,0:0:0:0:
64,192,186841,1,0,0:0:0:0:
320,192,186924,1,8,0:0:0:0:
448,192,186924,1,0,0:0:0:0:
64,192,187008,1,0,0:0:0:0:
192,192,187008,1,2,0:0:0:0:
320,192,187091,1,0,0:0:0:0:
448,192,187174,1,2,0:0:0:0:
192,192,187258,1,0,0:0:0:0:
64,192,187341,1,8,0:0:0:0:
448,192,187341,1,2,0:0:0:0:
192,192,187424,1,0,0:0:0:0:
64,192,187508,1,2,0:0:0:0:
320,192,187591,1,0,0:0:0:0:
64,192,187674,1,6,0:0:0:0:
192,192,187674,1,6,0:0:0:0:
448,192,187674,1,0,0:0:0:0:
320,192,187758,1,0,0:0:0:0:
448,192,187841,1,0,0:0:0:0:
192,192,187924,1,0,0:0:0:0:
64,192,188008,1,8,0:0:0:0:
320,192,188008,1,0,0:0:0:0:
448,192,188091,1,0,0:0:0:0:
64,192,188174,1,0,0:0:0:0:
192,192,188258,1,8,0:0:0:0:
448,192,188258,1,0,0:0:0:0:
64,192,188341,1,0,0:0:0:0:
320,192,188341,1,0,0:0:0:0:
448,192,188424,1,0,0:0:0:0:
192,192,188508,1,0,0:0:0:0:
320,192,188591,1,0,0:0:0:0:
64,192,188674,1,8,0:0:0:0:
448,192,188674,1,0,0:0:0:0:
320,192,188758,1,0,0:0:0:0:
192,192,188841,1,0,0:0:0:0:
448,192,188924,1,0,0:0:0:0:
64,192,189008,1,6,0:0:0:0:
192,192,189008,1,6,0:0:0:0:
320,192,189008,1,0,0:0:0:0:
448,192,189091,1,0,0:0:0:0:
64,192,189174,1,0,0:0:0:0:
192,192,189258,1,0,0:0:0:0:
320,192,189341,1,8,0:0:0:0:
448,192,189341,1,0,0:0:0:0:
192,192,189424,1,0,0:0:0:0:
320,192,189508,1,0,0:0:0:0:
192,192,189591,1,8,0:0:0:0:
448,192,189591,1,0,0:0:0:0:
64,192,189674,1,0,0:0:0:0:
320,192,189674,1,0,0:0:0:0:
448,192,189758,1,0,0:0:0:0:
192,192,189841,1,0,0:0:0:0:
320,192,189924,1,0,0:0:0:0:
64,192,190008,1,8,0:0:0:0:
448,192,190008,1,0,0:0:0:0:
320,192,190091,1,0,0:0:0:0:
64,192,190174,1,0,0:0:0:0:
192,192,190258,1,0,0:0:0:0:
64,192,190341,1,6,0:0:0:0:
320,192,190341,1,6,0:0:0:0:
448,192,190341,1,0,0:0:0:0:
192,192,190424,1,0,0:0:0:0:
320,192,190508,1,0,0:0:0:0:
448,192,190591,1,0,0:0:0:0:
64,192,190674,1,8,0:0:0:0:
192,192,190674,1,0,0:0:0:0:
448,192,190758,1,0,0:0:0:0:
192,192,190841,1,0,0:0:0:0:
64,192,190924,1,8,0:0:0:0:
320,192,190924,1,0,0:0:0:0:
192,192,191008,1,6,0:0:0:0:
448,192,191008,1,6,0:0:0:0:
320,192,191091,1,0,0:0:0:0:
64,192,191174,1,0,0:0:0:0:
192,192,191258,1,0,0:0:0:0:
320,192,191341,1,8,0:0:0:0:
448,192,191341,1,0,0:0:0:0:
192,192,191424,1,0,0:0:0:0:
320,192,191508,1,0,0:0:0:0:
64,192,191591,1,0,0:0:0:0:
192,192,191674,1,0,0:0:0:0:
320,192,191674,1,6,0:0:0:0:
448,192,191674,1,6,0:0:0:0:
64,192,191758,1,0,0:0:0:0:
320,192,191841,1,8,0:0:0:0:
448,192,191841,1,0,0:0:0:0:
64,192,191924,1,8,0:0:0:0:
192,192,191924,1,0,0:0:0:0:
320,192,192008,1,14,0:0:0:0:
448,192,192008,1,4,0:0:0:0:
64,192,192091,1,0,0:0:0:0:
320,192,192174,1,8,0:0:0:0:
448,192,192174,1,0,0:0:0:0:
64,192,192258,1,8,0:0:0:0:
192,192,192258,1,0,0:0:0:0:
320,192,192341,1,14,0:0:0:0:
448,192,192341,1,4,0:0:0:0:
64,192,192424,1,0,0:0:0:0:
320,192,192508,1,8,0:0:0:0:
448,192,192508,1,0,0:0:0:0:
64,192,192591,1,0,0:0:0:0:
192,192,192591,1,8,0:0:0:0:
320,192,192674,1,14,0:0:0:0:
448,192,192674,1,4,0:0:0:0:
64,192,192758,1,0,0:0:0:0:
192,192,192758,1,10,0:0:0:0:
320,192,192841,1,10,0:0:0:0:
448,192,192841,1,0,0:0:0:0:
192,192,192924,1,10,0:0:0:0:
64,192,192924,1,0,0:0:0:0:
192,192,193008,1,6,0:0:0:0:
320,192,193008,1,6,0:0:0:0:
448,192,193008,1,6,0:0:0:0:
64,192,193091,1,0,0:0:0:0:
448,192,193174,1,0,0:0:0:0:
320,192,193258,1,0,0:0:0:0:
64,192,193341,1,0,0:0:0:0:
192,192,193341,1,8,0:0:0:0:
320,192,193424,1,0,0:0:0:0:
192,192,193508,1,0,0:0:0:0:
64,192,193591,1,8,0:0:0:0:
320,192,193591,1,0,0:0:0:0:
192,192,193674,1,0,0:0:0:0:
448,192,193674,1,0,0:0:0:0:
64,192,193758,1,0,0:0:0:0:
320,192,193841,1,0,0:0:0:0:
192,192,193924,1,0,0:0:0:0:
64,192,194008,1,8,0:0:0:0:
448,192,194008,1,0,0:0:0:0:
192,192,194091,1,0,0:0:0:0:
320,192,194174,1,0,0:0:0:0:
64,192,194258,1,0,0:0:0:0:
192,192,194341,1,0,0:0:0:0:
448,192,194341,1,0,0:0:0:0:
64,192,194424,1,0,0:0:0:0:
320,192,194508,1,0,0:0:0:0:
448,192,194591,1,0,0:0:0:0:
192,192,194674,1,8,0:0:0:0:
320,192,194674,1,0,0:0:0:0:
448,192,194758,1,0,0:0:0:0:
64,192,194841,1,0,0:0:0:0:
192,192,194924,1,8,0:0:0:0:
320,192,194924,1,0,0:0:0:0:
64,192,195008,1,0,0:0:0:0:
448,192,195008,1,0,0:0:0:0:
192,192,195091,1,0,0:0:0:0:
320,192,195174,1,0,0:0:0:0:
64,192,195258,1,0,0:0:0:0:
192,192,195341,1,8,0:0:0:0:
448,192,195341,1,0,0:0:0:0:
64,192,195424,1,0,0:0:0:0:
192,192,195508,1,0,0:0:0:0:
64,192,195591,1,0,0:0:0:0:
448,192,195591,1,0,0:0:0:0:
192,192,195674,1,0,0:0:0:0:
320,192,195674,1,0,0:0:0:0:
64,192,195758,1,0,0:0:0:0:
448,192,195841,1,0,0:0:0:0:
320,192,195924,1,0,0:0:0:0:
64,192,196008,1,8,0:0:0:0:
192,192,196008,1,0,0:0:0:0:
320,192,196091,1,0,0:0:0:0:
64,192,196174,1,0,0:0:0:0:
192,192,196258,1,8,0:0:0:0:
448,192,196258,1,0,0:0:0:0:
64,192,196341,1,0,0:0:0:0:
320,192,196341,1,0,0:0:0:0:
192,192,196424,1,0,0:0:0:0:
448,192,196508,1,0,0:0:0:0:
64,192,196591,1,0,0:0:0:0:
192,192,196674,1,0,0:0:0:0:
320,192,196674,1,8,0:0:0:0:
64,192,196758,1,0,0:0:0:0:
192,192,196841,1,0,0:0:0:0:
320,192,196924,1,0,0:0:0:0:
192,192,197008,1,0,0:0:0:0:
448,192,197008,1,0,0:0:0:0:
320,192,197091,1,0,0:0:0:0:
64,192,197174,1,0,0:0:0:0:
192,192,197258,1,0,0:0:0:0:
64,192,197341,1,8,0:0:0:0:
320,192,197341,1,0,0:0:0:0:
192,192,197424,1,0,0:0:0:0:
448,192,197508,1,0,0:0:0:0:
64,192,197591,1,0,0:0:0:0:
320,192,197591,1,8,0:0:0:0:
192,192,197674,1,2,0:0:0:0:
448,192,197674,1,0,0:0:0:0:
320,192,197758,1,0,0:0:0:0:
448,192,197841,1,2,0:0:0:0:
192,192,197924,1,0,0:0:0:0:
64,192,198008,1,8,0:0:0:0:
320,192,198008,1,2,0:0:0:0:
192,192,198091,1,0,0:0:0:0:
448,192,198174,1,2,0:0:0:0:
320,192,198258,1,0,0:0:0:0:
64,192,198341,1,6,0:0:0:0:
192,192,198341,1,6,0:0:0:0:
448,192,198341,1,0,0:0:0:0:
320,192,198424,1,0,0:0:0:0:
192,192,198508,1,0,0:0:0:0:
64,192,198591,1,0,0:0:0:0:
320,192,198674,1,8,0:0:0:0:
448,192,198674,1,0,0:0:0:0:
64,192,198758,1,0,0:0:0:0:
448,192,198841,1,0,0:0:0:0:
64,192,198924,1,0,0:0:0:0:
192,192,198924,1,8,0:0:0:0:
320,192,199008,1,0,0:0:0:0:
448,192,199008,1,0,0:0:0:0:
64,192,199091,1,0,0:0:0:0:
192,192,199174,1,0,0:0:0:0:
320,192,199258,1,0,0:0:0:0:
64,192,199341,1,8,0:0:0:0:
448,192,199341,1,0,0:0:0:0:
320,192,199424,1,0,0:0:0:0:
192,192,199508,1,0,0:0:0:0:
64,192,199591,1,0,0:0:0:0:
320,192,199674,1,0,0:0:0:0:
448,192,199674,1,0,0:0:0:0:
64,192,199758,1,0,0:0:0:0:
448,192,199841,1,0,0:0:0:0:
192,192,199924,1,0,0:0:0:0:
64,192,200008,1,8,0:0:0:0:
320,192,200008,1,0,0:0:0:0:
192,192,200091,1,0,0:0:0:0:
320,192,200174,1,0,0:0:0:0:
64,192,200258,1,0,0:0:0:0:
192,192,200258,1,8,0:0:0:0:
320,192,200341,1,0,0:0:0:0:
448,192,200341,1,0,0:0:0:0:
64,192,200424,1,0,0:0:0:0:
192,192,200508,1,0,0:0:0:0:
320,192,200591,1,0,0:0:0:0:
64,192,200674,1,0,0:0:0:0:
448,192,200674,1,8,0:0:0:0:
320,192,200758,1,0,0:0:0:0:
448,192,200841,1,0,0:0:0:0:
192,192,200924,1,0,0:0:0:0:
64,192,201008,1,0,0:0:0:0:
448,192,201008,1,0,0:0:0:0:
320,192,201091,1,0,0:0:0:0:
192,192,201174,1,0,0:0:0:0:
64,192,201258,1,0,0:0:0:0:
320,192,201341,1,8,0:0:0:0:
448,192,201341,1,0,0:0:0:0:
64,192,201424,1,0,0:0:0:0:
192,192,201508,1,0,0:0:0:0:
320,192,201591,1,8,0:0:0:0:
448,192,201591,1,0,0:0:0:0:
64,192,201674,1,0,0:0:0:0:
192,192,201674,1,0,0:0:0:0:
320,192,201758,1,0,0:0:0:0:
448,192,201841,1,0,0:0:0:0:
64,192,201924,1,0,0:0:0:0:
192,192,202008,1,8,0:0:0:0:
320,192,202008,1,0,0:0:0:0:
64,192,202091,1,0,0:0:0:0:
448,192,202174,1,0,0:0:0:0:
192,192,202258,1,0,0:0:0:0:
64,192,202341,1,10,0:0:0:0:
320,192,202341,1,0,0:0:0:0:
192,192,202424,1,0,0:0:0:0:
448,192,202508,1,0,0:0:0:0:
320,192,202591,1,0,0:0:0:0:
64,192,202674,1,0,0:0:0:0:
192,192,202674,1,10,0:0:0:0:
320,192,202758,1,0,0:0:0:0:
192,192,202841,1,0,0:0:0:0:
64,192,202924,1,8,0:0:0:0:
448,192,202924,1,0,0:0:0:0:
192,192,203008,1,10,0:0:0:0:
320,192,203008,1,0,0:0:0:0:
64,192,203091,1,0,0:0:0:0:
448,192,203174,1,0,0:0:0:0:
320,192,203258,1,0,0:0:0:0:
64,192,203341,1,10,0:0:0:0:
192,192,203341,1,0,0:0:0:0:
320,192,203424,1,10,0:0:0:0:
448,192,203424,1,0,0:0:0:0:
64,192,203508,1,10,0:0:0:0:
192,192,203508,1,0,0:0:0:0:
448,192,203591,1,10,0:0:0:0:
320,192,203591,1,0,0:0:0:0:
64,192,203674,1,6,0:0:0:0:
192,192,203674,1,6,0:0:0:0:
448,192,203674,1,0,0:0:0:0:
320,192,203758,1,0,0:0:0:0:
192,192,203841,1,0,0:0:0:0:
64,192,203924,1,0,0:0:0:0:
320,192,204008,1,8,0:0:0:0:
448,192,204008,1,0,0:0:0:0:
64,192,204091,1,0,0:0:0:0:
448,192,204174,1,0,0:0:0:0:
64,192,204258,1,8,0:0:0:0:
320,192,204258,1,0,0:0:0:0:
192,192,204341,1,0,0:0:0:0:
448,192,204341,1,0,0:0:0:0:
320,192,204424,1,0,0:0:0:0:
64,192,204508,1,0,0:0:0:0:
448,192,204591,1,0,0:0:0:0:
192,192,204674,1,8,0:0:0:0:
320,192,204674,1,0,0:0:0:0:
448,192,204758,1,0,0:0:0:0:
64,192,204841,1,0,0:0:0:0:
320,192,204924,1,0,0:0:0:0:
192,192,205008,1,0,0:0:0:0:
448,192,205008,1,0,0:0:0:0:
320,192,205091,1,0,0:0:0:0:
64,192,205174,1,0,0:0:0:0:
192,192,205258,1,0,0:0:0:0:
64,192,205341,1,8,0:0:0:0:
448,192,205341,1,0,0:0:0:0:
192,192,205424,1,0,0:0:0:0:
320,192,205508,1,0,0:0:0:0:
64,192,205591,1,8,0:0:0:0:
448,192,205591,1,0,0:0:0:0:
192,192,205674,1,0,0:0:0:0:
320,192,205674,1,0,0:0:0:0:
448,192,205758,1,0,0:0:0:0:
64,192,205841,1,0,0:0:0:0:
320,192,205924,1,0,0:0:0:0:
192,192,206008,1,8,0:0:0:0:
448,192,206008,1,0,0:0:0:0:
320,192,206091,1,0,0:0:0:0:
448,192,206174,1,0,0:0:0:0:
192,192,206258,1,0,0:0:0:0:
320,192,206258,1,0,0:0:0:0:
64,192,206341,1,0,0:0:0:0:
448,192,206341,1,0,0:0:0:0:
320,192,206424,1,0,0:0:0:0:
192,192,206508,1,0,0:0:0:0:
448,192,206508,1,0,0:0:0:0:
64,192,206591,1,0,0:0:0:0:
192,192,206674,1,8,0:0:0:0:
320,192,206674,1,0,0:0:0:0:
64,192,206758,1,0,0:0:0:0:
320,192,206841,1,0,0:0:0:0:
192,192,206924,1,8,0:0:0:0:
448,192,206924,1,0,0:0:0:0:
64,192,207008,1,0,0:0:0:0:
320,192,207008,1,0,0:0:0:0:
448,192,207091,1,0,0:0:0:0:
192,192,207174,1,0,0:0:0:0:
320,192,207258,1,0,0:0:0:0:
192,192,207341,1,8,0:0:0:0:
448,192,207341,1,0,0:0:0:0:
320,192,207424,1,0,0:0:0:0:
448,192,207508,1,0,0:0:0:0:
64,192,207591,1,0,0:0:0:0:
192,192,207674,1,0,0:0:0:0:
448,192,207674,1,0,0:0:0:0:
64,192,207758,1,0,0:0:0:0:
320,192,207841,1,0,0:0:0:0:
448,192,207924,1,0,0:0:0:0:
64,192,208008,1,8,0:0:0:0:
320,192,208008,1,0,0:0:0:0:
448,192,208091,1,0,0:0:0:0:
192,192,208174,1,0,0:0:0:0:
64,192,208258,1,8,0:0:0:0:
320,192,208258,1,0,0:0:0:0:
192,192,208341,1,0,0:0:0:0:
448,192,208341,1,0,0:0:0:0:
64,192,208424,1,0,0:0:0:0:
320,192,208508,1,0,0:0:0:0:
448,192,208591,1,0,0:0:0:0:
192,192,208674,1,8,0:0:0:0:
320,192,208674,1,0,0:0:0:0:
448,192,208758,1,0,0:0:0:0:
192,192,208841,1,0,0:0:0:0:
64,192,208924,1,0,0:0:0:0:
192,192,209008,1,6,0:0:0:0:
320,192,209008,1,6,0:0:0:0:
448,192,209008,1,0,0:0:0:0:
64,192,209091,1,0,0:0:0:0:
320,192,209174,1,0,0:0:0:0:
448,192,209258,1,0,0:0:0:0:
64,192,209341,1,8,0:0:0:0:
192,192,209341,1,0,0:0:0:0:
320,192,209424,1,0,0:0:0:0:
192,192,209508,1,0,0:0:0:0:
320,192,209591,1,8,0:0:0:0:
448,192,209591,1,0,0:0:0:0:
64,192,209674,1,0,0:0:0:0:
192,192,209674,1,0,0:0:0:0:
320,192,209758,1,0,0:0:0:0:
448,192,209841,1,0,0:0:0:0:
64,192,209924,1,0,0:0:0:0:
192,192,210008,1,8,0:0:0:0:
320,192,210008,1,0,0:0:0:0:
64,192,210091,1,0,0:0:0:0:
448,192,210174,1,0,0:0:0:0:
320,192,210258,1,0,0:0:0:0:
64,192,210341,1,6,0:0:0:0:
192,192,210341,1,6,0:0:0:0:
448,192,210341,1,0,0:0:0:0:
320,192,210424,1,0,0:0:0:0:
192,192,210508,1,0,0:0:0:0:
448,192,210591,1,0,0:0:0:0:
64,192,210674,1,0,0:0:0:0:
320,192,210674,1,8,0:0:0:0:
448,192,210758,1,0,0:0:0:0:
64,192,210841,1,0,0:0:0:0:
320,192,210924,1,0,0:0:0:0:
448,192,210924,1,8,0:0:0:0:
64,192,211008,1,0,0:0:0:0:
192,192,211008,1,0,0:0:0:0:
320,192,211091,1,0,0:0:0:0:
448,192,211174,1,0,0:0:0:0:
64,192,211258,1,0,0:0:0:0:
192,192,211341,1,0,0:0:0:0:
320,192,211341,1,8,0:0:0:0:
64,192,211424,1,0,0:0:0:0:
192,192,211508,1,0,0:0:0:0:
448,192,211591,1,0,0:0:0:0:
64,192,211674,1,6,0:0:0:0:
192,192,211674,1,6,0:0:0:0:
320,192,211674,1,0,0:0:0:0:
448,192,211758,1,0,0:0:0:0:
64,192,211841,1,0,0:0:0:0:
320,192,211924,1,0,0:0:0:0:
192,192,212008,1,8,0:0:0:0:
448,192,212008,1,0,0:0:0:0:
320,192,212091,1,0,0:0:0:0:
448,192,212174,1,0,0:0:0:0:
64,192,212258,1,8,0:0:0:0:
192,192,212258,1,0,0:0:0:0:
320,192,212341,1,6,0:0:0:0:
448,192,212341,1,6,0:0:0:0:
64,192,212424,1,0,0:0:0:0:
192,192,212508,1,0,0:0:0:0:
448,192,212591,1,0,0:0:0:0:
64,192,212674,1,0,0:0:0:0:
320,192,212674,1,8,0:0:0:0:
448,192,212758,1,0,0:0:0:0:
64,192,212841,1,0,0:0:0:0:
192,192,212924,1,0,0:0:0:0:
64,192,213008,1,6,0:0:0:0:
320,192,213008,1,6,0:0:0:0:
448,192,213008,1,0,0:0:0:0:
192,192,213091,1,0,0:0:0:0:
320,192,213174,1,8,0:0:0:0:
448,192,213174,1,0,0:0:0:0:
64,192,213258,1,8,0:0:0:0:
192,192,213258,1,0,0:0:0:0:
320,192,213341,1,14,0:0:0:0:
448,192,213341,1,4,0:0:0:0:
192,192,213424,1,0,0:0:0:0:
320,192,213508,1,8,0:0:0:0:
448,192,213508,1,0,0:0:0:0:
64,192,213591,1,0,0:0:0:0:
192,192,213591,1,8,0:0:0:0:
320,192,213674,1,14,0:0:0:0:
448,192,213674,1,4,0:0:0:0:
192,192,213758,1,0,0:0:0:0:
320,192,213841,1,8,0:0:0:0:
448,192,213841,1,0,0:0:0:0:
64,192,213924,1,8,0:0:0:0:
192,192,213924,1,0,0:0:0:0:
320,192,214008,1,14,0:0:0:0:
448,192,214008,1,4,0:0:0:0:
64,192,214091,1,10,0:0:0:0:
192,192,214091,1,0,0:0:0:0:
320,192,214174,1,10,0:0:0:0:
448,192,214174,1,0,0:0:0:0:
64,192,214258,1,10,0:0:0:0:
192,192,214258,1,0,0:0:0:0:
64,192,214341,1,6,0:0:0:0:
320,192,214341,1,6,0:0:0:0:
448,192,214341,1,6,0:0:0:0:
192,192,214424,1,0,0:0:0:0:
64,192,214508,1,0,0:0:0:0:
320,192,214591,1,0,0:0:0:0:
192,192,214674,1,2,0:0:0:0:
64,192,214758,1,0,0:0:0:0:
320,192,214841,1,0,0:0:0:0:
192,192,214924,1,0,0:0:0:0:
64,192,215008,1,2,0:0:0:0:
448,192,215008,1,0,0:0:0:0:
320,192,215091,1,0,0:0:0:0:
64,192,215174,1,0,0:0:0:0:
320,192,215258,1,0,0:0:0:0:
192,192,215341,1,2,0:0:0:0:
64,192,215424,1,0,0:0:0:0:
320,192,215508,1,0,0:0:0:0:
64,192,215591,1,0,0:0:0:0:
192,192,215674,1,2,0:0:0:0:
448,192,215674,1,0,0:0:0:0:
320,192,215758,1,0,0:0:0:0:
64,192,215841,1,0,0:0:0:0:
448,192,215924,1,0,0:0:0:0:
192,192,216008,1,2,0:0:0:0:
64,192,216091,1,0,0:0:0:0:
320,192,216174,1,0,0:0:0:0:
192,192,216258,1,0,0:0:0:0:
64,192,216341,1,2,0:0:0:0:
448,192,216341,1,0,0:0:0:0:
320,192,216424,1,0,0:0:0:0:
64,192,216508,1,0,0:0:0:0:
320,192,216591,1,0,0:0:0:0:
192,192,216674,1,2,0:0:0:0:
64,192,216758,1,0,0:0:0:0:
320,192,216841,1,0,0:0:0:0:
192,192,216924,1,0,0:0:0:0:
320,192,217008,1,2,0:0:0:0:
448,192,217008,1,0,0:0:0:0:
192,192,217091,1,0,0:0:0:0:
64,192,217174,1,0,0:0:0:0:
320,192,217258,1,0,0:0:0:0:
192,192,217341,1,2,0:0:0:0:
64,192,217424,1,0,0:0:0:0:
320,192,217508,1,0,0:0:0:0:
192,192,217591,1,0,0:0:0:0:
64,192,217674,1,2,0:0:0:0:
448,192,217674,1,0,0:0:0:0:
320,192,217758,1,0,0:0:0:0:
64,192,217841,1,0,0:0:0:0:
320,192,217924,1,0,0:0:0:0:
192,192,218008,1,2,0:0:0:0:
64,192,218091,1,0,0:0:0:0:
320,192,218174,1,0,0:0:0:0:
64,192,218258,1,0,0:0:0:0:
192,192,218341,1,2,0:0:0:0:
448,192,218341,1,0,0:0:0:0:
320,192,218424,1,0,0:0:0:0:
64,192,218508,1,0,0:0:0:0:
448,192,218591,1,0,0:0:0:0:
192,192,218674,1,2,0:0:0:0:
64,192,218758,1,0,0:0:0:0:
320,192,218841,1,0,0:0:0:0:
192,192,218924,1,0,0:0:0:0:
64,192,219008,1,2,0:0:0:0:
448,192,219008,1,0,0:0:0:0:
320,192,219091,1,0,0:0:0:0:
64,192,219174,1,0,0:0:0:0:
320,192,219258,1,0,0:0:0:0:
192,192,219341,1,2,0:0:0:0:
64,192,219424,1,0,0:0:0:0:
320,192,219508,1,0,0:0:0:0:
64,192,219591,1,0,0:0:0:0:
192,192,219674,1,6,0:0:0:0:
320,192,219674,1,0,0:0:0:0:
448,192,219674,1,0,0:0:0:0:
64,192,219841,1,0,0:0:0:0:
192,192,220008,1,2,0:0:0:0:
320,192,220174,1,0,0:0:0:0:
192,192,220258,1,0,0:0:0:0:
64,192,220341,1,2,0:0:0:0:
448,192,220341,1,0,0:0:0:0:
320,192,220424,1,0,0:0:0:0:
64,192,220508,1,0,0:0:0:0:
320,192,220591,1,0,0:0:0:0:
192,192,220674,1,2,0:0:0:0:
320,192,220841,1,0,0:0:0:0:
192,192,220924,1,0,0:0:0:0:
64,192,221008,1,2,0:0:0:0:
448,192,221008,1,0,0:0:0:0:
320,192,221091,1,0,0:0:0:0:
64,192,221174,1,0,0:0:0:0:
320,192,221258,1,0,0:0:0:0:
192,192,221341,1,2,0:0:0:0:
320,192,221508,1,0,0:0:0:0:
64,192,221591,1,0,0:0:0:0:
320,192,221674,1,2,0:0:0:0:
448,192,221674,1,0,0:0:0:0:
192,192,221758,1,0,0:0:0:0:
64,192,221841,1,0,0:0:0:0:
320,192,221924,1,0,0:0:0:0:
192,192,222008,1,2,0:0:0:0:
320,192,222174,1,0,0:0:0:0:
64,192,222258,1,0,0:0:0:0:
192,192,222341,1,2,0:0:0:0:
448,192,222341,1,0,0:0:0:0:
320,192,222424,1,0,0:0:0:0:
64,192,222508,1,0,0:0:0:0:
320,192,222591,1,0,0:0:0:0:
192,192,222674,1,2,0:0:0:0:
320,192,222841,1,0,0:0:0:0:
192,192,222924,1,0,0:0:0:0:
64,192,223008,1,2,0:0:0:0:
448,192,223008,1,0,0:0:0:0:
320,192,223091,1,0,0:0:0:0:
64,192,223174,1,0,0:0:0:0:
320,192,223258,1,0,0:0:0:0:
192,192,223341,1,2,0:0:0:0:
320,192,223508,1,0,0:0:0:0:
192,192,223591,1,0,0:0:0:0:
64,192,223674,1,2,0:0:0:0:
448,192,223674,1,0,0:0:0:0:
320,192,223758,1,0,0:0:0:0:
64,192,223841,1,0,0:0:0:0:
320,192,223924,1,0,0:0:0:0:
192,192,224008,1,2,0:0:0:0:
320,192,224174,1,0,0:0:0:0:
192,192,224258,1,0,0:0:0:0:
64,192,224341,1,2,0:0:0:0:
448,192,224341,1,0,0:0:0:0:
320,192,224424,1,0,0:0:0:0:
192,192,224508,1,0,0:0:0:0:
448,192,224508,1,0,0:0:0:0:
64,192,224674,1,2,0:0:0:0:
320,192,224674,1,0,0:0:0:0:
192,192,224758,1,2,0:0:0:0:
64,192,224841,1,2,0:0:0:0:
448,192,224841,1,0,0:0:0:0:
192,192,224924,1,2,0:0:0:0:
64,192,225008,1,6,0:0:0:0:
320,192,225008,1,0,0:0:0:0:
448,192,225008,1,0,0:0:0:0:
192,192,225174,1,0,0:0:0:0:
320,192,225341,1,2,0:0:0:0:
448,192,225508,1,0,0:0:0:0:
64,192,225591,1,0,0:0:0:0:
192,192,225674,1,2,0:0:0:0:
320,192,225674,1,0,0:0:0:0:
448,192,225758,1,0,0:0:0:0:
192,192,225841,1,0,0:0:0:0:
448,192,225924,1,0,0:0:0:0:
320,192,226008,1,2,0:0:0:0:
448,192,226174,1,0,0:0:0:0:
64,192,226258,1,0,0:0:0:0:
192,192,226341,1,2,0:0:0:0:
320,192,226341,1,0,0:0:0:0:
448,192,226424,1,0,0:0:0:0:
192,192,226508,1,0,0:0:0:0:
448,192,226591,1,0,0:0:0:0:
320,192,226674,1,2,0:0:0:0:
448,192,226841,1,0,0:0:0:0:
192,192,226924,1,0,0:0:0:0:
320,192,227008,1,2,0:0:0:0:
448,192,227008,1,0,0:0:0:0:
64,192,227091,1,0,0:0:0:0:
192,192,227174,1,0,0:0:0:0:
448,192,227258,1,0,0:0:0:0:
64,192,227341,1,2,0:0:0:0:
448,192,227508,1,0,0:0:0:0:
192,192,227591,1,0,0:0:0:0:
64,192,227674,1,2,0:0:0:0:
448,192,227674,1,0,0:0:0:0:
320,192,227758,1,0,0:0:0:0:
192,192,227841,1,0,0:0:0:0:
448,192,227924,1,0,0:0:0:0:
64,192,228008,1,2,0:0:0:0:
448,192,228174,1,0,0:0:0:0:
64,192,228258,1,0,0:0:0:0:
192,192,228341,1,2,0:0:0:0:
320,192,228341,1,0,0:0:0:0:
448,192,228424,1,0,0:0:0:0:
192,192,228508,1,0,0:0:0:0:
448,192,228591,1,0,0:0:0:0:
320,192,228674,1,2,0:0:0:0:
448,192,228841,1,0,0:0:0:0:
64,192,228924,1,0,0:0:0:0:
192,192,229008,1,2,0:0:0:0:
320,192,229008,1,0,0:0:0:0:
448,192,229091,1,0,0:0:0:0:
192,192,229174,1,0,0:0:0:0:
448,192,229258,1,0,0:0:0:0:
64,192,229341,1,2,0:0:0:0:
448,192,229508,1,0,0:0:0:0:
320,192,229591,1,0,0:0:0:0:
64,192,229674,1,2,0:0:0:0:
192,192,229674,1,0,0:0:0:0:
320,192,229758,1,0,0:0:0:0:
64,192,229841,1,0,0:0:0:0:
448,192,230008,1,2,0:0:0:0:
320,192,230091,1,0,0:0:0:0:
192,192,230174,1,0,0:0:0:0:
320,192,230258,1,0,0:0:0:0:
64,192,230341,1,6,0:0:0:0:
192,192,230341,1,0,0:0:0:0:
448,192,230341,1,0,0:0:0:0:
320,192,230508,1,0,0:0:0:0:
192,192,230674,1,2,0:0:0:0:
448,192,230841,1,0,0:0:0:0:
64,192,230924,1,0,0:0:0:0:
192,192,231008,1,2,0:0:0:0:
320,192,231008,1,0,0:0:0:0:
448,192,231091,1,0,0:0:0:0:
320,192,231174,1,0,0:0:0:0:
448,192,231258,1,0,0:0:0:0:
64,192,231341,1,2,0:0:0:0:
448,192,231508,1,0,0:0:0:0:
64,192,231591,1,0,0:0:0:0:
192,192,231674,1,2,0:0:0:0:
320,192,231674,1,0,0:0:0:0:
448,192,231758,1,0,0:0:0:0:
320,192,231841,1,0,0:0:0:0:
448,192,231924,1,0,0:0:0:0:
64,192,232008,1,2,0:0:0:0:
448,192,232174,1,0,0:0:0:0:
320,192,232258,1,0,0:0:0:0:
192,192,232341,1,2,0:0:0:0:
448,192,232341,1,0,0:0:0:0:
64,192,232424,1,0,0:0:0:0:
320,192,232508,1,0,0:0:0:0:
448,192,232591,1,0,0:0:0:0:
64,192,232674,1,2,0:0:0:0:
448,192,232841,1,0,0:0:0:0:
192,192,232924,1,0,0:0:0:0:
64,192,233008,1,2,0:0:0:0:
448,192,233008,1,0,0:0:0:0:
192,192,233091,1,0,0:0:0:0:
320,192,233174,1,0,0:0:0:0:
448,192,233258,1,0,0:0:0:0:
64,192,233341,1,2,0:0:0:0:
448,192,233508,1,0,0:0:0:0:
64,192,233591,1,0,0:0:0:0:
192,192,233674,1,2,0:0:0:0:
320,192,233674,1,0,0:0:0:0:
448,192,233758,1,0,0:0:0:0:
192,192,233841,1,0,0:0:0:0:
448,192,233924,1,0,0:0:0:0:
64,192,234008,1,2,0:0:0:0:
448,192,234174,1,0,0:0:0:0:
64,192,234258,1,0,0:0:0:0:
192,192,234341,1,2,0:0:0:0:
320,192,234341,1,0,0:0:0:0:
448,192,234424,1,0,0:0:0:0:
320,192,234508,1,0,0:0:0:0:
448,192,234591,1,0,0:0:0:0:
64,192,234674,1,2,0:0:0:0:
448,192,234841,1,0,0:0:0:0:
192,192,234924,1,0,0:0:0:0:
320,192,235008,1,2,0:0:0:0:
448,192,235008,1,0,0:0:0:0:
64,192,235091,1,0,0:0:0:0:
192,192,235174,1,0,0:0:0:0:
320,192,235258,1,0,0:0:0:0:
64,192,235341,1,2,0:0:0:0:
448,192,235341,1,0,0:0:0:0:
192,192,235424,1,2,0:0:0:0:
320,192,235424,1,0,0:0:0:0:
64,192,235508,1,2,0:0:0:0:
448,192,235508,1,0,0:0:0:0:
192,192,235591,1,2,0:0:0:0:
320,192,235591,1,0,0:0:0:0:
64,192,235674,1,0,0:0:0:0:
192,192,235758,1,0,0:0:0:0:
320,192,235841,1,0,0:0:0:0:
448,192,235924,1,0,0:0:0:0:
192,192,236008,1,0,0:0:0:0:
320,192,236091,1,0,0:0:0:0:
