osu file format v14

[General]
AudioFilename: 04. AiAe.mp3
AudioLeadIn: 0
PreviewTime: 43653
Countdown: 0
SampleSet: Soft
StackLeniency: 0.7
Mode: 3
LetterboxInBreaks: 0
SpecialStyle: 0
WidescreenStoryboard: 1

[Editor]
DistanceSpacing: 2
BeatDivisor: 8
GridSize: 8
TimelineZoom: 2.899999

[Metadata]
Title:AiAe
TitleUnicode:AiAe
Artist:Yuyoyuppe
ArtistUnicode:ゆよゆっぺ
Creator:Blocko
Version:SHD
Source:
Tags:Yolomania 3 Yolo3 YUYOYU EP DJ'TEKINA//SOMETHING Hatsune Miku Append Dark Vocaloid Hardcore Dubstep
BeatmapID:555199
BeatmapSetID:240209

[Difficulty]
HPDrainRate:8
CircleSize:7
OverallDifficulty:8
ApproachRate:5
SliderMultiplier:1.4
SliderTickRate:1

[Events]
//Background and Video events
0,0,"bg.png",0,0
//Break Periods
2,131541,149141
//Storyboard Layer 0 (Background)
//Storyboard Layer 1 (Fail)
//Storyboard Layer 2 (Pass)
//Storyboard Layer 3 (Foreground)
//Storyboard Sound Samples

[TimingPoints]
1008,333.333,4,2,1,50,1,0
22341,-125,4,2,1,50,0,0
32674,-66.6666666666667,4,2,1,50,0,0
32841,-100,4,2,1,50,0,0
33007,-111.111111111111,4,2,1,50,0,0
38341,-100,4,2,1,50,0,0
42341,-133.333333333333,4,2,1,50,0,0
43341,-100,4,2,1,50,0,0
106341,-133.333333333333,4,2,1,15,0,0
106508,-80,4,2,1,15,0,0
106674,-133.333333333333,4,2,1,15,0,0
106841,-80,4,2,1,15,0,0
107008,-133.333333333333,4,2,1,15,0,0
107174,-80,4,2,1,15,0,0
107341,-133.333333333333,4,2,1,15,0,0
107424,-100,4,2,1,15,0,0
107508,-80,4,2,1,15,0,0
107591,-66.6666666666667,4,2,1,15,0,0
107674,-100,4,2,1,50,0,1
127674,-125,4,2,1,30,0,0
129008,-100,4,2,1,50,0,0
150341,-125,4,2,1,50,0,0
155674,-111.111111111111,4,2,1,50,0,0
160341,-100,4,2,1,50,0,0
170341,-133.333333333333,4,2,1,50,0,0
170674,-150.15015015015,4,2,1,50,0,0
171007,-200,4,2,1,50,0,0
171674,-100,4,2,1,50,0,1
214257,-100,4,2,1,50,0,0
214341,-100,4,2,1,50,0,1
217007,-100,4,2,1,50,0,0

[HitObjects]
36,192,127674,1,0,0:0:0:0:
109,192,127674,1,0,0:0:0:0:
256,192,127674,1,0,0:0:0:0:
329,192,127674,1,0,0:0:0:0:
402,192,127674,1,0,0:0:0:0:
475,192,127841,128,0,128341:0:0:0:0:
36,192,127841,1,0,0:0:0:0:
109,192,127841,1,0,0:0:0:0:
182,192,127924,1,0,0:0:0:0:
256,192,127924,1,0,0:0:0:0:
402,192,128007,128,0,128507:0:0:0:0:
36,192,128007,1,0,0:0:0:0:
109,192,128007,1,0,0:0:0:0:
329,192,128174,128,0,128674:0:0:0:0:
109,192,128174,1,0,0:0:0:0:
36,192,128174,1,0,0:0:0:0:
256,192,128341,128,0,128841:0:0:0:0:
36,192,128341,1,0,0:0:0:0:
109,192,128341,1,0,0:0:0:0:
182,192,128507,128,0,129007:0:0:0:0:
36,192,128507,1,0,0:0:0:0:
475,192,128507,1,0,0:0:0:0:
109,192,128674,128,0,129007:0:0:0:0:
475,192,128674,1,0,0:0:0:0:
402,192,128674,1,0,0:0:0:0:
36,192,128841,128,0,129007:0:0:0:0:
402,192,128841,1,0,0:0:0:0:
475,192,128841,1,0,0:0:0:0:
256,192,129007,1,0,0:0:0:0:
329,192,129007,1,0,0:0:0:0:
402,192,129007,1,0,0:0:0:0:
475,192,129007,1,0,0:0:0:0:
36,192,129174,128,0,129341:0:0:0:0:
475,192,129341,1,0,0:0:0:0:
402,192,129341,1,0,0:0:0:0:
36,192,129507,128,0,129674:0:0:0:0:
475,192,129674,1,0,0:0:0:0:
36,192,129841,128,0,130007:0:0:0:0:
475,192,130007,1,0,0:0:0:0:
402,192,130007,1,0,0:0:0:0:
36,192,130174,128,0,130341:0:0:0:0:
475,192,130341,1,0,0:0:0:0:
475,192,130674,1,0,0:0:0:0:
402,192,130674,1,0,0:0:0:0:
475,192,131007,1,0,0:0:0:0:
475,192,131341,1,0,0:0:0:0:
402,192,131341,1,0,0:0:0:0:
475,192,150341,5,0,0:0:0:0:
402,192,150341,1,0,0:0:0:0:
109,192,150341,1,0,0:0:0:0:
36,192,150341,128,0,150841:0:0:0:0:
329,192,150341,1,0,0:0:0:0:
182,192,150507,1,0,0:0:0:0:
256,192,150674,1,0,0:0:0:0:
329,192,150841,1,0,0:0:0:0:
402,192,151007,1,0,0:0:0:0:
475,192,151007,128,0,151507:0:0:0:0:
36,192,151174,1,0,0:0:0:0:
109,192,151341,1,0,0:0:0:0:
182,192,151507,1,0,0:0:0:0:
329,192,151674,128,0,152174:0:0:0:0:
256,192,151674,1,0,0:0:0:0:
36,192,151841,1,0,0:0:0:0:
109,192,152007,1,0,0:0:0:0:
402,192,152174,1,0,0:0:0:0:
475,192,152341,1,0,0:0:0:0:
182,192,152341,128,0,152841:0:0:0:0:
36,192,152507,1,0,0:0:0:0:
109,192,152674,1,0,0:0:0:0:
329,192,152841,1,0,0:0:0:0:
475,192,153007,1,0,0:0:0:0:
36,192,153007,128,0,153507:0:0:0:0:
182,192,153174,1,0,0:0:0:0:
256,192,153341,1,0,0:0:0:0:
402,192,153507,1,0,0:0:0:0:
329,192,153674,128,0,154174:0:0:0:0:
475,192,153674,1,0,0:0:0:0:
109,192,153841,1,0,0:0:0:0:
182,192,154007,1,0,0:0:0:0:
256,192,154174,1,0,0:0:0:0:
182,192,154341,128,0,155007:0:0:0:0:
402,192,154341,1,0,0:0:0:0:
36,192,154507,1,0,0:0:0:0:
109,192,154674,1,0,0:0:0:0:
256,192,154841,1,0,0:0:0:0:
402,192,155007,1,0,0:0:0:0:
329,192,155007,128,0,155507:0:0:0:0:
36,192,155174,1,0,0:0:0:0:
109,192,155341,1,0,0:0:0:0:
182,192,155341,128,0,155507:0:0:0:0:
256,192,155507,1,0,0:0:0:0:
109,192,155674,1,0,0:0:0:0:
182,192,155674,1,0,0:0:0:0:
402,192,155674,1,0,0:0:0:0:
36,192,155674,128,0,156174:0:0:0:0:
475,192,155674,1,0,0:0:0:0:
256,192,155841,1,0,0:0:0:0:
109,192,156007,1,0,0:0:0:0:
329,192,156007,1,0,0:0:0:0:
402,192,156174,1,0,0:0:0:0:
475,192,156341,1,0,0:0:0:0:
182,192,156341,128,0,156841:0:0:0:0:
36,192,156507,1,0,0:0:0:0:
109,192,156507,1,0,0:0:0:0:
256,192,156674,1,0,0:0:0:0:
402,192,156674,1,0,0:0:0:0:
329,192,156841,1,0,0:0:0:0:
475,192,157007,128,0,157507:0:0:0:0:
36,192,157007,1,0,0:0:0:0:
402,192,157007,1,0,0:0:0:0:
109,192,157174,1,0,0:0:0:0:
182,192,157341,1,0,0:0:0:0:
329,192,157341,1,0,0:0:0:0:
256,192,157507,1,0,0:0:0:0:
329,192,157674,128,0,158174:0:0:0:0:
475,192,157674,1,0,0:0:0:0:
36,192,157841,1,0,0:0:0:0:
182,192,157841,1,0,0:0:0:0:
109,192,158007,1,0,0:0:0:0:
256,192,158007,1,0,0:0:0:0:
182,192,158174,1,0,0:0:0:0:
109,192,158341,128,0,158841:0:0:0:0:
475,192,158341,1,0,0:0:0:0:
329,192,158341,1,0,0:0:0:0:
256,192,158341,1,0,0:0:0:0:
36,192,158341,1,0,0:0:0:0:
182,192,158507,1,0,0:0:0:0:
256,192,158674,1,0,0:0:0:0:
402,192,158674,1,0,0:0:0:0:
329,192,158841,1,0,0:0:0:0:
256,192,159007,128,0,159507:0:0:0:0:
475,192,159007,1,0,0:0:0:0:
36,192,159174,1,0,0:0:0:0:
329,192,159174,1,0,0:0:0:0:
109,192,159341,1,0,0:0:0:0:
402,192,159341,1,0,0:0:0:0:
182,192,159507,1,0,0:0:0:0:
402,192,159674,128,0,160174:0:0:0:0:
475,192,159674,1,0,0:0:0:0:
256,192,159674,1,0,0:0:0:0:
109,192,159674,1,0,0:0:0:0:
36,192,159674,1,0,0:0:0:0:
182,192,159841,1,0,0:0:0:0:
329,192,160007,1,0,0:0:0:0:
109,192,160007,1,0,0:0:0:0:
256,192,160174,1,0,0:0:0:0:
109,192,160341,1,0,0:0:0:0:
182,192,160341,1,0,0:0:0:0:
329,192,160424,1,0,0:0:0:0:
402,192,160424,1,0,0:0:0:0:
109,192,160507,1,0,0:0:0:0:
182,192,160507,1,0,0:0:0:0:
256,192,160528,1,0,0:0:0:0:
329,192,160549,1,0,0:0:0:0:
402,192,160570,1,0,0:0:0:0:
475,192,160591,1,0,0:0:0:0:
36,192,160591,1,0,0:0:0:0:
109,192,160612,1,0,0:0:0:0:
182,192,160632,1,0,0:0:0:0:
256,192,160653,1,0,0:0:0:0:
402,192,160674,1,0,0:0:0:0:
329,192,160674,1,0,0:0:0:0:
109,192,160757,1,0,0:0:0:0:
182,192,160757,1,0,0:0:0:0:
329,192,160841,1,0,0:0:0:0:
402,192,160841,1,0,0:0:0:0:
36,192,161007,128,0,161507:0:0:0:0:
109,192,161007,1,0,0:0:0:0:
182,192,161007,1,0,0:0:0:0:
256,192,161007,1,0,0:0:0:0:
475,192,161007,1,0,0:0:0:0:
329,192,161091,1,0,0:0:0:0:
402,192,161174,1,0,0:0:0:0:
475,192,161257,1,0,0:0:0:0:
256,192,161341,1,0,0:0:0:0:
182,192,161341,1,0,0:0:0:0:
109,192,161424,1,0,0:0:0:0:
329,192,161507,1,0,0:0:0:0:
256,192,161591,1,0,0:0:0:0:
475,192,161674,128,0,162174:0:0:0:0:
182,192,161674,1,0,0:0:0:0:
36,192,161674,1,0,0:0:0:0:
402,192,161757,1,0,0:0:0:0:
329,192,161841,1,0,0:0:0:0:
256,192,161924,1,0,0:0:0:0:
182,192,162007,1,0,0:0:0:0:
109,192,162007,1,0,0:0:0:0:
329,192,162091,1,0,0:0:0:0:
36,192,162174,1,0,0:0:0:0:
182,192,162257,1,0,0:0:0:0:
329,192,162341,128,0,162841:0:0:0:0:
256,192,162341,1,0,0:0:0:0:
475,192,162341,1,0,0:0:0:0:
109,192,162424,1,0,0:0:0:0:
36,192,162507,1,0,0:0:0:0:
182,192,162591,1,0,0:0:0:0:
256,192,162674,1,0,0:0:0:0:
402,192,162674,1,0,0:0:0:0:
109,192,162757,1,0,0:0:0:0:
36,192,162841,1,0,0:0:0:0:
256,192,162924,1,0,0:0:0:0:
182,192,163007,128,0,163507:0:0:0:0:
402,192,163007,1,0,0:0:0:0:
475,192,163007,1,0,0:0:0:0:
329,192,163091,1,0,0:0:0:0:
36,192,163174,1,0,0:0:0:0:
109,192,163257,1,0,0:0:0:0:
256,192,163341,1,0,0:0:0:0:
402,192,163341,1,0,0:0:0:0:
36,192,163424,1,0,0:0:0:0:
109,192,163507,1,0,0:0:0:0:
256,192,163591,1,0,0:0:0:0:
402,192,163591,1,0,0:0:0:0:
109,192,163674,128,0,164174:0:0:0:0:
329,192,163674,1,0,0:0:0:0:
475,192,163674,1,0,0:0:0:0:
182,192,163757,1,0,0:0:0:0:
256,192,163841,1,0,0:0:0:0:
329,192,163924,1,0,0:0:0:0:
402,192,164007,1,0,0:0:0:0:
475,192,164007,1,0,0:0:0:0:
182,192,164091,1,0,0:0:0:0:
329,192,164174,1,0,0:0:0:0:
36,192,164257,1,0,0:0:0:0:
256,192,164341,128,0,164841:0:0:0:0:
109,192,164341,1,0,0:0:0:0:
402,192,164341,1,0,0:0:0:0:
182,192,164424,1,0,0:0:0:0:
329,192,164507,1,0,0:0:0:0:
109,192,164591,1,0,0:0:0:0:
402,192,164674,1,0,0:0:0:0:
475,192,164674,1,0,0:0:0:0:
36,192,164757,1,0,0:0:0:0:
329,192,164841,1,0,0:0:0:0:
109,192,164924,1,0,0:0:0:0:
402,192,165007,128,0,165507:0:0:0:0:
182,192,165007,1,0,0:0:0:0:
256,192,165007,1,0,0:0:0:0:
329,192,165091,1,0,0:0:0:0:
109,192,165174,1,0,0:0:0:0:
182,192,165257,1,0,0:0:0:0:
36,192,165341,1,0,0:0:0:0:
256,192,165341,1,0,0:0:0:0:
109,192,165424,1,0,0:0:0:0:
475,192,165507,128,0,165674:0:0:0:0:
182,192,165507,1,0,0:0:0:0:
256,192,165591,1,0,0:0:0:0:
109,192,165591,1,0,0:0:0:0:
402,192,165674,128,0,166007:0:0:0:0:
329,192,165674,1,0,0:0:0:0:
36,192,165674,1,0,0:0:0:0:
109,192,165757,1,0,0:0:0:0:
256,192,165841,1,0,0:0:0:0:
182,192,165924,1,0,0:0:0:0:
109,192,166007,128,0,166174:0:0:0:0:
36,192,166007,1,0,0:0:0:0:
475,192,166007,1,0,0:0:0:0:
329,192,166091,1,0,0:0:0:0:
256,192,166174,1,0,0:0:0:0:
109,192,166257,1,0,0:0:0:0:
36,192,166341,128,0,166841:0:0:0:0:
475,192,166341,1,0,0:0:0:0:
329,192,166341,1,0,0:0:0:0:
402,192,166341,1,0,0:0:0:0:
182,192,166341,1,0,0:0:0:0:
256,192,166341,1,0,0:0:0:0:
329,192,166507,1,0,0:0:0:0:
475,192,166507,1,0,0:0:0:0:
109,192,166507,1,0,0:0:0:0:
329,192,166674,1,0,0:0:0:0:
475,192,166674,1,0,0:0:0:0:
182,192,166674,1,0,0:0:0:0:
402,192,166674,1,0,0:0:0:0:
329,192,166841,1,0,0:0:0:0:
475,192,166841,1,0,0:0:0:0:
256,192,166841,1,0,0:0:0:0:
329,192,167007,128,0,167507:0:0:0:0:
182,192,167007,1,0,0:0:0:0:
36,192,167007,1,0,0:0:0:0:
475,192,167007,1,0,0:0:0:0:
109,192,167007,1,0,0:0:0:0:
36,192,167174,1,0,0:0:0:0:
182,192,167174,1,0,0:0:0:0:
256,192,167174,1,0,0:0:0:0:
182,192,167341,1,0,0:0:0:0:
36,192,167341,1,0,0:0:0:0:
109,192,167341,1,0,0:0:0:0:
402,192,167341,1,0,0:0:0:0:
36,192,167507,1,0,0:0:0:0:
182,192,167507,1,0,0:0:0:0:
475,192,167507,1,0,0:0:0:0:
36,192,167674,1,0,0:0:0:0:
109,192,167674,1,0,0:0:0:0:
402,192,167674,1,0,0:0:0:0:
475,192,167674,128,0,168174:0:0:0:0:
182,192,167674,1,0,0:0:0:0:
36,192,167841,1,0,0:0:0:0:
109,192,167841,1,0,0:0:0:0:
256,192,167841,1,0,0:0:0:0:
36,192,168007,1,0,0:0:0:0:
109,192,168007,1,0,0:0:0:0:
402,192,168007,1,0,0:0:0:0:
182,192,168007,1,0,0:0:0:0:
36,192,168174,1,0,0:0:0:0:
109,192,168174,1,0,0:0:0:0:
256,192,168174,1,0,0:0:0:0:
402,192,168341,1,0,0:0:0:0:
475,192,168341,1,0,0:0:0:0:
329,192,168341,1,0,0:0:0:0:
36,192,168341,1,0,0:0:0:0:
182,192,168341,128,0,168841:0:0:0:0:
475,192,168507,1,0,0:0:0:0:
402,192,168507,1,0,0:0:0:0:
109,192,168507,1,0,0:0:0:0:
402,192,168674,1,0,0:0:0:0:
475,192,168674,1,0,0:0:0:0:
36,192,168674,1,0,0:0:0:0:
329,192,168674,1,0,0:0:0:0:
402,192,168841,1,0,0:0:0:0:
475,192,168841,1,0,0:0:0:0:
109,192,168841,1,0,0:0:0:0:
182,192,169007,5,0,0:0:0:0:
109,192,169007,1,0,0:0:0:0:
36,192,169007,128,0,170341:0:0:0:0:
256,192,169007,1,0,0:0:0:0:
402,192,169090,1,0,0:0:0:0:
329,192,169090,1,0,0:0:0:0:
182,192,169174,1,0,0:0:0:0:
109,192,169174,1,0,0:0:0:0:
329,192,169257,1,0,0:0:0:0:
402,192,169257,1,0,0:0:0:0:
182,192,169341,1,0,0:0:0:0:
109,192,169341,1,0,0:0:0:0:
256,192,169341,1,0,0:0:0:0:
402,192,169424,1,0,0:0:0:0:
329,192,169424,1,0,0:0:0:0:
109,192,169507,1,0,0:0:0:0:
182,192,169507,1,0,0:0:0:0:
256,192,169507,1,0,0:0:0:0:
402,192,169590,1,0,0:0:0:0:
329,192,169590,1,0,0:0:0:0:
109,192,169674,1,0,0:0:0:0:
256,192,169674,1,0,0:0:0:0:
402,192,169716,1,0,0:0:0:0:
182,192,169757,1,0,0:0:0:0:
329,192,169799,1,0,0:0:0:0:
109,192,169841,1,0,0:0:0:0:
402,192,169882,1,0,0:0:0:0:
182,192,169924,1,0,0:0:0:0:
329,192,169966,1,0,0:0:0:0:
109,192,170007,1,0,0:0:0:0:
475,192,170007,128,0,170341:0:0:0:0:
256,192,170007,1,0,0:0:0:0:
402,192,170049,1,0,0:0:0:0:
182,192,170091,1,0,0:0:0:0:
329,192,170132,1,0,0:0:0:0:
109,192,170174,1,0,0:0:0:0:
402,192,170216,1,0,0:0:0:0:
182,192,170257,1,0,0:0:0:0:
329,192,170299,1,0,0:0:0:0:
109,192,170341,128,0,170591:0:0:0:0:
109,192,170674,128,0,170924:0:0:0:0:
256,192,171007,1,0,0:0:0:0:
475,192,171091,128,0,171674:0:0:0:0:
109,192,171674,1,0,0:0:0:0:
256,192,171674,1,0,0:0:0:0:
182,192,171674,1,0,0:0:0:0:
329,192,171674,1,0,0:0:0:0:
402,192,171674,1,0,0:0:0:0:
36,192,171674,1,0,0:0:0:0:
475,192,171757,1,0,0:0:0:0:
182,192,171841,128,0,172007:0:0:0:0:
329,192,171841,1,0,0:0:0:0:
36,192,171841,1,0,0:0:0:0:
402,192,171924,1,0,0:0:0:0:
475,192,172007,1,0,0:0:0:0:
36,192,172007,1,0,0:0:0:0:
256,192,172007,1,0,0:0:0:0:
109,192,172007,1,0,0:0:0:0:
402,192,172091,1,0,0:0:0:0:
329,192,172174,128,0,172341:0:0:0:0:
109,192,172174,1,0,0:0:0:0:
182,192,172174,1,0,0:0:0:0:
36,192,172257,1,0,0:0:0:0:
475,192,172257,1,0,0:0:0:0:
182,192,172341,1,0,0:0:0:0:
256,192,172341,1,0,0:0:0:0:
402,192,172341,1,0,0:0:0:0:
329,192,172424,1,0,0:0:0:0:
109,192,172507,128,0,172674:0:0:0:0:
36,192,172507,1,0,0:0:0:0:
475,192,172507,1,0,0:0:0:0:
256,192,172591,1,0,0:0:0:0:
475,192,172674,1,0,0:0:0:0:
329,192,172674,1,0,0:0:0:0:
402,192,172674,1,0,0:0:0:0:
182,192,172674,1,0,0:0:0:0:
36,192,172757,1,0,0:0:0:0:
402,192,172841,128,0,173007:0:0:0:0:
109,192,172841,1,0,0:0:0:0:
256,192,172841,1,0,0:0:0:0:
329,192,172924,1,0,0:0:0:0:
182,192,173007,1,0,0:0:0:0:
475,192,173007,1,0,0:0:0:0:
36,192,173007,1,0,0:0:0:0:
256,192,173091,1,0,0:0:0:0:
36,192,173174,128,0,173341:0:0:0:0:
109,192,173174,1,0,0:0:0:0:
402,192,173174,1,0,0:0:0:0:
329,192,173257,1,0,0:0:0:0:
256,192,173341,1,0,0:0:0:0:
475,192,173341,1,0,0:0:0:0:
402,192,173341,1,0,0:0:0:0:
109,192,173341,1,0,0:0:0:0:
182,192,173424,1,0,0:0:0:0:
475,192,173507,128,0,173674:0:0:0:0:
256,192,173507,1,0,0:0:0:0:
36,192,173507,1,0,0:0:0:0:
109,192,173591,1,0,0:0:0:0:
329,192,173591,1,0,0:0:0:0:
402,192,173674,1,0,0:0:0:0:
36,192,173674,1,0,0:0:0:0:
182,192,173674,1,0,0:0:0:0:
329,192,173757,1,0,0:0:0:0:
109,192,173841,128,0,174007:0:0:0:0:
475,192,173841,1,0,0:0:0:0:
256,192,173841,1,0,0:0:0:0:
329,192,173924,1,0,0:0:0:0:
475,192,174007,1,0,0:0:0:0:
182,192,174007,1,0,0:0:0:0:
36,192,174007,1,0,0:0:0:0:
402,192,174007,1,0,0:0:0:0:
256,192,174091,1,0,0:0:0:0:
402,192,174174,128,0,174341:0:0:0:0:
329,192,174174,1,0,0:0:0:0:
109,192,174174,1,0,0:0:0:0:
182,192,174257,1,0,0:0:0:0:
475,192,174257,1,0,0:0:0:0:
256,192,174341,1,0,0:0:0:0:
36,192,174341,1,0,0:0:0:0:
329,192,174341,1,0,0:0:0:0:
109,192,174424,1,0,0:0:0:0:
36,192,174507,128,0,174674:0:0:0:0:
402,192,174507,1,0,0:0:0:0:
182,192,174507,1,0,0:0:0:0:
329,192,174591,1,0,0:0:0:0:
475,192,174674,1,0,0:0:0:0:
402,192,174674,1,0,0:0:0:0:
109,192,174674,1,0,0:0:0:0:
256,192,174674,1,0,0:0:0:0:
182,192,174757,1,0,0:0:0:0:
329,192,174841,128,0,175007:0:0:0:0:
36,192,174841,1,0,0:0:0:0:
256,192,174841,1,0,0:0:0:0:
475,192,174924,1,0,0:0:0:0:
109,192,174924,1,0,0:0:0:0:
402,192,175007,1,0,0:0:0:0:
182,192,175007,1,0,0:0:0:0:
256,192,175007,1,0,0:0:0:0:
36,192,175091,1,0,0:0:0:0:
109,192,175174,128,0,175341:0:0:0:0:
329,192,175174,1,0,0:0:0:0:
402,192,175174,1,0,0:0:0:0:
256,192,175257,1,0,0:0:0:0:
36,192,175341,1,0,0:0:0:0:
475,192,175341,1,0,0:0:0:0:
402,192,175341,1,0,0:0:0:0:
182,192,175341,1,0,0:0:0:0:
329,192,175424,1,0,0:0:0:0:
402,192,175507,128,0,175674:0:0:0:0:
256,192,175507,1,0,0:0:0:0:
36,192,175507,1,0,0:0:0:0:
109,192,175591,1,0,0:0:0:0:
475,192,175674,1,0,0:0:0:0:
182,192,175674,1,0,0:0:0:0:
329,192,175674,1,0,0:0:0:0:
36,192,175757,1,0,0:0:0:0:
182,192,175841,128,0,176007:0:0:0:0:
109,192,175841,1,0,0:0:0:0:
402,192,175841,1,0,0:0:0:0:
329,192,175924,1,0,0:0:0:0:
475,192,176007,1,0,0:0:0:0:
109,192,176007,1,0,0:0:0:0:
256,192,176007,1,0,0:0:0:0:
36,192,176007,1,0,0:0:0:0:
402,192,176091,1,0,0:0:0:0:
475,192,176174,128,0,176341:0:0:0:0:
182,192,176174,1,0,0:0:0:0:
36,192,176174,1,0,0:0:0:0:
256,192,176257,1,0,0:0:0:0:
109,192,176257,1,0,0:0:0:0:
402,192,176341,1,0,0:0:0:0:
36,192,176341,1,0,0:0:0:0:
329,192,176341,1,0,0:0:0:0:
182,192,176424,1,0,0:0:0:0:
109,192,176507,128,0,176674:0:0:0:0:
402,192,176507,128,0,176674:0:0:0:0:
36,192,176507,1,0,0:0:0:0:
475,192,176507,1,0,0:0:0:0:
256,192,176591,1,0,0:0:0:0:
329,192,176674,1,0,0:0:0:0:
36,192,176674,1,0,0:0:0:0:
475,192,176674,1,0,0:0:0:0:
182,192,176674,1,0,0:0:0:0:
256,192,176757,1,0,0:0:0:0:
182,192,176841,128,0,177007:0:0:0:0:
329,192,176841,128,0,177007:0:0:0:0:
36,192,176841,1,0,0:0:0:0:
475,192,176841,1,0,0:0:0:0:
109,192,176924,1,0,0:0:0:0:
402,192,176924,1,0,0:0:0:0:
256,192,177007,1,0,0:0:0:0:
475,192,177007,1,0,0:0:0:0:
36,192,177007,1,0,0:0:0:0:
109,192,177007,1,0,0:0:0:0:
402,192,177007,1,0,0:0:0:0:
329,192,177091,1,0,0:0:0:0:
256,192,177174,128,0,177341:0:0:0:0:
109,192,177174,1,0,0:0:0:0:
475,192,177174,1,0,0:0:0:0:
402,192,177257,1,0,0:0:0:0:
182,192,177341,1,0,0:0:0:0:
329,192,177341,1,0,0:0:0:0:
475,192,177341,1,0,0:0:0:0:
36,192,177341,1,0,0:0:0:0:
109,192,177424,1,0,0:0:0:0:
36,192,177507,128,0,177674:0:0:0:0:
402,192,177507,1,0,0:0:0:0:
256,192,177507,1,0,0:0:0:0:
329,192,177591,1,0,0:0:0:0:
182,192,177591,1,0,0:0:0:0:
109,192,177674,1,0,0:0:0:0:
256,192,177674,1,0,0:0:0:0:
402,192,177674,1,0,0:0:0:0:
475,192,177757,1,0,0:0:0:0:
329,192,177841,128,0,178007:0:0:0:0:
36,192,177841,1,0,0:0:0:0:
182,192,177841,1,0,0:0:0:0:
109,192,177924,1,0,0:0:0:0:
256,192,178007,1,0,0:0:0:0:
475,192,178007,1,0,0:0:0:0:
402,192,178007,1,0,0:0:0:0:
182,192,178007,1,0,0:0:0:0:
36,192,178091,1,0,0:0:0:0:
109,192,178174,128,0,178341:0:0:0:0:
329,192,178174,1,0,0:0:0:0:
402,192,178174,1,0,0:0:0:0:
256,192,178257,1,0,0:0:0:0:
182,192,178341,1,0,0:0:0:0:
402,192,178341,1,0,0:0:0:0:
475,192,178341,1,0,0:0:0:0:
36,192,178341,1,0,0:0:0:0:
256,192,178424,1,0,0:0:0:0:
402,192,178507,128,0,178674:0:0:0:0:
109,192,178507,1,0,0:0:0:0:
329,192,178507,1,0,0:0:0:0:
182,192,178591,1,0,0:0:0:0:
329,192,178674,1,0,0:0:0:0:
36,192,178674,1,0,0:0:0:0:
475,192,178674,1,0,0:0:0:0:
256,192,178674,1,0,0:0:0:0:
109,192,178757,1,0,0:0:0:0:
182,192,178841,128,0,179007:0:0:0:0:
475,192,178841,1,0,0:0:0:0:
256,192,178841,1,0,0:0:0:0:
402,192,178924,1,0,0:0:0:0:
109,192,178924,1,0,0:0:0:0:
329,192,179007,1,0,0:0:0:0:
36,192,179007,1,0,0:0:0:0:
256,192,179007,1,0,0:0:0:0:
182,192,179091,1,0,0:0:0:0:
475,192,179174,128,0,179341:0:0:0:0:
109,192,179174,1,0,0:0:0:0:
402,192,179174,1,0,0:0:0:0:
329,192,179257,1,0,0:0:0:0:
402,192,179341,1,0,0:0:0:0:
182,192,179341,1,0,0:0:0:0:
36,192,179341,1,0,0:0:0:0:
256,192,179341,1,0,0:0:0:0:
109,192,179424,1,0,0:0:0:0:
256,192,179507,128,0,179674:0:0:0:0:
329,192,179507,1,0,0:0:0:0:
182,192,179507,1,0,0:0:0:0:
109,192,179591,1,0,0:0:0:0:
402,192,179591,1,0,0:0:0:0:
475,192,179674,1,0,0:0:0:0:
36,192,179674,1,0,0:0:0:0:
182,192,179674,1,0,0:0:0:0:
402,192,179757,1,0,0:0:0:0:
182,192,179841,128,0,180007:0:0:0:0:
109,192,179841,1,0,0:0:0:0:
256,192,179841,1,0,0:0:0:0:
329,192,179924,1,0,0:0:0:0:
109,192,180007,1,0,0:0:0:0:
475,192,180007,1,0,0:0:0:0:
36,192,180007,1,0,0:0:0:0:
402,192,180007,1,0,0:0:0:0:
256,192,180091,1,0,0:0:0:0:
329,192,180174,128,0,180341:0:0:0:0:
182,192,180174,1,0,0:0:0:0:
475,192,180174,1,0,0:0:0:0:
109,192,180257,1,0,0:0:0:0:
402,192,180257,1,0,0:0:0:0:
36,192,180341,1,0,0:0:0:0:
256,192,180341,1,0,0:0:0:0:
182,192,180341,1,0,0:0:0:0:
402,192,180424,1,0,0:0:0:0:
109,192,180507,128,0,180674:0:0:0:0:
36,192,180507,1,0,0:0:0:0:
256,192,180507,1,0,0:0:0:0:
329,192,180591,1,0,0:0:0:0:
475,192,180674,1,0,0:0:0:0:
36,192,180674,1,0,0:0:0:0:
182,192,180674,1,0,0:0:0:0:
402,192,180674,1,0,0:0:0:0:
329,192,180757,1,0,0:0:0:0:
402,192,180841,128,0,181007:0:0:0:0:
256,192,180841,1,0,0:0:0:0:
109,192,180841,1,0,0:0:0:0:
182,192,180924,1,0,0:0:0:0:
36,192,181007,1,0,0:0:0:0:
329,192,181007,1,0,0:0:0:0:
256,192,181007,1,0,0:0:0:0:
475,192,181007,1,0,0:0:0:0:
109,192,181091,1,0,0:0:0:0:
36,192,181174,128,0,181341:0:0:0:0:
402,192,181174,1,0,0:0:0:0:
182,192,181174,1,0,0:0:0:0:
256,192,181257,1,0,0:0:0:0:
182,192,181341,1,0,0:0:0:0:
109,192,181341,1,0,0:0:0:0:
329,192,181341,1,0,0:0:0:0:
475,192,181341,1,0,0:0:0:0:
402,192,181424,1,0,0:0:0:0:
475,192,181507,128,0,181674:0:0:0:0:
329,192,181507,1,0,0:0:0:0:
36,192,181507,1,0,0:0:0:0:
256,192,181591,1,0,0:0:0:0:
182,192,181591,1,0,0:0:0:0:
329,192,181674,1,0,0:0:0:0:
402,192,181674,1,0,0:0:0:0:
36,192,181674,1,0,0:0:0:0:
109,192,181674,1,0,0:0:0:0:
182,192,181757,1,0,0:0:0:0:
256,192,181841,128,0,182007:0:0:0:0:
475,192,181841,1,0,0:0:0:0:
36,192,181841,1,0,0:0:0:0:
402,192,181924,1,0,0:0:0:0:
109,192,181924,1,0,0:0:0:0:
36,192,182007,1,0,0:0:0:0:
475,192,182007,1,0,0:0:0:0:
329,192,182007,1,0,0:0:0:0:
182,192,182007,1,0,0:0:0:0:
36,192,182091,1,0,0:0:0:0:
182,192,182091,1,0,0:0:0:0:
329,192,182091,1,0,0:0:0:0:
475,192,182091,1,0,0:0:0:0:
36,192,182174,1,0,0:0:0:0:
475,192,182174,1,0,0:0:0:0:
329,192,182174,1,0,0:0:0:0:
182,192,182174,1,0,0:0:0:0:
36,192,182257,1,0,0:0:0:0:
182,192,182257,1,0,0:0:0:0:
475,192,182257,1,0,0:0:0:0:
329,192,182257,1,0,0:0:0:0:
36,192,182341,1,0,0:0:0:0:
109,192,182341,1,0,0:0:0:0:
402,192,182341,1,0,0:0:0:0:
475,192,182341,1,0,0:0:0:0:
256,192,182341,1,0,0:0:0:0:
329,192,182424,1,0,0:0:0:0:
182,192,182507,128,0,182674:0:0:0:0:
256,192,182507,1,0,0:0:0:0:
36,192,182507,1,0,0:0:0:0:
329,192,182591,1,0,0:0:0:0:
402,192,182674,1,0,0:0:0:0:
36,192,182674,1,0,0:0:0:0:
109,192,182674,1,0,0:0:0:0:
475,192,182674,1,0,0:0:0:0:
256,192,182757,1,0,0:0:0:0:
475,192,182841,128,0,183007:0:0:0:0:
182,192,182841,1,0,0:0:0:0:
36,192,182841,1,0,0:0:0:0:
256,192,182924,1,0,0:0:0:0:
109,192,182924,1,0,0:0:0:0:
329,192,183007,1,0,0:0:0:0:
402,192,183007,1,0,0:0:0:0:
182,192,183007,1,0,0:0:0:0:
36,192,183091,1,0,0:0:0:0:
109,192,183174,128,0,183341:0:0:0:0:
475,192,183174,1,0,0:0:0:0:
256,192,183174,1,0,0:0:0:0:
329,192,183257,1,0,0:0:0:0:
182,192,183341,1,0,0:0:0:0:
475,192,183341,1,0,0:0:0:0:
402,192,183341,1,0,0:0:0:0:
36,192,183341,1,0,0:0:0:0:
256,192,183424,1,0,0:0:0:0:
402,192,183507,128,0,183674:0:0:0:0:
329,192,183507,1,0,0:0:0:0:
109,192,183507,1,0,0:0:0:0:
182,192,183591,1,0,0:0:0:0:
256,192,183674,1,0,0:0:0:0:
475,192,183674,1,0,0:0:0:0:
36,192,183674,1,0,0:0:0:0:
329,192,183757,1,0,0:0:0:0:
36,192,183841,128,0,184007:0:0:0:0:
109,192,183841,1,0,0:0:0:0:
182,192,183841,1,0,0:0:0:0:
256,192,183924,1,0,0:0:0:0:
182,192,184007,1,0,0:0:0:0:
475,192,184007,1,0,0:0:0:0:
402,192,184007,1,0,0:0:0:0:
329,192,184007,1,0,0:0:0:0:
109,192,184091,1,0,0:0:0:0:
329,192,184174,128,0,184341:0:0:0:0:
402,192,184174,1,0,0:0:0:0:
36,192,184174,1,0,0:0:0:0:
109,192,184257,1,0,0:0:0:0:
256,192,184257,1,0,0:0:0:0:
475,192,184341,1,0,0:0:0:0:
36,192,184341,1,0,0:0:0:0:
182,192,184341,1,0,0:0:0:0:
402,192,184424,1,0,0:0:0:0:
109,192,184507,128,0,184674:0:0:0:0:
329,192,184507,1,0,0:0:0:0:
256,192,184507,1,0,0:0:0:0:
182,192,184591,1,0,0:0:0:0:
329,192,184674,1,0,0:0:0:0:
475,192,184674,1,0,0:0:0:0:
36,192,184674,1,0,0:0:0:0:
256,192,184674,1,0,0:0:0:0:
109,192,184757,1,0,0:0:0:0:
402,192,184841,128,0,185007:0:0:0:0:
182,192,184841,1,0,0:0:0:0:
329,192,184841,1,0,0:0:0:0:
109,192,184924,1,0,0:0:0:0:
256,192,184924,1,0,0:0:0:0:
475,192,185007,1,0,0:0:0:0:
36,192,185007,1,0,0:0:0:0:
182,192,185007,1,0,0:0:0:0:
256,192,185091,1,0,0:0:0:0:
36,192,185174,128,0,185341:0:0:0:0:
329,192,185174,1,0,0:0:0:0:
402,192,185174,1,0,0:0:0:0:
256,192,185257,1,0,0:0:0:0:
402,192,185341,1,0,0:0:0:0:
182,192,185341,1,0,0:0:0:0:
475,192,185341,1,0,0:0:0:0:
109,192,185341,1,0,0:0:0:0:
329,192,185424,1,0,0:0:0:0:
182,192,185507,128,0,185674:0:0:0:0:
256,192,185507,1,0,0:0:0:0:
36,192,185507,1,0,0:0:0:0:
329,192,185591,1,0,0:0:0:0:
109,192,185591,1,0,0:0:0:0:
475,192,185674,1,0,0:0:0:0:
402,192,185674,1,0,0:0:0:0:
256,192,185674,1,0,0:0:0:0:
36,192,185757,1,0,0:0:0:0:
475,192,185841,128,0,186007:0:0:0:0:
109,192,185841,1,0,0:0:0:0:
329,192,185841,1,0,0:0:0:0:
256,192,185924,1,0,0:0:0:0:
182,192,186007,1,0,0:0:0:0:
402,192,186007,1,0,0:0:0:0:
36,192,186007,1,0,0:0:0:0:
109,192,186007,1,0,0:0:0:0:
256,192,186091,1,0,0:0:0:0:
329,192,186174,128,0,186341:0:0:0:0:
475,192,186174,1,0,0:0:0:0:
36,192,186174,1,0,0:0:0:0:
109,192,186257,1,0,0:0:0:0:
182,192,186341,1,0,0:0:0:0:
475,192,186341,1,0,0:0:0:0:
402,192,186341,1,0,0:0:0:0:
256,192,186424,1,0,0:0:0:0:
109,192,186507,128,0,186674:0:0:0:0:
475,192,186507,1,0,0:0:0:0:
182,192,186507,1,0,0:0:0:0:
402,192,186591,1,0,0:0:0:0:
256,192,186674,1,0,0:0:0:0:
329,192,186674,1,0,0:0:0:0:
182,192,186674,1,0,0:0:0:0:
36,192,186674,1,0,0:0:0:0:
475,192,186757,1,0,0:0:0:0:
402,192,186841,128,0,187007:0:0:0:0:
36,192,186841,1,0,0:0:0:0:
109,192,186841,1,0,0:0:0:0:
329,192,186924,1,0,0:0:0:0:
256,192,186924,1,0,0:0:0:0:
475,192,187007,1,0,0:0:0:0:
182,192,187007,1,0,0:0:0:0:
109,192,187007,1,0,0:0:0:0:
256,192,187091,1,0,0:0:0:0:
36,192,187174,128,0,187341:0:0:0:0:
475,192,187174,128,0,187341:0:0:0:0:
402,192,187174,1,0,0:0:0:0:
109,192,187174,1,0,0:0:0:0:
256,192,187257,1,0,0:0:0:0:
402,192,187341,1,0,0:0:0:0:
109,192,187341,1,0,0:0:0:0:
329,192,187341,1,0,0:0:0:0:
182,192,187341,1,0,0:0:0:0:
256,192,187424,1,0,0:0:0:0:
109,192,187507,128,0,187674:0:0:0:0:
402,192,187507,128,0,187674:0:0:0:0:
36,192,187507,1,0,0:0:0:0:
475,192,187507,1,0,0:0:0:0:
182,192,187591,1,0,0:0:0:0:
329,192,187591,1,0,0:0:0:0:
36,192,187674,5,0,0:0:0:0:
182,192,187674,1,0,0:0:0:0:
329,192,187674,1,0,0:0:0:0:
475,192,187674,1,0,0:0:0:0:
256,192,187674,1,0,0:0:0:0:
402,192,187757,1,0,0:0:0:0:
182,192,187841,128,0,188007:0:0:0:0:
109,192,187841,1,0,0:0:0:0:
329,192,187841,1,0,0:0:0:0:
402,192,187924,1,0,0:0:0:0:
256,192,188007,1,0,0:0:0:0:
36,192,188007,1,0,0:0:0:0:
475,192,188007,1,0,0:0:0:0:
109,192,188007,1,0,0:0:0:0:
402,192,188091,1,0,0:0:0:0:
329,192,188174,128,0,188341:0:0:0:0:
182,192,188174,1,0,0:0:0:0:
36,192,188174,1,0,0:0:0:0:
109,192,188257,1,0,0:0:0:0:
256,192,188257,1,0,0:0:0:0:
402,192,188341,1,0,0:0:0:0:
475,192,188341,1,0,0:0:0:0:
182,192,188341,1,0,0:0:0:0:
109,192,188424,1,0,0:0:0:0:
182,192,188507,128,0,188674:0:0:0:0:
36,192,188507,1,0,0:0:0:0:
329,192,188507,1,0,0:0:0:0:
402,192,188591,1,0,0:0:0:0:
109,192,188674,1,0,0:0:0:0:
256,192,188674,1,0,0:0:0:0:
475,192,188674,1,0,0:0:0:0:
329,192,188674,1,0,0:0:0:0:
36,192,188757,1,0,0:0:0:0:
329,192,188841,128,0,189007:0:0:0:0:
475,192,188841,1,0,0:0:0:0:
109,192,188841,1,0,0:0:0:0:
182,192,188924,1,0,0:0:0:0:
475,192,189007,1,0,0:0:0:0:
402,192,189007,1,0,0:0:0:0:
256,192,189007,1,0,0:0:0:0:
109,192,189007,1,0,0:0:0:0:
36,192,189007,1,0,0:0:0:0:
182,192,189091,1,0,0:0:0:0:
109,192,189174,128,0,189341:0:0:0:0:
402,192,189174,1,0,0:0:0:0:
329,192,189174,1,0,0:0:0:0:
36,192,189257,1,0,0:0:0:0:
182,192,189341,1,0,0:0:0:0:
475,192,189341,1,0,0:0:0:0:
256,192,189341,1,0,0:0:0:0:
329,192,189341,1,0,0:0:0:0:
109,192,189424,1,0,0:0:0:0:
402,192,189507,128,0,189674:0:0:0:0:
36,192,189507,1,0,0:0:0:0:
256,192,189507,1,0,0:0:0:0:
329,192,189591,1,0,0:0:0:0:
109,192,189591,1,0,0:0:0:0:
182,192,189674,1,0,0:0:0:0:
36,192,189674,1,0,0:0:0:0:
475,192,189674,1,0,0:0:0:0:
329,192,189757,1,0,0:0:0:0:
109,192,189841,128,0,190007:0:0:0:0:
402,192,189841,1,0,0:0:0:0:
256,192,189841,1,0,0:0:0:0:
36,192,189924,1,0,0:0:0:0:
182,192,190007,1,0,0:0:0:0:
256,192,190007,1,0,0:0:0:0:
475,192,190007,1,0,0:0:0:0:
329,192,190007,1,0,0:0:0:0:
36,192,190091,1,0,0:0:0:0:
402,192,190174,128,0,190341:0:0:0:0:
182,192,190174,1,0,0:0:0:0:
256,192,190174,1,0,0:0:0:0:
109,192,190257,1,0,0:0:0:0:
36,192,190341,1,0,0:0:0:0:
182,192,190341,1,0,0:0:0:0:
256,192,190341,1,0,0:0:0:0:
475,192,190341,1,0,0:0:0:0:
329,192,190341,1,0,0:0:0:0:
109,192,190424,1,0,0:0:0:0:
36,192,190507,128,0,190674:0:0:0:0:
402,192,190507,1,0,0:0:0:0:
329,192,190507,1,0,0:0:0:0:
109,192,190591,1,0,0:0:0:0:
256,192,190674,1,0,0:0:0:0:
329,192,190674,1,0,0:0:0:0:
182,192,190674,1,0,0:0:0:0:
475,192,190674,1,0,0:0:0:0:
402,192,190757,1,0,0:0:0:0:
475,192,190841,128,0,191007:0:0:0:0:
36,192,190841,1,0,0:0:0:0:
256,192,190841,1,0,0:0:0:0:
109,192,190924,1,0,0:0:0:0:
329,192,191007,1,0,0:0:0:0:
256,192,191007,1,0,0:0:0:0:
402,192,191007,1,0,0:0:0:0:
36,192,191007,1,0,0:0:0:0:
182,192,191007,1,0,0:0:0:0:
109,192,191091,1,0,0:0:0:0:
182,192,191174,128,0,191341:0:0:0:0:
475,192,191174,1,0,0:0:0:0:
329,192,191174,1,0,0:0:0:0:
36,192,191257,1,0,0:0:0:0:
256,192,191341,1,0,0:0:0:0:
402,192,191341,1,0,0:0:0:0:
109,192,191341,1,0,0:0:0:0:
475,192,191341,1,0,0:0:0:0:
36,192,191424,1,0,0:0:0:0:
329,192,191507,128,0,191674:0:0:0:0:
402,192,191507,1,0,0:0:0:0:
256,192,191507,1,0,0:0:0:0:
182,192,191591,1,0,0:0:0:0:
475,192,191674,5,0,0:0:0:0:
402,192,191674,1,0,0:0:0:0:
256,192,191674,1,0,0:0:0:0:
36,192,191674,1,0,0:0:0:0:
109,192,191674,1,0,0:0:0:0:
182,192,191757,1,0,0:0:0:0:
329,192,191757,1,0,0:0:0:0:
109,192,191841,1,0,0:0:0:0:
256,192,191841,1,0,0:0:0:0:
402,192,191841,1,0,0:0:0:0:
329,192,191924,1,0,0:0:0:0:
36,192,191924,1,0,0:0:0:0:
182,192,191924,1,0,0:0:0:0:
256,192,192007,1,0,0:0:0:0:
475,192,192007,1,0,0:0:0:0:
402,192,192007,1,0,0:0:0:0:
36,192,192007,1,0,0:0:0:0:
109,192,192007,1,0,0:0:0:0:
329,192,192091,1,0,0:0:0:0:
182,192,192091,1,0,0:0:0:0:
256,192,192174,1,0,0:0:0:0:
109,192,192174,1,0,0:0:0:0:
402,192,192174,1,0,0:0:0:0:
475,192,192257,1,0,0:0:0:0:
329,192,192257,1,0,0:0:0:0:
182,192,192257,1,0,0:0:0:0:
475,192,192341,1,0,0:0:0:0:
256,192,192341,1,0,0:0:0:0:
36,192,192341,1,0,0:0:0:0:
109,192,192341,1,0,0:0:0:0:
402,192,192341,1,0,0:0:0:0:
329,192,192424,1,0,0:0:0:0:
182,192,192424,1,0,0:0:0:0:
256,192,192507,1,0,0:0:0:0:
36,192,192507,1,0,0:0:0:0:
475,192,192507,1,0,0:0:0:0:
109,192,192591,1,0,0:0:0:0:
256,192,192591,1,0,0:0:0:0:
402,192,192591,1,0,0:0:0:0:
36,192,192674,5,0,0:0:0:0:
475,192,192674,1,0,0:0:0:0:
182,192,192674,1,0,0:0:0:0:
329,192,192674,1,0,0:0:0:0:
36,192,192757,1,0,0:0:0:0:
475,192,192757,1,0,0:0:0:0:
182,192,192757,1,0,0:0:0:0:
329,192,192757,1,0,0:0:0:0:
36,192,192841,1,0,0:0:0:0:
475,192,192841,1,0,0:0:0:0:
182,192,192841,1,0,0:0:0:0:
329,192,192841,1,0,0:0:0:0:
36,192,192924,1,0,0:0:0:0:
475,192,192924,1,0,0:0:0:0:
182,192,192924,1,0,0:0:0:0:
329,192,192924,1,0,0:0:0:0:
475,192,193007,1,0,0:0:0:0:
109,192,193007,1,0,0:0:0:0:
402,192,193007,1,0,0:0:0:0:
36,192,193007,1,0,0:0:0:0:
256,192,193007,1,0,0:0:0:0:
329,192,193091,1,0,0:0:0:0:
36,192,193174,128,0,193341:0:0:0:0:
402,192,193174,1,0,0:0:0:0:
182,192,193174,1,0,0:0:0:0:
256,192,193257,1,0,0:0:0:0:
329,192,193341,1,0,0:0:0:0:
182,192,193341,1,0,0:0:0:0:
475,192,193341,1,0,0:0:0:0:
109,192,193341,1,0,0:0:0:0:
402,192,193424,1,0,0:0:0:0:
109,192,193507,128,0,193674:0:0:0:0:
329,192,193507,1,0,0:0:0:0:
182,192,193507,1,0,0:0:0:0:
256,192,193591,1,0,0:0:0:0:
402,192,193591,1,0,0:0:0:0:
475,192,193674,1,0,0:0:0:0:
329,192,193674,1,0,0:0:0:0:
36,192,193674,1,0,0:0:0:0:
109,192,193757,1,0,0:0:0:0:
182,192,193841,128,0,194007:0:0:0:0:
256,192,193841,1,0,0:0:0:0:
402,192,193841,1,0,0:0:0:0:
329,192,193924,1,0,0:0:0:0:
36,192,194007,1,0,0:0:0:0:
475,192,194007,1,0,0:0:0:0:
109,192,194007,1,0,0:0:0:0:
402,192,194007,1,0,0:0:0:0:
256,192,194091,1,0,0:0:0:0:
109,192,194174,128,0,194341:0:0:0:0:
402,192,194174,1,0,0:0:0:0:
329,192,194174,1,0,0:0:0:0:
182,192,194257,1,0,0:0:0:0:
256,192,194341,1,0,0:0:0:0:
475,192,194341,1,0,0:0:0:0:
329,192,194341,1,0,0:0:0:0:
182,192,194424,1,0,0:0:0:0:
475,192,194507,128,0,194674:0:0:0:0:
36,192,194507,1,0,0:0:0:0:
109,192,194507,1,0,0:0:0:0:
402,192,194591,1,0,0:0:0:0:
256,192,194674,1,0,0:0:0:0:
329,192,194674,1,0,0:0:0:0:
36,192,194674,1,0,0:0:0:0:
182,192,194674,1,0,0:0:0:0:
109,192,194757,1,0,0:0:0:0:
402,192,194841,128,0,195007:0:0:0:0:
182,192,194841,1,0,0:0:0:0:
329,192,194841,1,0,0:0:0:0:
36,192,194924,1,0,0:0:0:0:
256,192,194924,1,0,0:0:0:0:
109,192,195007,1,0,0:0:0:0:
182,192,195007,1,0,0:0:0:0:
475,192,195007,1,0,0:0:0:0:
256,192,195091,1,0,0:0:0:0:
329,192,195174,128,0,195341:0:0:0:0:
36,192,195174,1,0,0:0:0:0:
402,192,195174,1,0,0:0:0:0:
109,192,195257,1,0,0:0:0:0:
256,192,195341,1,0,0:0:0:0:
475,192,195341,1,0,0:0:0:0:
182,192,195341,1,0,0:0:0:0:
36,192,195341,1,0,0:0:0:0:
329,192,195424,1,0,0:0:0:0:
402,192,195507,128,0,195674:0:0:0:0:
256,192,195507,1,0,0:0:0:0:
109,192,195507,1,0,0:0:0:0:
182,192,195591,1,0,0:0:0:0:
36,192,195591,1,0,0:0:0:0:
109,192,195674,1,0,0:0:0:0:
329,192,195674,1,0,0:0:0:0:
475,192,195674,1,0,0:0:0:0:
182,192,195757,1,0,0:0:0:0:
256,192,195841,128,0,196007:0:0:0:0:
36,192,195841,1,0,0:0:0:0:
402,192,195841,1,0,0:0:0:0:
182,192,195924,1,0,0:0:0:0:
402,192,196007,1,0,0:0:0:0:
109,192,196007,1,0,0:0:0:0:
475,192,196007,1,0,0:0:0:0:
36,192,196007,1,0,0:0:0:0:
182,192,196091,1,0,0:0:0:0:
329,192,196174,128,0,196341:0:0:0:0:
36,192,196174,1,0,0:0:0:0:
256,192,196174,1,0,0:0:0:0:
109,192,196257,1,0,0:0:0:0:
402,192,196257,1,0,0:0:0:0:
475,192,196341,1,0,0:0:0:0:
256,192,196341,1,0,0:0:0:0:
182,192,196341,1,0,0:0:0:0:
36,192,196424,1,0,0:0:0:0:
182,192,196507,128,0,196674:0:0:0:0:
109,192,196507,1,0,0:0:0:0:
402,192,196507,1,0,0:0:0:0:
256,192,196591,1,0,0:0:0:0:
475,192,196674,1,0,0:0:0:0:
36,192,196674,1,0,0:0:0:0:
109,192,196674,1,0,0:0:0:0:
402,192,196674,1,0,0:0:0:0:
329,192,196757,1,0,0:0:0:0:
256,192,196841,128,0,197007:0:0:0:0:
36,192,196841,1,0,0:0:0:0:
475,192,196841,1,0,0:0:0:0:
182,192,196924,1,0,0:0:0:0:
109,192,197007,1,0,0:0:0:0:
402,192,197007,1,0,0:0:0:0:
329,192,197007,1,0,0:0:0:0:
182,192,197091,1,0,0:0:0:0:
402,192,197174,128,0,197341:0:0:0:0:
36,192,197174,1,0,0:0:0:0:
256,192,197174,1,0,0:0:0:0:
109,192,197257,1,0,0:0:0:0:
182,192,197341,1,0,0:0:0:0:
329,192,197341,1,0,0:0:0:0:
475,192,197341,1,0,0:0:0:0:
36,192,197341,1,0,0:0:0:0:
256,192,197424,1,0,0:0:0:0:
109,192,197507,128,0,197674:0:0:0:0:
475,192,197507,1,0,0:0:0:0:
36,192,197507,1,0,0:0:0:0:
329,192,197591,1,0,0:0:0:0:
182,192,197591,1,0,0:0:0:0:
475,192,197674,1,0,0:0:0:0:
36,192,197674,1,0,0:0:0:0:
256,192,197674,1,0,0:0:0:0:
402,192,197757,1,0,0:0:0:0:
475,192,197841,128,0,198007:0:0:0:0:
36,192,197841,128,0,198007:0:0:0:0:
329,192,197841,1,0,0:0:0:0:
182,192,197841,1,0,0:0:0:0:
256,192,197924,1,0,0:0:0:0:
109,192,198007,1,0,0:0:0:0:
402,192,198007,1,0,0:0:0:0:
256,192,198091,1,0,0:0:0:0:
329,192,198174,128,0,198341:0:0:0:0:
182,192,198174,128,0,198341:0:0:0:0:
36,192,198174,1,0,0:0:0:0:
475,192,198174,1,0,0:0:0:0:
109,192,198257,1,0,0:0:0:0:
402,192,198257,1,0,0:0:0:0:
475,192,198341,5,0,0:0:0:0:
402,192,198341,1,0,0:0:0:0:
256,192,198341,1,0,0:0:0:0:
109,192,198341,1,0,0:0:0:0:
36,192,198341,1,0,0:0:0:0:
329,192,198424,1,0,0:0:0:0:
36,192,198507,128,0,198674:0:0:0:0:
182,192,198507,1,0,0:0:0:0:
256,192,198507,1,0,0:0:0:0:
329,192,198591,1,0,0:0:0:0:
109,192,198674,1,0,0:0:0:0:
475,192,198674,1,0,0:0:0:0:
182,192,198674,1,0,0:0:0:0:
402,192,198674,1,0,0:0:0:0:
329,192,198757,1,0,0:0:0:0:
256,192,198841,128,0,199007:0:0:0:0:
36,192,198841,1,0,0:0:0:0:
402,192,198841,1,0,0:0:0:0:
109,192,198924,1,0,0:0:0:0:
475,192,198924,1,0,0:0:0:0:
182,192,199007,1,0,0:0:0:0:
329,192,199007,1,0,0:0:0:0:
402,192,199007,1,0,0:0:0:0:
109,192,199091,1,0,0:0:0:0:
36,192,199174,128,0,199341:0:0:0:0:
256,192,199174,1,0,0:0:0:0:
402,192,199174,1,0,0:0:0:0:
182,192,199257,1,0,0:0:0:0:
329,192,199341,1,0,0:0:0:0:
109,192,199341,1,0,0:0:0:0:
475,192,199341,1,0,0:0:0:0:
256,192,199341,1,0,0:0:0:0:
402,192,199424,1,0,0:0:0:0:
256,192,199507,128,0,199674:0:0:0:0:
182,192,199507,1,0,0:0:0:0:
329,192,199507,1,0,0:0:0:0:
109,192,199591,1,0,0:0:0:0:
36,192,199674,1,0,0:0:0:0:
475,192,199674,1,0,0:0:0:0:
402,192,199674,1,0,0:0:0:0:
182,192,199757,1,0,0:0:0:0:
109,192,199841,128,0,200007:0:0:0:0:
329,192,199841,1,0,0:0:0:0:
36,192,199841,1,0,0:0:0:0:
475,192,199924,1,0,0:0:0:0:
402,192,200007,1,0,0:0:0:0:
182,192,200007,1,0,0:0:0:0:
256,192,200007,1,0,0:0:0:0:
329,192,200007,1,0,0:0:0:0:
36,192,200091,1,0,0:0:0:0:
329,192,200174,128,0,200341:0:0:0:0:
109,192,200174,1,0,0:0:0:0:
256,192,200174,1,0,0:0:0:0:
182,192,200257,1,0,0:0:0:0:
402,192,200257,1,0,0:0:0:0:
256,192,200341,1,0,0:0:0:0:
475,192,200341,1,0,0:0:0:0:
36,192,200341,1,0,0:0:0:0:
182,192,200424,1,0,0:0:0:0:
109,192,200507,128,0,200674:0:0:0:0:
36,192,200507,1,0,0:0:0:0:
402,192,200507,1,0,0:0:0:0:
256,192,200591,1,0,0:0:0:0:
402,192,200674,1,0,0:0:0:0:
475,192,200674,1,0,0:0:0:0:
182,192,200674,1,0,0:0:0:0:
329,192,200674,1,0,0:0:0:0:
36,192,200757,1,0,0:0:0:0:
329,192,200841,128,0,201007:0:0:0:0:
109,192,200841,1,0,0:0:0:0:
256,192,200841,1,0,0:0:0:0:
182,192,200924,1,0,0:0:0:0:
402,192,200924,1,0,0:0:0:0:
36,192,201007,1,0,0:0:0:0:
256,192,201007,1,0,0:0:0:0:
475,192,201007,1,0,0:0:0:0:
109,192,201091,1,0,0:0:0:0:
182,192,201174,128,0,201341:0:0:0:0:
329,192,201174,1,0,0:0:0:0:
475,192,201174,1,0,0:0:0:0:
402,192,201257,1,0,0:0:0:0:
36,192,201341,1,0,0:0:0:0:
256,192,201341,1,0,0:0:0:0:
475,192,201341,1,0,0:0:0:0:
109,192,201341,1,0,0:0:0:0:
329,192,201424,1,0,0:0:0:0:
402,192,201507,128,0,201674:0:0:0:0:
109,192,201507,1,0,0:0:0:0:
36,192,201507,1,0,0:0:0:0:
182,192,201591,1,0,0:0:0:0:
256,192,201591,1,0,0:0:0:0:
475,192,201674,1,0,0:0:0:0:
329,192,201674,1,0,0:0:0:0:
36,192,201674,1,0,0:0:0:0:
109,192,201757,1,0,0:0:0:0:
182,192,201841,128,0,202007:0:0:0:0:
402,192,201841,1,0,0:0:0:0:
256,192,201841,1,0,0:0:0:0:
36,192,201924,1,0,0:0:0:0:
109,192,202007,1,0,0:0:0:0:
329,192,202007,1,0,0:0:0:0:
475,192,202007,1,0,0:0:0:0:
256,192,202007,1,0,0:0:0:0:
36,192,202091,1,0,0:0:0:0:
402,192,202174,128,0,202341:0:0:0:0:
256,192,202174,1,0,0:0:0:0:
182,192,202174,1,0,0:0:0:0:
109,192,202257,1,0,0:0:0:0:
475,192,202341,1,0,0:0:0:0:
36,192,202341,1,0,0:0:0:0:
329,192,202341,1,0,0:0:0:0:
182,192,202341,1,0,0:0:0:0:
109,192,202424,1,0,0:0:0:0:
256,192,202507,128,0,202674:0:0:0:0:
182,192,202507,1,0,0:0:0:0:
329,192,202507,1,0,0:0:0:0:
402,192,202591,1,0,0:0:0:0:
36,192,202674,1,0,0:0:0:0:
475,192,202674,1,0,0:0:0:0:
109,192,202674,1,0,0:0:0:0:
329,192,202674,1,0,0:0:0:0:
182,192,202757,1,0,0:0:0:0:
475,192,202841,128,0,203007:0:0:0:0:
109,192,202841,1,0,0:0:0:0:
256,192,202841,1,0,0:0:0:0:
329,192,202924,1,0,0:0:0:0:
182,192,202924,1,0,0:0:0:0:
402,192,203007,1,0,0:0:0:0:
36,192,203007,1,0,0:0:0:0:
109,192,203007,1,0,0:0:0:0:
256,192,203007,1,0,0:0:0:0:
182,192,203091,1,0,0:0:0:0:
329,192,203091,1,0,0:0:0:0:
256,192,203174,128,0,203341:0:0:0:0:
109,192,203174,1,0,0:0:0:0:
402,192,203174,1,0,0:0:0:0:
36,192,203257,1,0,0:0:0:0:
475,192,203257,1,0,0:0:0:0:
109,192,203341,5,0,0:0:0:0:
182,192,203341,1,0,0:0:0:0:
329,192,203341,1,0,0:0:0:0:
402,192,203341,1,0,0:0:0:0:
182,192,203424,1,0,0:0:0:0:
109,192,203424,1,0,0:0:0:0:
402,192,203424,1,0,0:0:0:0:
329,192,203424,1,0,0:0:0:0:
109,192,203507,1,0,0:0:0:0:
182,192,203507,1,0,0:0:0:0:
329,192,203507,1,0,0:0:0:0:
402,192,203507,1,0,0:0:0:0:
182,192,203591,1,0,0:0:0:0:
109,192,203591,1,0,0:0:0:0:
329,192,203591,1,0,0:0:0:0:
402,192,203591,1,0,0:0:0:0:
475,192,203674,1,0,0:0:0:0:
402,192,203674,1,0,0:0:0:0:
256,192,203674,1,0,0:0:0:0:
109,192,203674,1,0,0:0:0:0:
36,192,203674,1,0,0:0:0:0:
329,192,203757,1,0,0:0:0:0:
182,192,203841,128,0,204007:0:0:0:0:
402,192,203841,1,0,0:0:0:0:
109,192,203841,1,0,0:0:0:0:
329,192,203924,1,0,0:0:0:0:
475,192,204007,1,0,0:0:0:0:
36,192,204007,1,0,0:0:0:0:
109,192,204007,1,0,0:0:0:0:
256,192,204007,1,0,0:0:0:0:
402,192,204091,1,0,0:0:0:0:
36,192,204174,128,0,204341:0:0:0:0:
109,192,204174,1,0,0:0:0:0:
329,192,204174,1,0,0:0:0:0:
182,192,204257,1,0,0:0:0:0:
402,192,204257,1,0,0:0:0:0:
475,192,204341,1,0,0:0:0:0:
256,192,204341,1,0,0:0:0:0:
329,192,204341,1,0,0:0:0:0:
182,192,204424,1,0,0:0:0:0:
329,192,204507,128,0,204674:0:0:0:0:
36,192,204507,1,0,0:0:0:0:
109,192,204507,1,0,0:0:0:0:
256,192,204591,1,0,0:0:0:0:
182,192,204674,1,0,0:0:0:0:
109,192,204674,1,0,0:0:0:0:
402,192,204674,1,0,0:0:0:0:
475,192,204674,1,0,0:0:0:0:
36,192,204757,1,0,0:0:0:0:
475,192,204841,128,0,205007:0:0:0:0:
256,192,204841,1,0,0:0:0:0:
182,192,204924,1,0,0:0:0:0:
329,192,205007,1,0,0:0:0:0:
402,192,205007,1,0,0:0:0:0:
109,192,205007,1,0,0:0:0:0:
182,192,205091,1,0,0:0:0:0:
256,192,205174,128,0,205341:0:0:0:0:
36,192,205174,1,0,0:0:0:0:
329,192,205174,1,0,0:0:0:0:
109,192,205257,1,0,0:0:0:0:
402,192,205341,1,0,0:0:0:0:
182,192,205341,1,0,0:0:0:0:
475,192,205341,1,0,0:0:0:0:
36,192,205341,1,0,0:0:0:0:
256,192,205424,1,0,0:0:0:0:
109,192,205507,128,0,205674:0:0:0:0:
329,192,205507,1,0,0:0:0:0:
182,192,205507,1,0,0:0:0:0:
256,192,205591,1,0,0:0:0:0:
402,192,205591,1,0,0:0:0:0:
475,192,205674,1,0,0:0:0:0:
329,192,205674,1,0,0:0:0:0:
36,192,205674,1,0,0:0:0:0:
182,192,205757,1,0,0:0:0:0:
256,192,205841,128,0,206007:0:0:0:0:
109,192,205841,1,0,0:0:0:0:
402,192,205841,1,0,0:0:0:0:
329,192,205924,1,0,0:0:0:0:
182,192,206007,1,0,0:0:0:0:
475,192,206007,1,0,0:0:0:0:
36,192,206007,1,0,0:0:0:0:
402,192,206007,1,0,0:0:0:0:
109,192,206091,1,0,0:0:0:0:
402,192,206174,128,0,206341:0:0:0:0:
329,192,206174,1,0,0:0:0:0:
256,192,206174,1,0,0:0:0:0:
182,192,206257,1,0,0:0:0:0:
36,192,206257,1,0,0:0:0:0:
109,192,206341,1,0,0:0:0:0:
475,192,206341,1,0,0:0:0:0:
329,192,206341,1,0,0:0:0:0:
256,192,206424,1,0,0:0:0:0:
182,192,206507,128,0,206674:0:0:0:0:
36,192,206507,1,0,0:0:0:0:
402,192,206507,1,0,0:0:0:0:
329,192,206591,1,0,0:0:0:0:
256,192,206674,1,0,0:0:0:0:
475,192,206674,1,0,0:0:0:0:
109,192,206674,1,0,0:0:0:0:
36,192,206674,1,0,0:0:0:0:
329,192,206757,1,0,0:0:0:0:
36,192,206841,128,0,207007:0:0:0:0:
402,192,206841,1,0,0:0:0:0:
182,192,206841,1,0,0:0:0:0:
329,192,206924,1,0,0:0:0:0:
256,192,206924,1,0,0:0:0:0:
475,192,207007,1,0,0:0:0:0:
109,192,207007,1,0,0:0:0:0:
402,192,207007,1,0,0:0:0:0:
182,192,207091,1,0,0:0:0:0:
402,192,207174,128,0,207341:0:0:0:0:
256,192,207174,1,0,0:0:0:0:
329,192,207174,1,0,0:0:0:0:
109,192,207257,1,0,0:0:0:0:
256,192,207341,1,0,0:0:0:0:
182,192,207341,1,0,0:0:0:0:
475,192,207341,1,0,0:0:0:0:
36,192,207341,1,0,0:0:0:0:
329,192,207424,1,0,0:0:0:0:
109,192,207507,128,0,207674:0:0:0:0:
182,192,207507,1,0,0:0:0:0:
402,192,207507,1,0,0:0:0:0:
256,192,207591,1,0,0:0:0:0:
475,192,207674,1,0,0:0:0:0:
36,192,207674,1,0,0:0:0:0:
402,192,207674,1,0,0:0:0:0:
329,192,207757,1,0,0:0:0:0:
475,192,207841,128,0,208007:0:0:0:0:
109,192,207841,1,0,0:0:0:0:
182,192,207841,1,0,0:0:0:0:
256,192,207924,1,0,0:0:0:0:
36,192,208007,1,0,0:0:0:0:
402,192,208007,1,0,0:0:0:0:
329,192,208007,1,0,0:0:0:0:
109,192,208007,1,0,0:0:0:0:
182,192,208091,1,0,0:0:0:0:
329,192,208174,128,0,208341:0:0:0:0:
256,192,208174,1,0,0:0:0:0:
36,192,208174,1,0,0:0:0:0:
109,192,208257,1,0,0:0:0:0:
402,192,208257,1,0,0:0:0:0:
182,192,208341,1,0,0:0:0:0:
475,192,208341,1,0,0:0:0:0:
256,192,208341,1,0,0:0:0:0:
109,192,208424,1,0,0:0:0:0:
475,192,208507,128,0,208674:0:0:0:0:
36,192,208507,128,0,208674:0:0:0:0:
182,192,208507,1,0,0:0:0:0:
329,192,208507,1,0,0:0:0:0:
256,192,208591,1,0,0:0:0:0:
402,192,208674,1,0,0:0:0:0:
109,192,208674,1,0,0:0:0:0:
329,192,208674,1,0,0:0:0:0:
182,192,208674,1,0,0:0:0:0:
256,192,208757,1,0,0:0:0:0:
402,192,208841,128,0,209007:0:0:0:0:
109,192,208841,128,0,209007:0:0:0:0:
36,192,208841,1,0,0:0:0:0:
475,192,208841,1,0,0:0:0:0:
182,192,208924,1,0,0:0:0:0:
329,192,208924,1,0,0:0:0:0:
36,192,209007,5,0,0:0:0:0:
182,192,209007,1,0,0:0:0:0:
256,192,209007,1,0,0:0:0:0:
329,192,209007,1,0,0:0:0:0:
475,192,209007,1,0,0:0:0:0:
402,192,209091,1,0,0:0:0:0:
36,192,209174,128,0,209341:0:0:0:0:
256,192,209174,1,0,0:0:0:0:
109,192,209174,1,0,0:0:0:0:
329,192,209257,1,0,0:0:0:0:
402,192,209341,1,0,0:0:0:0:
182,192,209341,1,0,0:0:0:0:
475,192,209341,1,0,0:0:0:0:
109,192,209341,1,0,0:0:0:0:
329,192,209424,1,0,0:0:0:0:
109,192,209507,128,0,209674:0:0:0:0:
256,192,209507,1,0,0:0:0:0:
36,192,209507,1,0,0:0:0:0:
402,192,209591,1,0,0:0:0:0:
182,192,209591,1,0,0:0:0:0:
475,192,209674,1,0,0:0:0:0:
329,192,209674,1,0,0:0:0:0:
36,192,209674,1,0,0:0:0:0:
182,192,209757,1,0,0:0:0:0:
36,192,209841,128,0,210007:0:0:0:0:
256,192,209841,1,0,0:0:0:0:
402,192,209841,1,0,0:0:0:0:
329,192,209924,1,0,0:0:0:0:
402,192,210007,1,0,0:0:0:0:
182,192,210007,1,0,0:0:0:0:
475,192,210007,1,0,0:0:0:0:
109,192,210007,1,0,0:0:0:0:
329,192,210091,1,0,0:0:0:0:
109,192,210174,128,0,210341:0:0:0:0:
256,192,210174,1,0,0:0:0:0:
36,192,210174,1,0,0:0:0:0:
402,192,210257,1,0,0:0:0:0:
475,192,210341,1,0,0:0:0:0:
329,192,210341,1,0,0:0:0:0:
256,192,210341,1,0,0:0:0:0:
182,192,210341,1,0,0:0:0:0:
36,192,210341,1,0,0:0:0:0:
109,192,210424,1,0,0:0:0:0:
475,192,210507,128,0,210674:0:0:0:0:
256,192,210507,1,0,0:0:0:0:
182,192,210507,1,0,0:0:0:0:
36,192,210591,1,0,0:0:0:0:
109,192,210674,1,0,0:0:0:0:
182,192,210674,1,0,0:0:0:0:
329,192,210674,1,0,0:0:0:0:
402,192,210674,1,0,0:0:0:0:
36,192,210757,1,0,0:0:0:0:
402,192,210841,128,0,211007:0:0:0:0:
256,192,210841,1,0,0:0:0:0:
182,192,210841,1,0,0:0:0:0:
109,192,210924,1,0,0:0:0:0:
329,192,210924,1,0,0:0:0:0:
36,192,211007,1,0,0:0:0:0:
256,192,211007,1,0,0:0:0:0:
475,192,211007,1,0,0:0:0:0:
182,192,211091,1,0,0:0:0:0:
475,192,211174,128,0,211341:0:0:0:0:
329,192,211174,1,0,0:0:0:0:
109,192,211174,1,0,0:0:0:0:
256,192,211257,1,0,0:0:0:0:
109,192,211341,1,0,0:0:0:0:
182,192,211341,1,0,0:0:0:0:
36,192,211341,1,0,0:0:0:0:
402,192,211341,1,0,0:0:0:0:
329,192,211424,1,0,0:0:0:0:
402,192,211507,128,0,211674:0:0:0:0:
256,192,211507,1,0,0:0:0:0:
36,192,211507,1,0,0:0:0:0:
109,192,211591,1,0,0:0:0:0:
36,192,211674,1,0,0:0:0:0:
182,192,211674,1,0,0:0:0:0:
256,192,211674,1,0,0:0:0:0:
329,192,211674,1,0,0:0:0:0:
475,192,211674,1,0,0:0:0:0:
109,192,211757,1,0,0:0:0:0:
182,192,211841,128,0,212007:0:0:0:0:
329,192,211841,1,0,0:0:0:0:
402,192,211841,1,0,0:0:0:0:
36,192,211924,1,0,0:0:0:0:
109,192,212007,1,0,0:0:0:0:
256,192,212007,1,0,0:0:0:0:
475,192,212007,1,0,0:0:0:0:
402,192,212007,1,0,0:0:0:0:
36,192,212091,1,0,0:0:0:0:
329,192,212174,128,0,212341:0:0:0:0:
182,192,212174,1,0,0:0:0:0:
402,192,212174,1,0,0:0:0:0:
109,192,212257,1,0,0:0:0:0:
256,192,212257,1,0,0:0:0:0:
475,192,212341,5,0,0:0:0:0:
402,192,212341,1,0,0:0:0:0:
182,192,212341,1,0,0:0:0:0:
36,192,212341,1,0,0:0:0:0:
109,192,212424,1,0,0:0:0:0:
182,192,212507,128,0,212674:0:0:0:0:
329,192,212507,1,0,0:0:0:0:
256,192,212507,1,0,0:0:0:0:
475,192,212591,1,0,0:0:0:0:
109,192,212674,1,0,0:0:0:0:
256,192,212674,1,0,0:0:0:0:
402,192,212674,1,0,0:0:0:0:
36,192,212674,1,0,0:0:0:0:
475,192,212757,1,0,0:0:0:0:
329,192,212841,128,0,213007:0:0:0:0:
256,192,212841,1,0,0:0:0:0:
36,192,212841,1,0,0:0:0:0:
182,192,212924,1,0,0:0:0:0:
36,192,213007,5,0,0:0:0:0:
109,192,213007,1,0,0:0:0:0:
256,192,213007,1,0,0:0:0:0:
402,192,213007,1,0,0:0:0:0:
475,192,213007,1,0,0:0:0:0:
329,192,213091,1,0,0:0:0:0:
182,192,213091,1,0,0:0:0:0:
109,192,213174,1,0,0:0:0:0:
256,192,213174,1,0,0:0:0:0:
402,192,213174,1,0,0:0:0:0:
36,192,213174,1,0,0:0:0:0:
182,192,213257,1,0,0:0:0:0:
329,192,213257,1,0,0:0:0:0:
475,192,213257,1,0,0:0:0:0:
36,192,213341,5,0,0:0:0:0:
109,192,213341,1,0,0:0:0:0:
256,192,213341,1,0,0:0:0:0:
402,192,213341,1,0,0:0:0:0:
475,192,213341,1,0,0:0:0:0:
182,192,213424,1,0,0:0:0:0:
329,192,213424,1,0,0:0:0:0:
402,192,213507,1,0,0:0:0:0:
256,192,213507,1,0,0:0:0:0:
109,192,213507,1,0,0:0:0:0:
475,192,213507,1,0,0:0:0:0:
36,192,213591,1,0,0:0:0:0:
182,192,213591,1,0,0:0:0:0:
329,192,213591,1,0,0:0:0:0:
475,192,213674,5,0,0:0:0:0:
256,192,213674,1,0,0:0:0:0:
109,192,213674,1,0,0:0:0:0:
36,192,213674,1,0,0:0:0:0:
402,192,213674,1,0,0:0:0:0:
182,192,213757,1,0,0:0:0:0:
329,192,213757,1,0,0:0:0:0:
36,192,213841,1,0,0:0:0:0:
475,192,213841,1,0,0:0:0:0:
109,192,213841,1,0,0:0:0:0:
402,192,213841,1,0,0:0:0:0:
256,192,213924,1,0,0:0:0:0:
182,192,213924,1,0,0:0:0:0:
329,192,213924,1,0,0:0:0:0:
36,192,214007,5,0,0:0:0:0:
109,192,214007,1,0,0:0:0:0:
256,192,214007,1,0,0:0:0:0:
402,192,214007,1,0,0:0:0:0:
475,192,214007,1,0,0:0:0:0:
36,192,214091,1,0,0:0:0:0:
109,192,214091,1,0,0:0:0:0:
256,192,214091,1,0,0:0:0:0:
402,192,214091,1,0,0:0:0:0:
475,192,214091,1,0,0:0:0:0:
36,192,214174,1,0,0:0:0:0:
109,192,214174,1,0,0:0:0:0:
256,192,214174,1,0,0:0:0:0:
402,192,214174,1,0,0:0:0:0:
475,192,214174,1,0,0:0:0:0:
36,192,214257,1,0,0:0:0:0:
109,192,214257,1,0,0:0:0:0:
256,192,214257,1,0,0:0:0:0:
402,192,214257,1,0,0:0:0:0:
475,192,214257,1,0,0:0:0:0:
109,192,214341,1,0,0:0:0:0:
182,192,214341,1,0,0:0:0:0:
402,192,214341,1,0,0:0:0:0:
329,192,214341,1,0,0:0:0:0:
36,192,214341,128,0,217007:0:0:0:0:
475,192,214341,128,0,217007:0:0:0:0:
256,192,214424,1,0,0:0:0:0:
182,192,214507,1,0,0:0:0:0:
256,192,214591,1,0,0:0:0:0:
402,192,214674,1,0,0:0:0:0:
109,192,214674,1,0,0:0:0:0:
329,192,214674,1,0,0:0:0:0:
182,192,214757,1,0,0:0:0:0:
256,192,214841,1,0,0:0:0:0:
329,192,214924,1,0,0:0:0:0:
402,192,215007,1,0,0:0:0:0:
109,192,215007,1,0,0:0:0:0:
329,192,215091,1,0,0:0:0:0:
256,192,215174,1,0,0:0:0:0:
182,192,215257,1,0,0:0:0:0:
109,192,215341,1,0,0:0:0:0:
402,192,215341,1,0,0:0:0:0:
329,192,215341,1,0,0:0:0:0:
182,192,215424,1,0,0:0:0:0:
256,192,215507,1,0,0:0:0:0:
329,192,215591,1,0,0:0:0:0:
402,192,215674,1,0,0:0:0:0:
109,192,215674,1,0,0:0:0:0:
182,192,215757,1,0,0:0:0:0:
329,192,215841,1,0,0:0:0:0:
256,192,215924,1,0,0:0:0:0:
109,192,216007,1,0,0:0:0:0:
402,192,216007,1,0,0:0:0:0:
182,192,216007,1,0,0:0:0:0:
329,192,216091,1,0,0:0:0:0:
182,192,216174,1,0,0:0:0:0:
256,192,216257,1,0,0:0:0:0:
402,192,216341,1,0,0:0:0:0:
109,192,216341,1,0,0:0:0:0:
182,192,216424,1,0,0:0:0:0:
329,192,216507,1,0,0:0:0:0:
256,192,216591,1,0,0:0:0:0:
402,192,216674,1,0,0:0:0:0:
109,192,216674,1,0,0:0:0:0:
182,192,216674,1,0,0:0:0:0:
329,192,216757,1,0,0:0:0:0:
182,192,216841,1,0,0:0:0:0:
256,192,216924,1,0,0:0:0:0:
329,192,216924,1,0,0:0:0:0:
402,192,217007,1,0,0:0:0:0:
109,192,217007,1,0,0:0:0:0:
182,192,217091,1,0,0:0:0:0:
329,192,217174,1,0,0:0:0:0:
256,192,217257,1,0,0:0:0:0:
36,192,217341,1,0,0:0:0:0:
182,192,217341,1,0,0:0:0:0:
475,192,217341,1,0,0:0:0:0:
329,192,217424,1,0,0:0:0:0:
402,192,217507,1,0,0:0:0:0:
256,192,217591,1,0,0:0:0:0:
36,192,217674,1,0,0:0:0:0:
329,192,217674,1,0,0:0:0:0:
109,192,217757,1,0,0:0:0:0:
182,192,217841,1,0,0:0:0:0:
329,192,217924,1,0,0:0:0:0:
36,192,218007,1,0,0:0:0:0:
109,192,218007,1,0,0:0:0:0:
475,192,218007,1,0,0:0:0:0:
256,192,218091,1,0,0:0:0:0:
402,192,218174,1,0,0:0:0:0:
329,192,218257,1,0,0:0:0:0:
475,192,218341,1,0,0:0:0:0:
182,192,218341,1,0,0:0:0:0:
36,192,218424,1,0,0:0:0:0:
256,192,218507,1,0,0:0:0:0:
109,192,218591,1,0,0:0:0:0:
475,192,218674,1,0,0:0:0:0:
329,192,218674,1,0,0:0:0:0:
182,192,218674,1,0,0:0:0:0:
36,192,218757,1,0,0:0:0:0:
109,192,218841,1,0,0:0:0:0:
329,192,218924,1,0,0:0:0:0:
256,192,218924,1,0,0:0:0:0:
475,192,219007,1,0,0:0:0:0:
36,192,219007,1,0,0:0:0:0:
109,192,219091,1,0,0:0:0:0:
182,192,219174,1,0,0:0:0:0:
329,192,219174,1,0,0:0:0:0:
402,192,219257,1,0,0:0:0:0:
475,192,219341,1,0,0:0:0:0:
36,192,219341,1,0,0:0:0:0:
256,192,219341,1,0,0:0:0:0:
109,192,219424,1,0,0:0:0:0:
402,192,219424,1,0,0:0:0:0:
182,192,219507,1,0,0:0:0:0:
329,192,219507,1,0,0:0:0:0:
109,192,219591,1,0,0:0:0:0:
402,192,219591,1,0,0:0:0:0:
475,192,219674,1,0,0:0:0:0:
36,192,219674,1,0,0:0:0:0:
329,192,219674,1,0,0:0:0:0:
256,192,219674,1,0,0:0:0:0:
109,192,219757,1,0,0:0:0:0:
402,192,219841,1,0,0:0:0:0:
256,192,219924,1,0,0:0:0:0:
182,192,220007,1,0,0:0:0:0:
329,192,220007,1,0,0:0:0:0:
36,192,220007,1,0,0:0:0:0:
402,192,220091,1,0,0:0:0:0:
109,192,220174,1,0,0:0:0:0:
182,192,220257,1,0,0:0:0:0:
256,192,220341,1,0,0:0:0:0:
475,192,220341,1,0,0:0:0:0:
36,192,220424,1,0,0:0:0:0:
402,192,220507,1,0,0:0:0:0:
109,192,220591,1,0,0:0:0:0:
182,192,220674,1,0,0:0:0:0:
475,192,220674,1,0,0:0:0:0:
256,192,220674,1,0,0:0:0:0:
36,192,220757,1,0,0:0:0:0:
329,192,220841,1,0,0:0:0:0:
109,192,220924,1,0,0:0:0:0:
256,192,221007,1,0,0:0:0:0:
402,192,221007,1,0,0:0:0:0:
36,192,221091,1,0,0:0:0:0:
329,192,221174,1,0,0:0:0:0:
256,192,221257,1,0,0:0:0:0:
109,192,221341,1,0,0:0:0:0:
402,192,221341,1,0,0:0:0:0:
475,192,221341,1,0,0:0:0:0:
36,192,221424,1,0,0:0:0:0:
329,192,221507,1,0,0:0:0:0:
182,192,221591,1,0,0:0:0:0:
256,192,221674,1,0,0:0:0:0:
475,192,221674,1,0,0:0:0:0:
36,192,221757,1,0,0:0:0:0:
182,192,221841,1,0,0:0:0:0:
329,192,221924,1,0,0:0:0:0:
109,192,222007,1,0,0:0:0:0:
402,192,222007,1,0,0:0:0:0:
475,192,222007,1,0,0:0:0:0:
256,192,222091,1,0,0:0:0:0:
36,192,222174,1,0,0:0:0:0:
329,192,222257,1,0,0:0:0:0:
402,192,222257,1,0,0:0:0:0:
182,192,222341,1,0,0:0:0:0:
109,192,222341,1,0,0:0:0:0:
256,192,222424,1,0,0:0:0:0:
402,192,222507,1,0,0:0:0:0:
182,192,222591,1,0,0:0:0:0:
329,192,222674,1,0,0:0:0:0:
36,192,222674,1,0,0:0:0:0:
475,192,222674,1,0,0:0:0:0:
109,192,222757,1,0,0:0:0:0:
256,192,222841,1,0,0:0:0:0:
402,192,222924,1,0,0:0:0:0:
182,192,223007,1,0,0:0:0:0:
475,192,223007,1,0,0:0:0:0:
36,192,223091,1,0,0:0:0:0:
256,192,223174,1,0,0:0:0:0:
109,192,223257,1,0,0:0:0:0:
36,192,223341,1,0,0:0:0:0:
329,192,223341,1,0,0:0:0:0:
475,192,223341,1,0,0:0:0:0:
182,192,223424,1,0,0:0:0:0:
402,192,223507,1,0,0:0:0:0:
256,192,223591,1,0,0:0:0:0:
475,192,223674,1,0,0:0:0:0:
36,192,223674,1,0,0:0:0:0:
182,192,223757,1,0,0:0:0:0:
402,192,223841,1,0,0:0:0:0:
109,192,223924,1,0,0:0:0:0:
475,192,224007,1,0,0:0:0:0:
36,192,224007,1,0,0:0:0:0:
329,192,224007,1,0,0:0:0:0:
182,192,224091,1,0,0:0:0:0:
402,192,224174,1,0,0:0:0:0:
109,192,224257,1,0,0:0:0:0:
329,192,224257,1,0,0:0:0:0:
256,192,224341,1,0,0:0:0:0:
36,192,224341,1,0,0:0:0:0:
109,192,224424,1,0,0:0:0:0:
475,192,224507,1,0,0:0:0:0:
182,192,224507,1,0,0:0:0:0:
402,192,224591,1,0,0:0:0:0:
36,192,224674,1,0,0:0:0:0:
182,192,224674,1,0,0:0:0:0:
329,192,224674,1,0,0:0:0:0:
109,192,224757,1,0,0:0:0:0:
256,192,224757,1,0,0:0:0:0:
402,192,224757,1,0,0:0:0:0:
182,192,224841,1,0,0:0:0:0:
329,192,224841,1,0,0:0:0:0:
475,192,224841,1,0,0:0:0:0:
109,192,224924,1,0,0:0:0:0:
256,192,224924,1,0,0:0:0:0:
402,192,224924,1,0,0:0:0:0:
36,192,225007,1,0,0:0:0:0:
182,192,225007,1,0,0:0:0:0:
475,192,225007,1,0,0:0:0:0:
329,192,225007,1,0,0:0:0:0:
256,192,225174,1,0,0:0:0:0:
36,192,225341,1,0,0:0:0:0:
475,192,225341,1,0,0:0:0:0:
329,192,225341,1,0,0:0:0:0:
182,192,225507,1,0,0:0:0:0:
329,192,225591,1,0,0:0:0:0:
475,192,225674,1,0,0:0:0:0:
36,192,225674,1,0,0:0:0:0:
329,192,225757,1,0,0:0:0:0:
182,192,225841,1,0,0:0:0:0:
109,192,225924,1,0,0:0:0:0:
475,192,226007,1,0,0:0:0:0:
36,192,226007,1,0,0:0:0:0:
329,192,226007,1,0,0:0:0:0:
182,192,226174,1,0,0:0:0:0:
329,192,226257,1,0,0:0:0:0:
402,192,226341,1,0,0:0:0:0:
36,192,226341,1,0,0:0:0:0:
256,192,226424,1,0,0:0:0:0:
109,192,226507,1,0,0:0:0:0:
329,192,226591,1,0,0:0:0:0:
182,192,226674,1,0,0:0:0:0:
36,192,226674,1,0,0:0:0:0:
475,192,226674,1,0,0:0:0:0:
329,192,226841,1,0,0:0:0:0:
182,192,226924,1,0,0:0:0:0:
36,192,227007,1,0,0:0:0:0:
475,192,227007,1,0,0:0:0:0:
182,192,227091,1,0,0:0:0:0:
329,192,227174,1,0,0:0:0:0:
402,192,227257,1,0,0:0:0:0:
475,192,227341,1,0,0:0:0:0:
182,192,227341,1,0,0:0:0:0:
36,192,227341,1,0,0:0:0:0:
256,192,227507,1,0,0:0:0:0:
182,192,227591,1,0,0:0:0:0:
329,192,227591,1,0,0:0:0:0:
109,192,227674,1,0,0:0:0:0:
402,192,227674,1,0,0:0:0:0:
256,192,227757,1,0,0:0:0:0:
329,192,227841,1,0,0:0:0:0:
182,192,227924,1,0,0:0:0:0:
475,192,228007,1,0,0:0:0:0:
36,192,228007,1,0,0:0:0:0:
256,192,228007,1,0,0:0:0:0:
109,192,228174,1,0,0:0:0:0:
182,192,228257,1,0,0:0:0:0:
402,192,228341,1,0,0:0:0:0:
329,192,228341,1,0,0:0:0:0:
256,192,228424,1,0,0:0:0:0:
182,192,228507,1,0,0:0:0:0:
329,192,228591,1,0,0:0:0:0:
36,192,228674,1,0,0:0:0:0:
402,192,228674,1,0,0:0:0:0:
475,192,228674,1,0,0:0:0:0:
109,192,228841,1,0,0:0:0:0:
256,192,228924,1,0,0:0:0:0:
402,192,229007,1,0,0:0:0:0:
475,192,229007,1,0,0:0:0:0:
329,192,229091,1,0,0:0:0:0:
182,192,229174,1,0,0:0:0:0:
36,192,229257,1,0,0:0:0:0:
475,192,229341,1,0,0:0:0:0:
109,192,229341,1,0,0:0:0:0:
256,192,229341,1,0,0:0:0:0:
329,192,229507,1,0,0:0:0:0:
402,192,229591,1,0,0:0:0:0:
475,192,229591,1,0,0:0:0:0:
36,192,229674,1,0,0:0:0:0:
109,192,229674,1,0,0:0:0:0:
182,192,229757,1,0,0:0:0:0:
329,192,229841,1,0,0:0:0:0:
402,192,229841,1,0,0:0:0:0:
256,192,229924,1,0,0:0:0:0:
109,192,230007,1,0,0:0:0:0:
402,192,230007,1,0,0:0:0:0:
329,192,230091,1,0,0:0:0:0:
182,192,230091,1,0,0:0:0:0:
36,192,230174,1,0,0:0:0:0:
475,192,230174,1,0,0:0:0:0:
109,192,230257,1,0,0:0:0:0:
402,192,230257,1,0,0:0:0:0:
36,192,230341,1,0,0:0:0:0:
182,192,230341,1,0,0:0:0:0:
329,192,230341,1,0,0:0:0:0:
475,192,230341,1,0,0:0:0:0:
256,192,230507,1,0,0:0:0:0:
475,192,230674,1,0,0:0:0:0:
182,192,230674,1,0,0:0:0:0:
36,192,230674,1,0,0:0:0:0:
256,192,230841,1,0,0:0:0:0:
109,192,230924,1,0,0:0:0:0:
329,192,231007,1,0,0:0:0:0:
36,192,231007,1,0,0:0:0:0:
182,192,231091,1,0,0:0:0:0:
402,192,231174,1,0,0:0:0:0:
256,192,231257,1,0,0:0:0:0:
329,192,231341,1,0,0:0:0:0:
475,192,231341,1,0,0:0:0:0:
109,192,231341,1,0,0:0:0:0:
256,192,231507,1,0,0:0:0:0:
402,192,231591,1,0,0:0:0:0:
182,192,231674,1,0,0:0:0:0:
475,192,231674,1,0,0:0:0:0:
329,192,231757,1,0,0:0:0:0:
109,192,231841,1,0,0:0:0:0:
256,192,231924,1,0,0:0:0:0:
36,192,232007,1,0,0:0:0:0:
402,192,232007,1,0,0:0:0:0:
182,192,232007,1,0,0:0:0:0:
329,192,232174,1,0,0:0:0:0:
402,192,232257,1,0,0:0:0:0:
256,192,232341,1,0,0:0:0:0:
36,192,232341,1,0,0:0:0:0:
329,192,232424,1,0,0:0:0:0:
182,192,232507,1,0,0:0:0:0:
256,192,232591,1,0,0:0:0:0:
109,192,232674,1,0,0:0:0:0:
36,192,232674,1,0,0:0:0:0:
475,192,232674,1,0,0:0:0:0:
182,192,232841,1,0,0:0:0:0:
109,192,232924,1,0,0:0:0:0:
36,192,232924,1,0,0:0:0:0:
256,192,233007,1,0,0:0:0:0:
475,192,233007,1,0,0:0:0:0:
182,192,233091,1,0,0:0:0:0:
329,192,233174,1,0,0:0:0:0:
256,192,233257,1,0,0:0:0:0:
402,192,233341,1,0,0:0:0:0:
475,192,233341,1,0,0:0:0:0:
36,192,233341,1,0,0:0:0:0:
182,192,233507,1,0,0:0:0:0:
329,192,233591,1,0,0:0:0:0:
109,192,233674,1,0,0:0:0:0:
475,192,233674,1,0,0:0:0:0:
256,192,233757,1,0,0:0:0:0:
402,192,233841,1,0,0:0:0:0:
329,192,233924,1,0,0:0:0:0:
475,192,234007,1,0,0:0:0:0:
36,192,234007,1,0,0:0:0:0:
182,192,234007,1,0,0:0:0:0:
329,192,234174,1,0,0:0:0:0:
182,192,234257,1,0,0:0:0:0:
402,192,234341,1,0,0:0:0:0:
36,192,234341,1,0,0:0:0:0:
256,192,234424,1,0,0:0:0:0:
109,192,234507,1,0,0:0:0:0:
182,192,234591,1,0,0:0:0:0:
329,192,234674,1,0,0:0:0:0:
36,192,234674,1,0,0:0:0:0:
475,192,234674,1,0,0:0:0:0:
256,192,234841,1,0,0:0:0:0:
182,192,234924,1,0,0:0:0:0:
109,192,235007,5,0,0:0:0:0:
256,192,235007,1,0,0:0:0:0:
402,192,235007,1,0,0:0:0:0:
36,192,235091,1,0,0:0:0:0:
329,192,235091,1,0,0:0:0:0:
109,192,235174,1,0,0:0:0:0:
402,192,235174,1,0,0:0:0:0:
475,192,235257,1,0,0:0:0:0:
182,192,235257,1,0,0:0:0:0:
109,192,235341,1,0,0:0:0:0:
256,192,235341,1,0,0:0:0:0:
402,192,235341,1,0,0:0:0:0:
36,192,235424,1,0,0:0:0:0:
329,192,235424,1,0,0:0:0:0:
182,192,235424,1,0,0:0:0:0:
109,192,235507,1,0,0:0:0:0:
402,192,235507,1,0,0:0:0:0:
256,192,235507,1,0,0:0:0:0:
329,192,235591,1,0,0:0:0:0:
475,192,235591,1,0,0:0:0:0:
182,192,235591,1,0,0:0:0:0:
109,192,235674,1,0,0:0:0:0:
402,192,235674,1,0,0:0:0:0:
182,192,235757,1,0,0:0:0:0:
329,192,235757,1,0,0:0:0:0:
256,192,235841,1,0,0:0:0:0:
475,192,235841,1,0,0:0:0:0:
329,192,235924,1,0,0:0:0:0:
402,192,236007,1,0,0:0:0:0:
475,192,236091,1,0,0:0:0:0:
