osu file format v14

[General]
AudioFilename: 06.+Be My Sacrifice+.mp3
AudioLeadIn: 0
PreviewTime: -1
Countdown: 1
SampleSet: Normal
StackLeniency: 1
Mode: 0
LetterboxInBreaks: 1
EpilepsyWarning: 1
WidescreenStoryboard: 1

[Editor]
Bookmarks: 28790,40790,50390,127190,136790,172790
DistanceSpacing: 0.8
BeatDivisor: 16
GridSize: 8
TimelineZoom: 3.899998

[Metadata]
Title:+Be My Sacrifice+
TitleUnicode:+Be My Sacrifice+
Artist:Yuyoyuppe
ArtistUnicode:ゆよゆっぺ
Creator:gasuton neko
Version:Z4KR1F1C3
Source:
Tags:Vocaloid metal rock Hatsune Miku For a sick boy 初音ミク
BeatmapID:649700
BeatmapSetID:288039

[Difficulty]
HPDrainRate:10
CircleSize:5.4
OverallDifficulty:10
ApproachRate:10
SliderMultiplier:3
SliderTickRate:4

[Events]
//Background and Video events
0,0,"Miku.jpg",0,0
//Break Periods
2,12190,21140
2,117789,126140
//Storyboard Layer 0 (Background)
//Storyboard Layer 1 (Fail)
//Storyboard Layer 2 (Pass)
//Storyboard Layer 3 (Foreground)
//Storyboard Sound Samples

[TimingPoints]
2390,600,4,1,0,15,1,0
28790,-100,4,1,0,50,0,0
38390,-133.333333333333,4,1,0,50,0,0
40790,-100,4,1,0,50,0,0
49040,-200,4,1,0,50,0,0
50390,-200,4,1,0,50,0,0
50990,-100,4,1,0,50,0,0
67190,-66.6666666666667,4,1,0,50,0,0
69290,-200,4,1,0,50,0,0
70490,-100,4,1,0,50,0,0
71390,-100,4,1,0,50,0,0
76790,-133.333333333333,4,1,0,50,0,0
84890,-100,4,1,0,50,0,0
88790,-66.6666666666667,4,1,0,50,0,1
95990,-133.333333333333,4,1,0,50,0,1
97490,-100,4,1,0,100,0,1
107990,-100,4,3,0,50,0,1
108065,-100,4,1,0,50,0,0
115940,-133.333333333333,4,1,0,50,0,0
117290,-100,4,1,0,50,0,0
127190,-100,4,2,0,30,0,0
136790,-100,4,3,0,50,0,0
146090,-100,4,1,0,25,0,0
146390,-100,4,3,0,50,0,0
155990,-133.333333333333,4,2,0,50,0,0
165590,-100,4,1,0,50,0,0
172190,-200,4,1,0,50,0,0
172790,1200,4,1,0,50,1,0
174290,-66.6666666666667,4,1,0,50,0,0
175190,600,4,1,0,50,1,1
175190,-66.6666666666667,4,1,0,50,0,1
182390,-133.333333333333,4,1,0,50,0,1
183890,-100,4,1,0,50,0,0
184790,-100,4,1,0,50,0,1
194390,-100,4,3,0,50,0,0

[Colours]
Combo1 : 188,254,252
Combo2 : 100,0,100
Combo3 : 0,103,230
Combo4 : 9,221,216

[HitObjects]
264,184,2127,5,8,0:0:0:0:
256,168,2165,1,8,0:0:0:0:
248,152,2202,1,8,0:0:0:0:
240,136,2240,1,8,0:0:0:0:
232,120,2277,1,8,0:0:0:0:
224,104,2315,1,8,0:0:0:0:
216,88,2352,1,8,0:0:0:0:
208,72,2390,6,0,P|160:40|136:40,1,75
152,96,2690,2,0,P|115:88|88:63,2,75,8|0|0,0:0|0:0|0:0,0:0:0:0:
104,128,3140,5,8,0:0:0:0:
96,144,3177,1,8,0:0:0:0:
88,160,3215,1,8,0:0:0:0:
80,176,3252,1,8,0:0:0:0:
72,192,3290,1,8,0:0:0:0:
64,208,3327,1,8,0:0:0:0:
56,224,3365,1,8,0:0:0:0:
48,240,3402,1,8,0:0:0:0:
40,256,3440,1,8,0:0:0:0:
80,304,3590,5,8,0:0:0:0:
192,336,3890,1,0,0:0:0:0:
224,288,4040,1,8,0:0:0:0:
232,272,4077,1,8,0:0:0:0:
240,256,4115,1,8,0:0:0:0:
248,240,4152,1,8,0:0:0:0:
256,224,4190,1,8,0:0:0:0:
264,104,4490,6,0,P|328:104|352:184,2,150,8|8|0,0:0|0:0|0:0,0:0:0:0:
344,200,5390,5,8,0:0:0:0:
360,200,5427,1,8,0:0:0:0:
376,200,5465,1,8,0:0:0:0:
392,200,5502,1,8,0:0:0:0:
408,200,5540,1,8,0:0:0:0:
424,200,5577,1,8,0:0:0:0:
440,200,5615,1,8,0:0:0:0:
456,200,5652,1,8,0:0:0:0:
472,200,5690,1,8,0:0:0:0:
496,256,5840,1,0,0:0:0:0:
480,312,5990,5,2,0:0:0:0:
360,312,6290,2,0,P|320:328|288:328,2,75,2|0|2,0:0|0:0|0:0,0:0:0:0:
312,272,6740,2,0,P|272:255|249:232,1,75,0|2,0:0|0:0,0:0:0:0:
344,160,7190,5,4,0:0:0:0:
128,64,7790,1,2,0:0:0:0:
184,88,7940,1,0,0:0:0:0:
208,104,8015,1,0,0:0:0:0:
232,120,8090,1,8,0:0:0:0:
248,128,8127,1,8,0:0:0:0:
264,136,8165,1,8,0:0:0:0:
272,144,8202,1,8,0:0:0:0:
288,152,8240,1,8,0:0:0:0:
320,96,8390,6,0,P|360:56|456:72,1,150
432,120,8840,1,8,0:0:0:0:
424,136,8877,1,8,0:0:0:0:
416,152,8915,1,8,0:0:0:0:
408,168,8952,1,8,0:0:0:0:
400,184,8990,1,8,0:0:0:0:
392,200,9027,1,8,0:0:0:0:
384,216,9065,1,8,0:0:0:0:
376,232,9102,1,8,0:0:0:0:
368,248,9140,1,8,0:0:0:0:
328,296,9290,1,0,0:0:0:0:
208,280,9590,5,0,0:0:0:0:
184,160,9890,1,0,0:0:0:0:
288,104,10190,1,0,0:0:0:0:
376,184,10490,1,0,0:0:0:0:
272,248,10790,6,0,L|200:272,1,75
144,256,11090,2,0,L|88:192,2,75
200,152,11690,1,0,0:0:0:0:
320,144,11990,5,4,0:0:0:0:
64,80,21590,6,2,B|104:64|104:64|136:88|216:56,1,150,4|0,0:0|0:0,0:0:0:0:
264,80,22040,1,0,0:0:0:0:
304,120,22190,1,2,0:0:0:0:
320,176,22340,2,0,P|320:232|296:256,1,75,0|0,0:0|0:0,0:0:0:0:
248,256,22640,2,2,P|232:288|184:304,3,75,0|2|0|0,0:0|0:0|0:0|0:0,0:0:0:0:
128,208,23390,1,2,0:0:0:0:
136,88,23690,1,0,0:0:0:0:
240,144,23990,6,2,B|288:144|288:192|288:192|184:152|136:264|192:320,1,300
232,272,24740,1,0,0:0:0:0:
288,288,24890,1,0,0:0:0:0:
344,288,25040,1,0,0:0:0:0:
400,280,25190,2,2,B|432:216|440:216|416:176|416:176|448:144,1,150
336,96,25790,1,0,0:0:0:0:
232,152,26090,1,0,0:0:0:0:
240,272,26390,6,2,B|192:264|192:264|112:288|80:272,1,150
32,288,26840,2,2,B|32:216|112:216|112:216|139:186,2,150
144,336,27740,1,0,0:0:0:0:
136,216,28040,2,2,L|160:128,1,75
184,88,28340,2,6,B|240:56|240:56|288:48|328:96|408:48,1,225,0|4,0:0|0:0,0:0:0:0:
384,272,30440,6,8,L|344:280,2,37.5
360,216,30740,1,0,0:0:0:0:
336,160,30890,2,0,L|304:80,1,75,8|8,0:0|0:0,0:0:0:0:
248,96,31190,6,0,P|176:112|160:112,1,75
152,56,31490,2,0,P|224:40|240:40,1,75
200,96,31790,2,0,P|128:112|112:112,1,75,8|0,0:0|0:0,0:0:0:0:
112,168,32090,2,0,P|184:152|200:152,2,75
112,168,32540,1,0,0:0:0:0:
32,256,32840,6,0,B|64:312|120:272|120:272|152:304|192:272|192:272|216:288|240:280,1,225,8|8,0:0|0:0,0:0:0:0:
288,264,33440,1,8,0:0:0:0:
344,256,33590,6,0,L|424:256,1,75,0|0,0:0|0:0,0:0:0:0:
416,200,33890,2,0,L|336:200,1,75
344,144,34190,2,0,L|432:144,2,75,8|0|0,0:0|0:0|0:0,0:0:0:0:
304,104,34640,1,0,0:0:0:0:
184,72,34940,1,0,0:0:0:0:
224,184,35240,6,0,B|160:208|144:176|144:176|112:184|112:136|112:136|88:144|80:64,1,225,0|8,0:0|0:0,0:0:0:0:
81,75,35840,1,8,0:0:0:0:
40,120,35990,6,0,P|32:192|24:208,1,75
80,232,36290,2,0,P|72:304|64:320,2,75,0|0|8,0:0|0:0|0:0,0:0:0:0:
120,184,36740,1,0,0:0:0:0:
224,240,37040,2,0,P|186:238|150:248,3,75
192,296,37640,1,0,0:0:0:0:
240,336,37790,6,0,P|296:344|352:304,1,112.5,8|0,0:0|0:0,0:0:0:0:
342,316,38090,2,0,P|336:240|352:192,1,112.5
345,206,38390,6,0,B|360:128|360:128|320:56|360:16,1,196.875007510186,8|0,0:0|0:0,0:0:0:0:
336,24,38990,1,8,0:0:0:0:
312,32,39065,1,0,0:0:0:0:
288,40,39140,2,0,P|216:40|176:64,2,112.500004291535
208,88,40040,6,0,L|144:96,1,56.2500021457673,0|8,0:0|0:0,0:0:0:0:
152,144,40340,2,2,L|208:144,2,56.2500021457673,0|0|2,0:0|0:0|0:0,0:0:0:0:
176,200,40790,6,0,P|248:184|264:184,1,75,4|0,0:0|0:0,0:0:0:0:
224,240,41090,2,0,P|152:256|136:256,1,75
168,312,41390,2,0,P|240:296|256:296,1,75,8|0,0:0|0:0,0:0:0:0:
288,256,41690,2,0,P|360:272|376:272,2,75
328,208,42140,1,0,0:0:0:0:
376,96,42440,6,0,B|344:40|288:80|288:80|256:48|216:80|216:80|192:64|168:72,1,225
120,88,43040,1,0,0:0:0:0:
112,144,43190,2,0,L|181:184,1,75
184,240,43490,2,0,L|264:240,1,75
296,288,43790,2,0,L|372:244,2,75,8|0|0,0:0|0:0|0:0,0:0:0:0:
352,264,44240,5,0,0:0:0:0:
352,144,44540,1,0,0:0:0:0:
288,40,44840,2,0,B|224:16|208:48|208:48|176:40|176:88|176:88|152:80|144:160,1,225
104,192,45440,1,8,0:0:0:0:
160,208,45590,6,0,P|152:280|144:296,1,75,8|0,0:0|0:0,0:0:0:0:
96,264,45890,2,0,P|104:336|112:352,2,75,0|0|8,0:0|0:0|0:0,0:0:0:0:
152,272,46340,1,0,0:0:0:0:
176,152,46640,2,0,P|139:161|102:159,3,75
136,112,47240,1,0,0:0:0:0:
192,96,47390,6,0,B|216:80|232:112|232:112|256:96|264:136|264:136|296:120|280:264|392:264,1,300,8|8,0:0|0:0,0:0:0:0:
368,144,48290,1,0,0:0:0:0:
368,144,48440,1,0,0:0:0:0:
256,104,48740,5,0,0:0:0:0:
144,144,49040,5,4,0:0:0:0:
88,240,49340,5,4,0:0:0:0:
256,192,49790,12,4,50390,0:0:0:0:
256,128,50540,5,0,0:0:0:0:
256,160,50690,1,0,0:0:0:0:
256,192,50840,1,0,0:0:0:0:
256,248,50990,6,0,P|224:304|144:312,1,150,8|0,0:0|0:0,0:0:0:0:
256,248,51440,2,0,P|288:304|368:312,1,150,0|0,0:0|0:0,0:0:0:0:
336,232,51890,6,0,P|360:184|352:80,1,150,8|4,0:0|0:0,0:0:0:0:
296,24,52340,1,0,0:0:0:0:
256,104,52490,1,0,0:0:0:0:
216,24,52640,1,0,0:0:0:0:
155,89,52790,1,8,0:0:0:0:
192,176,52940,1,8,0:0:0:0:
96,152,53090,1,0,0:0:0:0:
128,240,53240,1,0,0:0:0:0:
232,280,53390,6,0,L|320:304,2,75,8|8|0,0:0|0:0|0:0,0:0:0:0:
288,216,53840,2,0,P|360:176|440:192,1,150,8|8,0:0|0:0,0:0:0:0:
464,120,54290,5,0,0:0:0:0:
384,32,54590,1,4,0:0:0:0:
384,112,54740,1,0,0:0:0:0:
312,72,54890,1,0,0:0:0:0:
312,152,55040,1,0,0:0:0:0:
240,112,55190,1,8,0:0:0:0:
240,112,55340,1,8,0:0:0:0:
240,32,55790,6,0,P|176:64|160:104,1,112.5,8|0,0:0|0:0,0:0:0:0:
160,112,56090,2,0,P|191:176|232:192,1,112.5,8|0,0:0|0:0,0:0:0:0:
226,191,56390,2,0,P|304:208|352:272,1,150,8|8,0:0|0:0,0:0:0:0:
256,336,56990,5,8,0:0:0:0:
256,336,57140,1,8,0:0:0:0:
104,240,57590,6,0,P|176:208|200:128,1,150,8|0,0:0|0:0,0:0:0:0:
256,120,58040,1,0,0:0:0:0:
310,145,58190,2,0,P|340:212|408:240,1,150,8|8,0:0|0:0,0:0:0:0:
392,296,58640,5,8,0:0:0:0:
344,256,58790,2,0,L|256:264,1,75,8|0,0:0|0:0,0:0:0:0:
232,312,59090,2,0,L|152:296,1,75,8|0,0:0|0:0,0:0:0:0:
104,272,59390,5,4,0:0:0:0:
88,216,59540,1,8,0:0:0:0:
112,160,59690,1,8,0:0:0:0:
160,120,59840,1,8,0:0:0:0:
216,104,59990,6,4,L|296:96,1,75,4|0,0:0|0:0,0:0:0:0:
312,152,60290,2,0,L|237:159,1,75
232,216,60590,1,8,0:0:0:0:
232,216,60740,1,0,0:0:0:0:
328,288,61040,2,0,P|248:344|192:344,1,150,8|8,0:0|0:0,0:0:0:0:
168,296,61490,1,8,0:0:0:0:
136,344,61640,1,0,0:0:0:0:
104,296,61790,6,0,L|80:224,1,75,8|8,0:0|0:0,0:0:0:0:
72,200,62015,1,8,0:0:0:0:
64,168,62090,2,2,P|128:88|184:88,1,150
200,136,62540,1,8,0:0:0:0:
168,88,62690,1,0,0:0:0:0:
144,32,62840,1,0,0:0:0:0:
200,40,62990,6,0,L|280:40,2,75,8|8|0,0:0|0:0|0:0,0:0:0:0:
232,88,63440,2,2,P|304:120|320:192,1,150
264,184,63890,1,0,0:0:0:0:
296,296,64190,6,8,P|248:328|224:336,1,75,8|0,0:0|0:0,0:0:0:0:
192,288,64490,1,0,0:0:0:0:
152,240,64640,2,0,L|72:240,3,75,0|8|0|0,0:0|0:0|0:0|0:0,0:0:0:0:
77,240,65240,1,0,0:0:0:0:
72,184,65390,6,0,P|128:128|160:128,1,112.5,8|0,0:0|0:0,0:0:0:0:
156,127,65690,2,0,L|232:96,3,75,0|0|8|0,0:0|0:0|0:0|0:0,0:0:0:0:
264,48,66290,6,0,B|352:48|352:144,1,150,0|8,0:0|0:0,0:0:0:0:
296,168,66740,2,0,P|304:240|360:288,1,150,8|0,0:0|0:0,0:0:0:0:
376,200,67190,6,2,B|424:160|424:160|424:96,1,112.500004291535
400,24,67490,2,0,B|352:64|352:64|352:128,1,112.500004291535
280,168,67790,6,2,B|216:160|216:160|184:96,2,112.500004291535,0|0|0,0:0|0:0|0:0,0:0:0:0:
272,256,68240,2,2,B|221:256|221:256|181:304,2,112.500004291535,0|0|2,0:0|0:0|0:0,0:0:0:0:
352,216,68690,1,0,0:0:0:0:
440,216,68840,1,0,0:0:0:0:
352,216,68990,1,2,0:0:0:0:
272,256,69290,5,8,0:0:0:0:
208,192,69440,1,8,0:0:0:0:
280,136,69590,6,2,P|256:88|168:64,1,150
40,192,70640,5,8,0:0:0:0:
152,192,70790,1,0,0:0:0:0:
96,192,70940,1,8,0:0:0:0:
208,192,71090,1,0,0:0:0:0:
232,248,71390,6,0,P|256:296|344:320,2,150,8|2|8,0:0|2:2|0:0,0:0:0:0:
464,192,72590,1,8,0:0:0:0:
368,40,73040,6,0,P|328:88|240:96,1,150,8|8,0:0|0:0,0:0:0:0:
232,72,73415,2,0,P|184:48|128:72,1,112.5
176,112,73790,2,0,P|224:136|280:112,1,112.5,12|0,0:0|0:0,0:0:0:0:
296,136,74090,2,0,B|336:168|336:168|384:152|440:160,1,150,0|12,0:0|0:0,0:0:0:0:
256,320,74990,5,12,0:0:0:0:
216,144,75440,2,0,L|216:224,2,75
296,144,75890,2,0,L|296:224,2,75,12|0|12,0:0|0:0|0:0,0:0:0:0:
184,64,76340,1,0,0:0:0:0:
256,80,76490,1,0,0:0:0:0:
328,64,76640,1,0,0:0:0:0:
256,8,76790,6,0,P|224:72|128:112,1,168.750006437302,12|0,0:0|0:0,0:0:0:0:
138,111,77390,1,8,0:0:0:0:
256,376,77690,6,0,P|288:312|384:272,1,168.750006437302,0|8,0:0|0:0,0:0:0:0:
373,272,78290,1,8,0:0:0:0:
304,216,78590,1,8,0:0:0:0:
392,184,78890,5,0,0:0:0:0:
416,144,79040,1,0,0:0:0:0:
440,104,79190,2,2,P|440:56|384:40,1,112.500004291535,8|0,0:0|0:0,0:0:0:0:
385,39,79565,2,0,P|320:56|296:48,1,84.3750032186509,0|8,0:0|0:0,0:0:0:0:
224,88,80090,2,2,L|160:64,2,56.2500021457673
200,128,80540,2,2,P|176:192|176:248,1,112.500004291535
192,248,80915,2,2,P|232:280|328:288,1,140.625005364418
360,208,81590,1,8,0:0:0:0:
256,64,82190,5,8,0:0:0:0:
136,120,82640,2,0,L|144:184,2,56.2500021457673
184,120,83090,2,0,P|264:136|288:160,2,112.500004291535,8|8|8,0:0|0:0|0:0,0:0:0:0:
200,160,83840,1,0,0:0:0:0:
200,208,83990,1,8,0:0:0:0:
184,248,84140,1,0,0:0:0:0:
152,280,84290,1,8,0:0:0:0:
120,200,84590,1,8,0:0:0:0:
96,80,84890,6,2,B|112:128|112:128|40:160|56:208,1,150
144,320,85490,2,2,B|128:272|128:272|200:240|184:192,1,150
256,104,86090,6,2,L|256:264,1,150,2|6,0:0|0:0,0:0:0:0:
280,272,86465,2,0,L|384:336,1,112.5
400,272,86840,2,0,L|328:224,2,75,12|0|0,0:0|0:0|0:0,0:0:0:0:
432,224,87290,1,12,0:0:0:0:
472,176,87440,1,0,0:0:0:0:
392,88,87740,1,12,0:0:0:0:
344,56,87890,6,0,P|272:72|192:56,2,150,0|12|8,0:0|0:0|0:0,0:0:0:0:
184,136,88790,6,0,P|176:184|208:256,2,112.500004291535,0|0|8,0:0|0:0|0:0,0:0:0:0:
224,120,89165,1,8,0:0:0:0:
256,80,89240,1,8,0:0:0:0:
288,120,89315,1,8,0:0:0:0:
328,136,89390,2,0,P|336:184|304:256,2,112.500004291535,8|0|8,0:0|0:0|0:0,0:0:0:0:
400,192,89840,5,8,0:0:0:0:
408,280,89990,2,0,P|360:336|304:328,1,112.500004291535
186,337,90290,2,0,P|132:326|104:280,2,112.500004291535,8|0|8,0:0|0:0|0:0,0:0:0:0:
256,280,90740,1,0,0:0:0:0:
176,232,90890,1,0,0:0:0:0:
256,184,91040,1,0,0:0:0:0:
336,232,91190,6,2,B|384:200|352:112|352:88|352:88|400:96|432:80,1,225.000008583069
176,232,91790,2,2,B|128:200|160:112|160:88|160:88|112:96|80:80,1,225.000008583069
64,168,92240,5,0,0:0:0:0:
128,104,92390,1,8,0:0:0:0:
200,152,92540,1,0,0:0:0:0:
256,80,92690,6,2,B|368:80|384:144|480:136,1,225.000008583069
448,216,93140,1,0,0:0:0:0:
384,280,93290,1,8,0:0:0:0:
312,232,93440,1,0,0:0:0:0:
256,304,93590,6,2,B|144:304|128:240|32:248,2,225.000008583069
160,152,94490,6,0,P|192:120|200:96,2,56.2500021457673,8|0|0,0:0|0:0|0:0,0:0:0:0:
224,192,94790,2,0,B|256:240|256:240|288:192,1,112.500004291535,8|0,0:0|0:0,0:0:0:0:
352,152,95090,2,0,P|320:120|312:96,2,56.2500021457673,8|0|0,0:0|0:0|0:0,0:0:0:0:
440,168,95390,6,0,P|424:240|384:272,1,112.500004291535,8|0,0:0|0:0,0:0:0:0:
304,256,95690,2,0,P|240:264|192:304,1,112.500004291535,8|0,0:0|0:0,0:0:0:0:
96,304,95990,6,0,L|88:240,2,56.2500021457673,8|0|0,0:0|0:0|0:0,0:0:0:0:
160,272,96440,1,0,0:0:0:0:
224,312,96590,2,0,L|232:248,1,56.2500021457673,8|0,0:0|0:0,0:0:0:0:
272,200,96890,2,0,B|232:160|232:160|224:104,2,112.500004291535,8|0|0,0:0|0:0|0:0,0:0:0:0:
336,96,97790,6,8,L|368:88,4,18.75
288,136,98090,1,0,0:0:0:0:
224,136,98240,1,0,0:0:0:0:
176,96,98390,6,0,P|112:120|80:192,1,150,8|0,0:0|0:0,0:0:0:0:
128,224,98840,5,8,0:0:0:0:
184,248,98990,2,0,B|224:256|256:288|288:256|328:248,1,150,8|0,0:0|0:0,0:0:0:0:
384,224,99440,5,8,0:0:0:0:
432,190,99590,2,0,P|403:123|336:96,1,150,8|0,0:0|0:0,0:0:0:0:
280,112,100040,1,8,0:0:0:0:
224,104,100190,6,0,P|120:112|96:152,1,150,8|0,0:0|0:0,0:0:0:0:
120,160,100565,5,0,0:0:0:0:
144,176,100640,2,0,P|192:216|216:224,1,75
176,272,100940,2,0,P|142:254|117:227,2,75
232,304,101390,2,0,P|296:288|344:296,1,112.5,8|0,0:0|0:0,0:0:0:0:
368,296,101690,2,0,P|400:280|408:232,3,75,0|0|8|0,0:0|0:0|0:0|0:0,0:0:0:0:
352,240,102290,6,0,P|336:208|368:96,1,150,8|0,0:0|0:0,0:0:0:0:
312,64,102740,1,0,0:0:0:0:
256,64,102890,1,0,0:0:0:0:
200,64,103040,1,0,0:0:0:0:
136,64,103190,2,8,L|88:64,7,37.5
72,64,103790,6,0,P|48:112|64:208,1,150,8|0,0:0|0:0,0:0:0:0:
88,216,104165,2,0,P|152:208|200:232,1,112.5,8|0,0:0|0:0,0:0:0:0:
224,232,104465,2,0,P|320:248|336:240,1,112.5,0|8,0:0|0:0,0:0:0:0:
280,208,104840,1,0,0:0:0:0:
232,168,104990,6,2,P|224:112|296:64,1,150
320,80,105365,1,0,0:0:0:0:
344,96,105440,1,0,0:0:0:0:
368,112,105515,1,0,0:0:0:0:
392,128,105590,6,2,P|424:224|400:272,1,150
384,280,105965,1,0,0:0:0:0:
352,288,106040,6,2,P|272:272|192:296,1,150
176,280,106415,1,0,0:0:0:0:
144,280,106490,6,2,B|56:280|80:216|80:160,1,150
96,144,106865,1,0,0:0:0:0:
112,120,106940,6,2,P|160:80|240:96,1,150
272,104,107315,1,0,0:0:0:0:
304,96,107390,6,2,B|376:96|376:96|440:224|240:224,1,300,2|4,0:0|0:0,1:1:0:0:
312,272,108140,5,0,0:0:0:0:
360,328,108290,2,0,P|288:344|272:344,1,75
312,288,108590,2,0,P|384:272|400:272,1,75,8|0,0:0|0:0,0:0:0:0:
400,216,108890,2,0,P|328:232|312:232,2,75
400,216,109340,1,0,0:0:0:0:
480,128,109640,6,2,B|448:72|392:112|392:112|360:80|320:112|320:112|296:96|272:104,1,225
224,120,110240,1,0,0:0:0:0:
168,128,110390,6,0,L|88:128,1,75,8|0,0:0|0:0,0:0:0:0:
96,184,110690,2,0,L|176:184,1,75,8|0,0:0|0:0,0:0:0:0:
168,240,110990,2,0,L|80:240,2,75,8|0|0,0:0|0:0|0:0,0:0:0:0:
208,280,111440,1,8,0:0:0:0:
328,312,111740,1,8,0:0:0:0:
288,200,112040,6,2,B|352:176|368:208|368:208|400:200|400:248|400:248|424:240|432:320,1,225,2|10,0:0|0:0,0:0:0:0:
431,309,112640,1,8,0:0:0:0:
472,264,112790,6,0,P|480:192|488:176,1,75,4|0,0:0|0:0,0:0:0:0:
432,152,113090,2,0,P|440:80|448:64,2,75
392,200,113540,1,8,0:0:0:0:
288,144,113840,2,0,P|326:146|362:136,3,75
320,88,114440,1,0,0:0:0:0:
272,48,114590,6,0,P|216:40|160:80,1,112.5,8|0,0:0|0:0,0:0:0:0:
170,68,114890,2,0,P|176:144|160:192,1,112.5
167,178,115190,6,0,B|152:256|152:256|192:328|152:368,1,196.875007510186,8|0,0:0|0:0,0:0:0:0:
176,360,115790,5,0,0:0:0:0:
200,352,115865,1,0,0:0:0:0:
224,344,115940,2,0,P|296:344|336:320,2,112.500004291535,8|8|8,0:0|0:0|0:0,0:0:0:0:
304,296,116840,6,0,L|368:288,1,56.2500021457673
360,240,117140,2,8,L|304:240,3,56.2500021457673,0|0|0|12,0:0|0:0|0:0|0:0,0:0:0:0:
256,192,126590,12,4,127190,0:0:0:0:
216,88,127340,6,0,B|200:128|200:128|216:168,1,75,0|2,0:0|0:0,0:0:0:0:
300,157,127640,2,0,B|312:128|312:128|296:88,1,75,0|2,0:0|0:0,0:0:0:0:
152,88,127940,6,0,B|136:128|136:128|152:168,1,75,0|2,0:0|0:0,0:0:0:0:
364,157,128240,2,0,B|376:128|376:128|360:88,1,75,0|2,0:0|0:0,0:0:0:0:
256,128,128540,6,0,L|256:216,2,75,0|2|0,0:0|0:0|0:0,0:0:0:0:
256,208,128990,6,0,L|256:296,4,75,2|0|2|2|0,0:0|0:0|0:0|0:0|0:0,0:0:0:0:
216,296,129890,6,0,B|200:256|200:256|216:216,1,75,2|0,0:0|0:0,0:0:0:0:
300,226,130190,2,0,B|312:256|312:256|296:296,1,75,2|0,0:0|0:0,0:0:0:0:
152,296,130490,6,0,B|136:256|136:256|152:216,1,75,2|0,0:0|0:0,0:0:0:0:
364,226,130790,2,0,B|376:256|376:256|360:296,1,75,2|0,0:0|0:0,0:0:0:0:
256,256,131090,6,0,L|256:168,2,75,2|0|2,0:0|0:0|0:0,0:0:0:0:
256,181,131540,5,0,0:0:0:0:
256,120,131690,2,2,L|256:96,8,18.75,0|0|0|0|0|0|0|0|6,0:0|0:0|0:0|0:0|0:0|0:0|0:0|0:0|0:0,0:0:0:0:
184,64,132290,6,2,P|256:80|336:64,1,150
328,128,132740,2,2,P|254:141|181:125,1,150
184,184,133190,2,2,P|256:200|336:184,1,150,2|0,0:0|0:0,0:0:0:0:
360,240,133640,5,2,0:0:0:0:
360,240,133790,1,2,0:0:0:0:
256,304,134090,1,6,0:0:0:0:
152,240,134390,1,6,0:0:0:0:
312,56,135290,6,2,B|256:104|256:104|200:56,2,150,0|0|4,0:0|0:0|0:0,0:0:0:0:
336,176,136190,5,2,0:0:0:0:
296,224,136340,1,2,0:0:0:0:
256,272,136490,1,2,0:0:0:0:
216,224,136640,1,2,0:0:0:0:
176,176,136790,6,0,B|176:128|216:104|224:96|216:32,1,150,4|0,0:0|0:0,0:0:0:0:
248,32,137165,1,0,0:0:0:0:
280,40,137240,1,0,0:0:0:0:
312,48,137315,1,0,0:0:0:0:
344,56,137390,6,0,P|408:80|416:160,1,150,8|0,0:0|0:0,0:0:0:0:
416,184,137765,1,0,0:0:0:0:
408,216,137840,1,0,0:0:0:0:
400,248,137915,1,0,0:0:0:0:
392,280,137990,6,0,P|352:304|240:288,2,150,8|0|0,0:0|0:0|0:0,0:0:0:0:
344,248,138740,1,0,0:0:0:0:
296,208,138890,1,8,0:0:0:0:
264,160,139040,1,8,0:0:0:0:
248,96,139190,6,0,P|144:64|104:88,1,150,4|0,0:0|0:0,0:0:0:0:
72,136,139640,1,0,0:0:0:0:
40,192,139790,2,0,P|144:224|184:200,1,150,8|0,0:0|0:0,0:0:0:0:
192,232,140165,5,0,0:0:0:0:
208,256,140240,2,0,P|312:288|352:264,1,150,8|0,0:0|0:0,0:0:0:0:
424,216,140690,6,0,P|320:184|280:208,1,150,8|0,0:0|0:0,0:0:0:0:
248,160,141140,1,0,0:0:0:0:
240,104,141290,1,0,0:0:0:0:
280,56,141440,6,0,P|344:24|424:40,1,150,8|0,0:0|0:0,0:0:0:0:
472,72,141890,2,0,P|408:104|328:88,1,150,8|0,0:0|0:0,0:0:0:0:
296,144,142340,6,0,B|280:176|232:176|232:176|176:248,1,150,8|0,0:0|0:0,0:0:0:0:
160,184,142790,2,0,B|114:242|114:242|66:242|50:274,1,150,8|0,0:0|0:0,0:0:0:0:
104,304,143240,5,0,0:0:0:0:
160,328,143390,1,0,0:0:0:0:
224,328,143540,1,0,0:0:0:0:
280,312,143690,1,0,0:0:0:0:
328,272,143840,1,0,0:0:0:0:
352,216,143990,6,0,L|352:128,1,75,2|0,0:0|0:0,0:0:0:0:
256,64,144440,2,0,L|256:152,1,75,2|0,0:0|0:0,0:0:0:0:
160,216,144890,2,0,L|160:128,2,75,0|0|8,0:0|0:0|0:0,0:0:0:0:
256,245,145340,2,0,L|256:320,1,75,2|0,0:0|0:0,0:0:0:0:
256,200,145790,5,2,0:0:0:0:
256,168,145865,1,2,0:0:0:0:
256,144,145940,1,2,0:0:0:0:
256,88,146090,6,2,L|256:56,8,18.75
256,328,146990,5,8,0:0:0:0:
120,192,147590,5,0,0:0:0:0:
256,56,148190,5,8,0:0:0:0:
344,136,148490,1,8,0:0:0:0:
304,96,148640,1,8,0:0:0:0:
344,136,148790,6,0,P|384:192|384:200,1,75,8|0,0:0|0:0,0:0:0:0:
312,280,149240,2,0,P|256:320|248:320,1,75,8|0,0:0|0:0,0:0:0:0:
168,248,149690,2,0,P|128:192|128:184,1,75,8|0,0:0|0:0,0:0:0:0:
200,104,150140,2,0,P|256:64|264:64,1,75,8|0,0:0|0:0,0:0:0:0:
256,192,150590,5,8,0:0:0:0:
256,192,150890,1,8,0:0:0:0:
253,320,151190,6,0,P|288:308|312:280,1,75,8|0,0:0|0:0,0:0:0:0:
384,194,151640,2,0,P|372:159|344:136,1,75,8|0,0:0|0:0,0:0:0:0:
258,63,152090,2,0,P|223:75|200:104,1,75,8|0,0:0|0:0,0:0:0:0:
127,189,152539,2,0,P|139:224|168:248,1,75,8|0,0:0|0:0,0:0:0:0:
256,192,152990,5,8,0:0:0:0:
256,192,153290,1,8,0:0:0:0:
256,256,153440,1,8,0:0:0:0:
256,320,153590,6,0,B|176:312|176:312|128:256,1,150,4|0,0:0|0:0,0:0:0:0:
128,192,154040,6,8,B|136:112|136:112|192:64,1,150,8|0,0:0|0:0,0:0:0:0:
256,64,154490,6,0,B|336:72|336:72|384:128,1,150,4|0,0:0|0:0,0:0:0:0:
384,192,154940,6,8,B|376:272|376:272|320:320,1,150
256,336,155390,5,0,0:0:0:0:
256,192,155540,1,8,0:0:0:0:
256,264,155690,5,8,0:0:0:0:
256,120,155840,1,8,0:0:0:0:
256,48,155990,5,4,0:0:0:0:
328,288,157190,6,0,B|256:328|256:328|184:288,1,168.750006437302,2|0,0:0|0:0,0:0:0:0:
296,208,158090,2,0,B|320:152|320:152|296:104,2,112.500004291535,2|2|0,0:0|0:0|0:0,0:0:0:0:
256,128,158990,1,0,0:0:0:0:
216,208,159290,2,0,B|192:152|192:152|216:104,3,112.500004291535,2|2|0|0,0:0|0:0|0:0|0:0,0:0:0:0:
128,104,160490,5,2,0:0:0:0:
192,40,160790,1,2,0:0:0:0:
256,104,161090,1,0,0:0:0:0:
320,40,161390,1,0,0:0:0:0:
384,104,161690,1,2,0:0:0:0:
448,40,161990,6,0,P|480:96|440:248,1,225.000008583069,2|0,0:0|0:0,0:0:0:0:
376,184,162890,1,0,0:0:0:0:
376,272,163190,6,2,P|288:304|168:248,1,225.000008583069
256,216,164090,1,0,0:0:0:0:
344,192,164390,1,2,0:0:0:0:
384,112,164690,1,0,0:0:0:0:
344,32,164990,1,0,0:0:0:0:
256,48,165327,1,2,0:0:0:0:
256,48,165590,6,4,L|256:208,1,150,0|0,0:0|0:0,0:0:0:0:
400,191,166190,6,4,L|240:192,1,150
256,336,166790,6,4,L|256:176,1,150
112,192,167390,6,4,L|272:192,2,150
154,90,168290,5,4,0:0:0:0:
357,90,168590,1,4,0:0:0:0:
357,293,168890,5,4,0:0:0:0:
154,293,169190,1,4,0:0:0:0:
400,192,169490,5,4,0:0:0:0:
256,48,169790,1,4,0:0:0:0:
112,192,170090,5,4,0:0:0:0:
256,352,170390,6,4,B|256:304|256:304|224:288|288:288|256:272|256:272|256:208,1,150
256,32,170990,6,4,B|256:80|256:80|224:96|288:96|256:112|256:112|256:176,1,150
96,192,171590,6,4,B|144:192|144:192|160:160|160:224|176:192|176:192|240:192,1,150
416,192,172190,6,4,B|368:192|368:192|352:160|352:224|336:192|336:192|272:192,1,150
256,336,174290,5,0,0:0:0:0:
131,120,174590,5,0,0:0:0:0:
380,119,174890,5,0,0:0:0:0:
328,248,175190,6,0,P|336:200|304:128,2,112.500004291535,0|0|8,0:0|0:0|0:0,0:0:0:0:
288,264,175565,1,8,0:0:0:0:
256,304,175640,1,8,0:0:0:0:
224,264,175715,1,8,0:0:0:0:
184,248,175790,2,0,P|176:200|208:128,2,112.500004291535,8|0|8,0:0|0:0|0:0,0:0:0:0:
112,192,176240,5,8,0:0:0:0:
104,104,176390,2,0,P|152:48|208:56,1,112.500004291535
326,47,176690,2,0,P|380:58|408:104,2,112.500004291535,8|0|8,0:0|0:0|0:0,0:0:0:0:
256,104,177140,1,0,0:0:0:0:
336,152,177290,1,0,0:0:0:0:
256,200,177440,1,0,0:0:0:0:
176,152,177590,6,2,B|128:184|160:272|160:296|160:296|112:288|80:304,1,225.000008583069
336,152,178190,2,2,B|384:184|352:272|352:296|352:296|400:288|432:304,1,225.000008583069
448,216,178640,5,0,0:0:0:0:
384,280,178790,1,8,0:0:0:0:
312,232,178940,1,0,0:0:0:0:
256,304,179090,6,2,B|144:304|128:240|32:248,1,225.000008583069
64,168,179540,1,0,0:0:0:0:
128,104,179690,1,8,0:0:0:0:
200,152,179840,1,0,0:0:0:0:
256,80,179990,6,2,B|368:80|384:144|480:136,2,225.000008583069
352,232,180890,6,0,P|320:264|312:288,2,56.2500021457673,8|0|0,0:0|0:0|0:0,0:0:0:0:
288,192,181190,2,0,B|256:144|256:144|224:192,1,112.500004291535,8|0,0:0|0:0,0:0:0:0:
160,232,181490,2,0,P|192:264|200:288,2,56.2500021457673,8|0|0,0:0|0:0|0:0,0:0:0:0:
72,216,181790,6,0,P|88:144|128:112,1,112.500004291535,8|0,0:0|0:0,0:0:0:0:
208,128,182090,2,0,P|272:120|320:80,1,112.500004291535,8|0,0:0|0:0,0:0:0:0:
416,80,182390,6,0,L|424:144,2,56.2500021457673,8|0|0,0:0|0:0|0:0,0:0:0:0:
352,112,182840,1,0,0:0:0:0:
288,72,182990,2,0,L|280:136,1,56.2500021457673,8|0,0:0|0:0,0:0:0:0:
240,184,183290,2,0,B|280:224|280:224|288:280,2,112.500004291535,8|0|0,0:0|0:0|0:0,0:0:0:0:
176,288,184190,6,8,L|144:296,4,18.75
224,248,184490,1,0,0:0:0:0:
288,248,184640,1,0,0:0:0:0:
336,288,184790,6,0,P|400:264|432:192,1,150,8|0,0:0|0:0,0:0:0:0:
384,160,185240,5,8,0:0:0:0:
328,136,185390,2,0,B|288:128|256:96|224:128|184:136,1,150,8|0,0:0|0:0,0:0:0:0:
128,160,185840,5,8,0:0:0:0:
80,194,185990,2,0,P|109:261|176:288,1,150,8|0,0:0|0:0,0:0:0:0:
232,272,186440,1,8,0:0:0:0:
288,280,186590,6,0,P|392:272|416:232,1,150,8|0,0:0|0:0,0:0:0:0:
392,224,186965,5,0,0:0:0:0:
368,208,187040,2,0,P|320:168|296:160,1,75
336,112,187340,2,0,P|370:130|395:157,2,75
280,80,187790,2,0,P|216:96|168:88,1,112.5,8|0,0:0|0:0,0:0:0:0:
144,88,188090,2,0,P|112:104|104:152,3,75,0|0|8|0,0:0|0:0|0:0|0:0,0:0:0:0:
160,144,188690,6,0,P|176:176|144:288,1,150,8|0,0:0|0:0,0:0:0:0:
200,320,189140,1,0,0:0:0:0:
256,320,189290,1,0,0:0:0:0:
312,320,189440,1,0,0:0:0:0:
376,320,189590,2,8,L|424:320,7,37.5
440,320,190190,6,0,P|464:272|448:176,1,150,8|0,0:0|0:0,0:0:0:0:
424,168,190565,2,0,P|360:176|312:152,1,112.5,8|0,0:0|0:0,0:0:0:0:
288,152,190865,2,0,P|192:136|176:144,1,112.5,0|8,0:0|0:0,0:0:0:0:
232,176,191240,1,0,0:0:0:0:
280,216,191390,6,2,P|288:272|216:320,1,150
192,304,191765,1,0,0:0:0:0:
168,288,191840,1,0,0:0:0:0:
144,272,191915,1,0,0:0:0:0:
120,256,191990,6,2,P|88:160|112:112,1,150
128,104,192365,1,0,0:0:0:0:
160,96,192440,6,2,P|240:112|320:88,1,150
336,104,192815,1,0,0:0:0:0:
368,104,192890,6,2,B|456:104|432:168|432:224,1,150
416,240,193265,1,0,0:0:0:0:
400,264,193340,6,2,P|352:304|272:288,1,150
240,280,193715,1,0,0:0:0:0:
208,288,193790,6,2,B|136:288|136:288|72:160|272:160,1,300,2|4,0:0|0:0,1:1:0:0:
280,40,194690,5,0,0:0:0:0:
392,88,194990,6,0,P|416:176|400:200,1,112.5
320,160,195440,6,0,P|296:248|312:272,1,112.5
152,272,196040,6,0,B|176:312|176:312|264:296|328:336,2,187.5,4|4|4,1:0|0:0|1:0,0:0:0:0:
256,192,197015,12,4,197540,1:0:0:0:
72,240,198290,5,4,1:0:0:0:
440,248,199265,1,2,0:0:0:0:
