osu file format v14

[General]
AudioFilename: 06.+Be My Sacrifice+.mp3
AudioLeadIn: 0
PreviewTime: -1
Countdown: 1
SampleSet: Normal
StackLeniency: 0.7
Mode: 0
LetterboxInBreaks: 1
WidescreenStoryboard: 1

[Editor]
Bookmarks: 28790,50390
DistanceSpacing: 0.8
BeatDivisor: 4
GridSize: 8
TimelineZoom: 1

[Metadata]
Title:+Be My Sacrifice+
TitleUnicode:+Be My Sacrifice+
Artist:Yuyoyuppe
ArtistUnicode:ゆよゆっぺ
Creator:gasuton neko
Version:Normal
Source:For a sick boy
Tags:Vocaloid metal rock Hatsune Miku
BeatmapID:649699
BeatmapSetID:288039

[Difficulty]
HPDrainRate:5
CircleSize:3.5
OverallDifficulty:7
ApproachRate:6
SliderMultiplier:2
SliderTickRate:1

[Events]
//Background and Video events
0,0,"Miku.jpg",0,0
//Break Periods
//Storyboard Layer 0 (Background)
//Storyboard Layer 1 (Fail)
//Storyboard Layer 2 (Pass)
//Storyboard Layer 3 (Foreground)
//Storyboard Sound Samples

[TimingPoints]
2390,600,4,1,0,50,1,0
69290,-200,4,1,0,50,0,0
71090,-100,4,1,0,50,0,0
76790,-133.333333333333,4,1,0,50,0,0
84890,-100,4,1,0,50,0,0
88790,-133.333333333333,4,1,0,50,0,1
107390,-100,4,1,0,50,0,1
107990,-100,4,3,0,50,0,0

[Colours]
Combo1 : 188,254,252
Combo2 : 100,0,100
Combo3 : 0,103,230
Combo4 : 9,221,216

[HitObjects]
112,296,50990,6,0,P|88:216|112:128,1,150,8|0,0:0|0:0,0:0:0:0:
184,64,51890,2,0,L|192:168,2,100,0|8|0,0:0|0:0|0:0,0:0:0:0:
256,104,52790,5,0,0:0:0:0:
256,104,53090,1,0,0:0:0:0:
328,63,53390,6,0,P|304:134|315:207,2,150,8|0|0,0:0|0:0|0:0,0:0:0:0:
408,72,54590,2,0,P|419:145|360:272,1,200,8|0,0:0|0:0,0:0:0:0:
216,264,55790,2,0,L|96:240,1,100,8|0,0:0|0:0,0:0:0:0:
88,320,56390,2,0,L|208:344,3,100,0|0|8|0,0:0|0:0|0:0|0:0,0:0:0:0:
264,328,57590,5,0,0:0:0:0:
352,192,58190,2,0,B|416:312|280:152|192:288,2,200,8|0|8,0:0|0:0|0:0,0:0:0:0:
368,112,59690,1,4,0:0:0:0:
440,80,59990,1,4,0:0:0:0:
288,32,60590,6,0,P|216:64|112:48,2,150,8|0|0,0:0|0:0|0:0,0:0:0:0:
360,64,61790,2,0,P|328:128|272:136,3,100,8|0|0|0,0:0|0:0|0:0|0:0,0:0:0:0:
224,152,62990,2,0,P|240:240|320:272,2,150,8|0|0,0:0|0:0|0:0,0:0:0:0:
144,152,64190,1,8,0:0:0:0:
184,224,64490,1,0,0:0:0:0:
264,224,64790,1,0,0:0:0:0:
296,336,65390,6,0,P|216:272|144:288,2,150,8|0|0,0:0|0:0|0:0,0:0:0:0:
216,336,66590,2,0,P|144:336|104:312,1,100,8|0,0:0|0:0,0:0:0:0:
72,256,67190,6,2,L|72:128,1,100,2|0,0:0|0:0,0:0:0:0:
152,136,67790,2,2,L|152:248,1,100
232,224,68390,2,2,L|232:104,1,100
232,48,68990,5,0,0:0:0:0:
312,48,69290,6,2,P|344:120|312:192,2,150,2|10|2,0:0|0:0|0:0,0:0:0:0:
232,48,71390,2,0,P|184:128|232:232,2,200
256,200,73190,6,0,L|256:320,1,100
176,296,73790,2,0,P|96:280|56:216,2,150,8|8|0,0:0|0:0|0:0,0:0:0:0:
256,296,74990,1,8,0:0:0:0:
336,296,75290,2,0,P|416:280|456:216,2,150,0|0|8,0:0|0:0|0:0,0:0:0:0:
304,224,76490,5,0,0:0:0:0:
360,152,76790,2,0,P|304:104|224:104,1,150.000005722046,0|8,0:0|0:0,0:0:0:0:
168,152,77690,2,0,P|112:104|32:104,2,150
216,120,79190,1,0,0:0:0:0:
272,104,79490,1,0,0:0:0:0:
328,120,79790,1,8,0:0:0:0:
336,240,80390,6,0,P|400:256|488:240,1,150.000005722046,0|8,0:0|0:0,0:0:0:0:
472,184,81290,2,0,P|480:96|456:40,1,150.000005722046
408,80,82190,2,0,P|288:96|248:88,2,150.000005722046,8|0|8,0:0|0:0|0:0,0:0:0:0:
400,136,83690,5,0,0:0:0:0:
352,248,84290,1,0,0:0:0:0:
264,160,84890,2,0,P|136:128|80:176,2,200,2|2|2,0:0|0:0|0:0,0:0:0:0:
280,240,86390,6,8,P|336:264|456:232,3,150,8|8|8|0,0:0|0:0|0:0|0:0,0:0:0:0:
360,152,88190,1,4,0:0:0:0:
256,88,88790,6,2,P|168:104|112:80,1,150.000005722046,0|8,0:0|0:0,0:0:0:0:
80,128,89690,2,0,P|48:176|40:232,1,112.500004291535
96,296,90590,2,0,P|128:248|136:192,1,112.500004291535,8|0,0:0|0:0,0:0:0:0:
136,192,91190,6,0,P|200:150|264:174,1,150.000005722046,2|8,0:0|0:0,0:0:0:0:
296,240,92090,2,0,B|310:295|310:295|336:288|336:288|352:352,2,150.000005722046,2|2|0,0:0|0:0|0:0,0:0:0:0:
344,208,93590,6,2,B|424:176|424:176|408:144|408:144|464:112,1,150.000005722046,2|0,0:0|0:0,0:0:0:0:
480,96,94490,2,0,L|456:56,1,37.5000014305115,8|0,0:0|0:0,0:0:0:0:
400,80,94940,2,0,L|424:120,1,37.5000014305115,8|0,0:0|0:0,0:0:0:0:
376,152,95390,6,0,B|304:176|304:176|264:240,2,150.000005722046
376,152,96890,1,0,0:0:0:0:
256,136,97490,1,0,0:0:0:0:
200,144,97790,1,8,0:0:0:0:
144,136,98090,1,0,0:0:0:0:
88,104,98390,6,2,B|48:176|48:176|96:184|96:184|64:216|64:216|112:216|112:216|88:336|288:336,1,450.000017166138,2|8,0:0|0:0,0:0:0:0:
272,280,100490,5,0,0:0:0:0:
328,288,100790,2,0,P|376:264|416:216,2,112.500004291535,0|0|2,0:0|0:0|0:0,0:0:0:0:
256,192,102290,2,2,P|200:168|168:80,1,150.000005722046,2|0,0:0|0:0,0:0:0:0:
224,88,103190,6,2,P|200:157|135:190,1,150.000005722046
96,232,104090,2,0,L|72:272,1,37.5000014305115,8|0,0:0|0:0,0:0:0:0:
136,288,104540,2,0,L|160:248,1,37.5000014305115,8|0,0:0|0:0,0:0:0:0:
216,240,104990,6,2,P|304:224|368:248,1,150.000005722046,2|4,0:0|0:0,0:0:0:0:
448,240,106040,1,4,0:0:0:0:
480,160,106490,1,4,0:0:0:0:
408,112,106940,1,4,0:0:0:0:
336,160,107390,6,2,B|312:160|312:160|264:160|264:160|288:160|288:160|240:160|240:160|144:160,1,200,2|4,0:0|0:0,0:0:0:0:
