osu file format v14

[General]
AudioFilename: 06.+Be My Sacrifice+.mp3
AudioLeadIn: 0
PreviewTime: -1
Countdown: 1
SampleSet: Normal
StackLeniency: 0.9
Mode: 0
LetterboxInBreaks: 1
WidescreenStoryboard: 1

[Editor]
Bookmarks: 28790,50390,127190,136790,172790
DistanceSpacing: 0.8
BeatDivisor: 8
GridSize: 8
TimelineZoom: 2.1

[Metadata]
Title:+Be My Sacrifice+
TitleUnicode:+Be My Sacrifice+
Artist:Yuyoyuppe
ArtistUnicode:ゆよゆっぺ
Creator:gasuton neko
Version:Insane
Source:For a sick boy
Tags:Vocaloid metal rock Hatsune Miku
BeatmapID:649698
BeatmapSetID:288039

[Difficulty]
HPDrainRate:8
CircleSize:5
OverallDifficulty:9
ApproachRate:9
SliderMultiplier:2
SliderTickRate:2

[Events]
//Background and Video events
0,0,"Miku.jpg",0,0
//Break Periods
2,117790,126590
2,146590,152990
//Storyboard Layer 0 (Background)
//Storyboard Layer 1 (Fail)
//Storyboard Layer 2 (Pass)
//Storyboard Layer 3 (Foreground)
//Storyboard Sound Samples

[TimingPoints]
2390,600,4,1,0,15,1,0
31190,-100,4,1,0,25,0,0
49040,-200,4,1,0,50,0,0
50390,-200,4,1,0,50,0,0
50990,-100,4,1,0,50,0,0
69290,-200,4,1,0,50,0,0
70490,-100,4,1,0,50,0,0
76790,-133.333333333333,4,1,0,50,0,0
84890,-100,4,1,0,50,0,0
88790,-66.6666666666667,4,1,0,50,0,1
95990,-133.333333333333,4,1,0,50,0,1
97490,-100,4,1,0,50,0,1
107990,-100,4,3,0,50,0,1
108065,-100,4,1,0,50,0,0
117290,-66.6666666666667,4,1,0,50,0,0
127190,-100,4,2,0,30,0,0
136790,-100,4,3,0,50,0,1
146090,-100,4,1,0,50,0,0
146390,-100,4,3,0,50,0,0
155990,-133.333333333333,4,2,0,50,0,0
165590,-100,4,1,0,50,0,0
172490,1200,4,1,0,50,1,0
172490,-200,4,1,0,5,0,0
174290,600,4,1,0,50,1,0
175190,-66.6666666666667,4,1,0,50,0,1
182390,-133.333333333333,4,1,0,50,0,1
183890,-100,4,1,0,50,0,1
194390,-100,4,3,0,50,0,0

[Colours]
Combo1 : 188,254,252
Combo2 : 100,0,100
Combo3 : 0,103,230
Combo4 : 9,221,216

[HitObjects]
368,272,28790,6,0,P|288:304|224:296,1,150
160,336,29540,2,0,P|139:290|133:241,2,100
200,264,30440,6,0,L|248:208,1,50,0|8,0:0|0:0,0:0:0:0:
312,232,30890,2,0,L|376:272,1,50,8|0,0:0|0:0,0:0:0:0:
384,232,31190,6,0,P|456:176|448:136,1,100,4|0,0:0|0:0,0:0:0:0:
480,144,31640,2,0,P|431:136|383:152,1,100
336,216,32240,2,0,P|385:222|431:206,1,100
384,144,32840,6,0,L|464:112,2,50,8|0|8,0:0|0:0|0:0,0:0:0:0:
312,120,33290,2,0,B|288:176|288:176|256:176|240:200,1,100
224,216,33740,1,0,0:0:0:0:
184,224,33890,1,0,0:0:0:0:
144,208,34040,6,0,B|136:152|136:152|152:104,1,100,8|0,0:0|0:0,0:0:0:0:
72,104,34640,2,0,B|58:145|58:145|66:201,1,100,8|0,0:0|0:0,0:0:0:0:
56,280,35240,6,0,L|-8:312,2,50,8|0|8,0:0|0:0|0:0,0:0:0:0:
96,280,35690,2,0,B|112:296|112:296|96:312|96:312|80:328|80:328|96:344|96:344|102:350,1,100
144,352,36140,1,0,0:0:0:0:
184,352,36290,6,0,L|240:336,1,50,0|0,0:0|0:0,0:0:0:0:
272,336,36590,1,8,0:0:0:0:
312,336,36740,2,0,B|347:305|347:305|371:257,2,100
296,256,37640,6,2,L|328:200,2,50
256,256,38090,2,2,B|216:208|216:208|208:160,1,100,2|4,0:0|0:0,0:0:0:0:
216,128,38540,6,0,L|152:104,2,50
256,128,38990,1,0,0:0:0:0:
288,104,39140,2,0,B|352:136|352:136|376:176,2,100,8|0|8,0:0|0:0|0:0,0:0:0:0:
296,184,40040,6,2,B|256:232|256:232|224:224|208:232|120:256|88:176,1,250
136,112,41090,5,8,0:0:0:0:
136,112,41240,1,8,0:0:0:0:
80,56,41540,2,0,P|144:32|184:48,2,100
56,88,42290,5,0,0:0:0:0:
64,128,42440,1,0,0:0:0:0:
96,152,42590,2,2,B|136:184|136:184|96:240|184:288|216:208,1,200
264,160,43490,5,0,0:0:0:0:
264,160,43640,1,8,0:0:0:0:
320,96,43940,2,0,P|408:88|432:96,1,100,0|8,0:0|0:0,0:0:0:0:
416,8,44540,2,0,P|366:1|318:13,1,100
280,24,44990,5,0,0:0:0:0:
240,24,45140,2,2,B|152:56|184:-16|88:32,1,150
64,104,45890,5,0,0:0:0:0:
64,104,46040,1,8,0:0:0:0:
136,144,46340,2,0,B|168:192|168:192|176:248,1,100,0|8,0:0|0:0,0:0:0:0:
248,208,46940,2,0,B|242:166|242:166|210:118,1,100
232,80,47390,5,0,0:0:0:0:
272,80,47540,2,0,P|352:72|392:88,1,100
400,104,47990,6,0,P|448:184|440:224,1,100,8|0,0:0|0:0,0:0:0:0:
440,224,48440,2,0,P|376:232|320:272,1,100,8|0,0:0|0:0,0:0:0:0:
312,264,48890,1,0,0:0:0:0:
312,264,49040,2,0,L|240:272,1,50,8|8,0:0|0:0,0:0:0:0:
256,192,49640,12,4,50390,0:0:0:0:
128,272,50990,6,0,L|208:256,2,50,12|0|0,0:0|0:0|0:0,0:0:0:0:
104,240,51440,2,0,B|72:184|72:184|80:120,1,100
96,112,51890,1,0,0:0:0:0:
152,56,52190,1,8,0:0:0:0:
192,56,52340,2,0,B|256:48|256:48|304:64|304:64|360:48|360:48,1,150,0|8,0:0|0:0,0:0:0:0:
376,48,52940,1,8,0:0:0:0:
464,128,53390,6,0,B|416:160|416:160|416:192|400:208,1,100,8|0,0:0|0:0,0:0:0:0:
376,224,53840,2,0,B|360:240|360:240|304:224|272:272,1,100
248,256,54290,1,0,0:0:0:0:
168,280,54590,2,0,B|128:248|128:248|96:248|64:232|64:184,1,150,8|0,0:0|0:0,0:0:0:0:
104,176,55190,1,0,0:0:0:0:
136,152,55340,1,0,0:0:0:0:
248,104,55790,6,0,L|264:56,2,50,8|0|0,0:0|0:0|0:0,0:0:0:0:
280,128,56240,2,0,P|392:144|408:144,1,100
416,136,56690,1,0,0:0:0:0:
480,184,56990,2,0,B|472:214|448:224|448:224|464:246|448:280,2,100,8|0|8,0:0|0:0|0:0,0:0:0:0:
464,144,57740,5,8,0:0:0:0:
400,200,58040,1,0,0:0:0:0:
360,200,58190,2,0,P|264:192|240:176,1,100,8|0,0:0|0:0,0:0:0:0:
224,208,58640,2,0,L|168:216,3,50,0|8|0|0,0:0|0:0|0:0|0:0,0:0:0:0:
112,160,59390,6,0,P|56:184|32:224,1,100,8|0,0:0|0:0,0:0:0:0:
48,256,59840,1,0,0:0:0:0:
80,280,59990,2,0,L|112:320,2,50
160,256,60590,6,0,L|248:256,1,50,12|0,0:0|0:0,0:0:0:0:
256,192,61040,2,0,L|168:192,2,50,0|0|0,0:0|0:0|0:0,0:0:0:0:
296,184,61490,2,0,L|320:56,1,100,0|8,0:0|0:0,0:0:0:0:
272,80,61940,2,0,B|200:88|184:64|184:64|128:64,1,150,0|8,0:0|0:0,0:0:0:0:
128,64,62540,1,8,0:0:0:0:
32,136,62990,6,0,L|104:144,2,50,8|0|0,0:0|0:0|0:0,0:0:0:0:
32,176,63440,2,0,P|40:240|72:304,1,100
52,272,63890,1,0,0:0:0:0:
128,296,64190,6,0,L|208:304,2,50,0|8|8,0:0|0:0|0:0,0:0:0:0:
152,224,64790,2,0,L|201:228,2,50,0|0|8,0:0|0:0|0:0,0:0:0:0:
176,144,65390,6,0,L|225:139,3,50,8|0|0|0,0:0|0:0|0:0|0:0,0:0:0:0:
264,120,65990,2,0,L|320:104,2,50,8|0|0,0:0|0:0|0:0,0:0:0:0:
304,184,66590,1,8,0:0:0:0:
304,184,66740,1,8,0:0:0:0:
408,120,67190,6,0,L|408:248,1,100,4|0,0:0|0:0,0:0:0:0:
344,272,67790,2,0,L|344:152,1,100,4|0,0:0|0:0,0:0:0:0:
344,136,68240,2,0,L|344:80,3,50
264,72,68990,5,0,0:0:0:0:
224,72,69290,1,0,0:0:0:0:
208,88,69440,1,0,0:0:0:0:
192,104,69590,2,2,B|144:136|144:136|96:128|88:128,1,100
48,192,70490,6,0,L|40:288,2,50
128,200,70940,2,0,L|224:208,2,50
80,264,71390,2,0,B|114:310|114:310|198:347,1,150
288,336,71990,2,0,B|336:304|336:304|320:224|384:160,1,200,8|0,0:0|0:0,0:0:0:0:
336,112,72890,5,0,0:0:0:0:
416,112,73190,2,0,L|501:196,1,100,8|0,0:0|0:0,0:0:0:0:
456,320,73790,2,0,B|392:344|392:344|304:296,1,150,8|0,0:0|0:0,0:0:0:0:
320,304,74390,1,0,0:0:0:0:
256,160,74990,5,8,0:0:0:0:
304,96,75290,2,0,B|337:134|337:134|408:144,1,100
456,104,75890,2,0,B|422:65|422:65|352:56,2,100
456,144,76640,1,0,0:0:0:0:
456,144,76790,6,0,B|414:205|414:205|336:226,1,150.000005722046,0|8,0:0|0:0,0:0:0:0:
328,168,77690,2,0,L|272:136,1,37.5000014305115,0|8,0:0|0:0,0:0:0:0:
184,168,78140,2,0,L|240:136,1,37.5000014305115,0|8,0:0|0:0,0:0:0:0:
256,104,78590,1,0,0:0:0:0:
304,64,78890,6,0,L|248:32,2,37.5000014305115,2|0|0,0:0|0:0|0:0,0:0:0:0:
328,80,79340,1,0,0:0:0:0:
352,96,79490,2,0,L|320:152,2,37.5000014305115,2|0|0,0:0|0:0|0:0,0:0:0:0:
376,104,79940,1,0,0:0:0:0:
400,120,80090,2,0,L|448:144,2,37.5000014305115,2|0|0,0:0|0:0|0:0,0:0:0:0:
448,152,80690,2,2,P|448:216|424:240,1,75.0000028610231
384,232,81290,2,0,L|352:256,2,37.5000014305115,8|0|8,0:0|0:0|0:0,0:0:0:0:
328,200,81890,5,8,0:0:0:0:
272,208,82190,2,0,B|200:216|176:168|176:168|120:176,1,150.000005722046,8|0,0:0|0:0,0:0:0:0:
80,200,83090,2,0,P|64:160|72:112,1,75.0000028610231,2|2,0:0|0:0,0:0:0:0:
120,104,83690,2,0,L|168:88,1,37.5000014305115,2|0,0:0|0:0,0:0:0:0:
184,88,83990,2,0,L|224:96,2,37.5000014305115
216,144,84590,1,0,0:0:0:0:
144,176,84890,6,0,P|136:256|160:312,1,100,2|0,0:0|0:0,0:0:0:0:
176,296,85340,1,0,0:0:0:0:
216,304,85490,2,0,P|265:311|313:300,1,100,2|0,0:0|0:0,0:0:0:0:
352,296,85940,1,0,0:0:0:0:
368,256,86090,1,0,0:0:0:0:
432,208,86390,6,0,L|432:144,1,50,8|0,0:0|0:0,0:0:0:0:
368,112,86840,2,0,L|368:192,1,50,8|0,0:0|0:0,0:0:0:0:
304,208,87290,2,0,L|304:158,1,50,8|0,0:0|0:0,0:0:0:0:
240,112,87740,2,0,L|240:192,1,50,8|0,0:0|0:0,0:0:0:0:
176,112,88190,5,0,0:0:0:0:
208,40,88490,1,0,0:0:0:0:
88,64,88790,6,0,P|40:168|40:216,1,150.000005722046,4|0,0:0|0:0,0:0:0:0:
56,256,89240,1,0,0:0:0:0:
96,296,89390,2,0,P|192:256|192:216,1,150.000005722046,8|0,0:0|0:0,0:0:0:0:
144,184,89840,5,0,0:0:0:0:
200,160,89990,2,0,P|216:120|272:104,1,75.0000028610231
304,104,90290,2,0,P|288:144|232:160,1,75.0000028610231
232,216,90590,6,0,L|232:320,2,75.0000028610231,8|0|0,0:0|0:0|0:0,0:0:0:0:
288,232,91040,1,0,0:0:0:0:
336,264,91190,6,0,P|432:280|456:240,1,150.000005722046
408,216,91640,2,0,L|408:136,2,75.0000028610231,0|8|0,0:0|0:0|0:0,0:0:0:0:
352,200,92090,6,0,B|272:184|272:184|200:216,1,150.000005722046
192,96,92690,2,0,B|254:68|254:68|334:84,1,150.000005722046,0|8,0:0|0:0,0:0:0:0:
440,144,93290,6,0,P|448:216|424:248,2,75.0000028610231,0|0|12,0:0|0:0|0:0,0:0:0:0:
384,168,93740,1,0,0:0:0:0:
328,160,93890,1,0,0:0:0:0:
280,128,94040,1,0,0:0:0:0:
256,72,94190,1,0,0:0:0:0:
136,96,94490,6,0,L|144:192,1,75.0000028610231
24,200,94940,2,0,L|16:104,1,75.0000028610231
88,224,95390,2,0,L|96:320,3,75.0000028610231
152,312,95990,6,0,L|232:320,1,75.0000028610231,8|0,0:0|0:0,0:0:0:0:
256,320,96440,2,0,L|344:280,1,75.0000028610231
344,272,96890,1,0,0:0:0:0:
360,248,97040,1,0,0:0:0:0:
368,216,97190,1,8,0:0:0:0:
360,184,97340,1,0,0:0:0:0:
352,144,97490,6,0,L|216:144,1,100
224,112,97940,2,0,L|176:112,4,25
248,144,98390,6,0,P|229:239|151:298,1,200,12|0,0:0|0:0,0:0:0:0:
136,224,99290,2,0,L|152:136,1,50,8|0,0:0|0:0,0:0:0:0:
72,144,99740,2,0,L|56:232,1,50,8|0,0:0|0:0,0:0:0:0:
64,272,100190,1,0,0:0:0:0:
128,320,100490,1,0,0:0:0:0:
168,328,100640,1,0,0:0:0:0:
208,320,100790,6,0,B|272:280|272:280|312:200,1,150,8|0,0:0|0:0,0:0:0:0:
336,192,101390,1,0,0:0:0:0:
336,152,101540,1,0,0:0:0:0:
304,128,101690,6,2,B|374:104|374:104|448:121,1,150,8|0,0:0|0:0,0:0:0:0:
448,160,102290,6,2,B|432:208|432:208|440:256,1,100
416,288,102740,1,0,0:0:0:0:
376,304,102890,1,0,0:0:0:0:
336,304,103040,1,0,0:0:0:0:
296,288,103190,6,2,B|248:256|248:256|160:280|96:232,1,200,4|0,0:0|0:0,0:0:0:0:
112,160,104090,6,0,L|88:120,1,37.5000014305115,8|0,0:0|0:0,0:0:0:0:
160,72,104540,2,0,L|184:112,1,37.5000014305115,8|0,0:0|0:0,0:0:0:0:
200,192,104990,2,0,P|312:264|368:264,1,150,0|0,0:0|0:0,0:0:0:0:
368,256,105590,6,0,L|432:232,1,50,4|0,0:0|0:0,0:0:0:0:
344,200,106040,2,0,L|360:128,1,50,4|0,0:0|0:0,0:0:0:0:
280,184,106490,2,0,L|232:136,1,50,4|0,0:0|0:0,0:0:0:0:
224,224,106940,2,0,L|168:192,1,50,4|0,0:0|0:0,0:0:0:0:
168,280,107390,6,2,L|136:280,4,25
240,312,107990,6,0,B|280:312|280:288|280:288|304:299|336:280,1,100
352,256,108440,1,0,0:0:0:0:
376,224,108590,2,0,L|424:200,2,50
336,216,109040,2,0,P|264:208|240:192,1,100
176,144,109640,6,2,B|136:144|136:144|144:176|144:176|112:168|112:168|128:200|128:200|72:216|72:288,1,250
72,320,110540,1,0,0:0:0:0:
112,328,110690,2,0,L|176:336,2,50
128,288,111140,1,0,0:0:0:0:
200,248,111440,1,0,0:0:0:0:
256,304,111740,1,0,0:0:0:0:
312,248,112040,2,2,B|328:256|328:256|328:232|328:232|344:248|344:248|344:224|344:224|368:232|368:232|360:208|360:208|416:216|408:176|464:184,1,250
488,152,112940,2,0,L|488:96,3,50
448,88,113540,2,0,P|376:64|336:72,1,100
280,104,114140,2,0,P|352:128|392:120,1,100
368,168,114590,2,2,B|384:208|384:208|336:200|336:200|336:264|240:248,1,200
216,256,115340,2,0,L|144:272,2,50
216,216,115790,1,0,0:0:0:0:
200,176,115940,2,0,P|144:120|112:112,2,100
144,240,116840,1,0,0:0:0:0:
144,280,116990,1,0,0:0:0:0:
168,312,117140,1,0,0:0:0:0:
208,320,117290,6,2,L|240:320,4,18.7500007152558
208,256,117590,5,4,0:0:0:0:
72,80,127190,6,0,L|64:136,2,50,6|0|0,0:0|0:0|0:0,0:0:0:0:
112,88,127640,1,0,0:0:0:0:
152,96,127790,2,0,L|160:40,2,50,2|0|0,0:0|0:0|0:0,0:0:0:0:
192,104,128240,1,0,0:0:0:0:
232,112,128390,2,0,L|224:168,2,50,2|0|0,0:0|0:0|0:0,0:0:0:0:
272,120,128840,1,0,0:0:0:0:
312,128,128990,2,0,L|320:72,1,50,2|0,0:0|0:0,0:0:0:0:
360,72,129290,2,2,L|424:80,1,50
424,112,129590,6,0,L|473:104,2,50,2|0|0,0:0|0:0|0:0,0:0:0:0:
416,152,130039,1,0,0:0:0:0:
400,192,130190,2,0,L|449:199,2,50,2|0|0,0:0|0:0|0:0,0:0:0:0:
376,224,130639,1,0,0:0:0:0:
344,248,130789,2,0,L|392:272,2,50,2|0|0,0:0|0:0|0:0,0:0:0:0:
312,264,131239,1,0,0:0:0:0:
272,280,131390,2,2,L|288:328,1,50
248,336,131690,2,2,L|224:344,3,25
208,352,131990,6,0,P|144:344|96:216,1,200,6|0,0:0|0:0,0:0:0:0:
112,200,132740,1,0,0:0:0:0:
136,168,132890,2,0,P|192:96|224:104,2,100,0|2|2,0:0|0:0|0:0,0:0:0:0:
176,168,133640,1,0,0:0:0:0:
200,200,133790,2,0,P|272:232|280:264,1,100,2|6,0:0|0:0,0:0:0:0:
264,328,134390,6,0,P|400:328|448:280,1,200,6|0,0:0|0:0,0:0:0:0:
400,224,135290,2,2,L|400:176,4,25
464,176,135890,1,4,0:0:0:0:
440,96,136190,2,2,L|392:72,3,50,0|2|0|2,0:0|0:0|0:0|0:0,0:0:0:0:
368,104,136790,6,0,P|320:144|264:136,1,100,4|0,0:0|0:0,0:0:0:0:
248,136,137240,2,0,L|176:128,1,50,0|8,0:0|0:0,0:0:0:0:
176,208,137690,2,0,L|168:272,1,50,0|8,0:0|0:0,0:0:0:0:
248,280,138140,2,0,L|256:216,1,50,0|8,0:0|0:0,0:0:0:0:
328,264,138590,1,8,0:0:0:0:
360,240,138740,1,0,0:0:0:0:
400,232,138890,1,8,0:0:0:0:
440,232,139040,1,0,0:0:0:0:
480,240,139190,6,0,L|512:192,1,50,4|0,0:0|0:0,0:0:0:0:
456,144,139640,2,0,L|428:185,1,50,0|8,0:0|0:0,0:0:0:0:
360,136,140090,2,0,L|392:88,1,50,0|8,0:0|0:0,0:0:0:0:
328,48,140540,2,0,L|300:89,1,50,0|8,0:0|0:0,0:0:0:0:
224,72,140990,6,0,L|160:72,3,50,8|0|8|0,0:0|0:0|0:0|0:0,0:0:0:0:
136,72,141590,6,0,L|72:72,1,50,4|0,0:0|0:0,0:0:0:0:
136,136,142040,2,0,L|72:136,1,50,0|8,0:0|0:0,0:0:0:0:
136,200,142490,2,0,L|72:200,1,50,0|8,0:0|0:0,0:0:0:0:
136,264,142940,2,0,L|72:264,1,50,0|8,0:0|0:0,0:0:0:0:
136,328,143390,6,0,L|200:328,2,50,8|0|8,0:0|0:0|0:0,0:0:0:0:
96,328,143840,1,0,0:0:0:0:
64,304,143990,2,0,L|32:248,1,50,4|0,0:0|0:0,0:0:0:0:
120,264,144440,2,0,L|88:208,1,50,0|8,0:0|0:0,0:0:0:0:
176,224,144890,2,0,L|144:168,1,50,0|8,0:0|0:0,0:0:0:0:
232,184,145340,2,0,L|200:128,1,50,0|8,0:0|0:0,0:0:0:0:
288,144,145790,6,8,L|320:144,3,25
336,144,146090,6,2,L|448:144,1,100,2|14,0:0|0:0,0:0:0:0:
256,80,153590,6,0,B|256:96|256:96|248:104|248:104|264:104|264:104|256:112|256:112|256:208,1,150,4|8,0:0|0:0,0:0:0:0:
256,248,154190,2,0,L|256:304,1,50,0|8,0:0|0:0,0:0:0:0:
216,296,154490,6,0,B|200:296|200:296|192:304|192:304|192:288|192:288|184:296|184:296|160:296|112:288|88:240,1,150,4|8,0:0|0:0,0:0:0:0:
80,224,155090,2,0,P|64:160|80:128,1,100,0|8,0:0|0:0,0:0:0:0:
112,112,155540,5,0,0:0:0:0:
152,96,155690,5,8,0:0:0:0:
192,80,155840,5,0,0:0:0:0:
224,72,155990,5,2,2:2:0:0:
280,96,156290,2,0,L|360:104,2,75.0000028610231
280,152,157190,5,0,0:0:0:0:
248,208,157490,2,0,L|208:240,3,37.5000014305115
192,248,158090,6,0,P|144:272|112:272,1,75.0000028610231
136,216,158690,2,0,P|184:192|216:192,1,75.0000028610231
256,224,159290,5,0,0:0:0:0:
304,264,159590,2,0,B|392:272|368:200|440:208,1,150.000005722046
456,152,160490,6,0,P|472:104|464:64,1,75.0000028610231
448,64,160940,2,0,P|392:40|368:40,1,75.0000028610231
352,40,161390,2,0,P|304:72|280:72,1,75.0000028610231
232,64,161990,5,0,0:0:0:0:
176,72,162290,1,0,0:0:0:0:
136,112,162590,1,0,0:0:0:0:
136,168,162890,1,0,0:0:0:0:
168,216,163190,2,0,B|176:256|176:256|240:240|264:304|288:280,1,150.000005722046
336,272,164090,5,0,0:0:0:0:
392,256,164390,2,0,B|432:248|432:248|408:192|416:128,1,150.000005722046
368,104,165290,2,0,L|320:80,1,37.5000014305115
296,96,165590,6,0,P|232:104|176:88,1,100
136,48,166190,6,0,P|128:97|137:146,1,100
64,184,166790,6,0,P|96:216|149:232,2,100
24,248,167690,5,0,0:0:0:0:
64,312,167990,2,0,B|104:336|104:336|144:328|176:336,2,100
128,264,168890,6,0,P|167:232|214:215,1,100
256,288,169490,2,0,P|302:269|341:238,1,100
416,272,170090,1,0,0:0:0:0:
448,200,170390,6,0,P|464:136|464:88,1,100
432,80,170840,1,0,0:0:0:0:
392,72,170990,1,0,0:0:0:0:
352,80,171140,1,0,0:0:0:0:
328,112,171290,6,0,B|296:160|296:160|256:176,1,100
304,240,171890,2,0,B|344:224|344:224|376:176,1,100
424,240,172490,6,2,B|392:288|392:288|352:304,1,100,4|4,0:0|0:0,0:0:0:0:
424,320,175190,6,0,P|472:216|472:168,1,150.000005722046,4|0,0:0|0:0,0:0:0:0:
456,128,175640,1,0,0:0:0:0:
416,88,175790,2,0,P|320:128|320:168,1,150.000005722046,8|0,0:0|0:0,0:0:0:0:
368,200,176240,5,0,0:0:0:0:
312,224,176390,2,0,P|296:264|240:280,1,75.0000028610231
208,280,176690,2,0,P|224:240|280:224,1,75.0000028610231
280,168,176990,6,0,L|280:64,2,75.0000028610231,8|0|0,0:0|0:0|0:0,0:0:0:0:
224,152,177440,1,0,0:0:0:0:
176,120,177590,6,0,P|80:104|56:144,1,150.000005722046
104,168,178040,2,0,L|104:248,2,75.0000028610231,0|8|0,0:0|0:0|0:0,0:0:0:0:
160,184,178490,6,0,B|240:200|240:200|312:168,1,150.000005722046
320,288,179090,2,0,B|258:316|258:316|178:300,1,150.000005722046,0|8,0:0|0:0,0:0:0:0:
72,240,179690,6,0,P|64:168|88:136,2,75.0000028610231,0|0|12,0:0|0:0|0:0,0:0:0:0:
128,216,180140,1,0,0:0:0:0:
184,224,180290,1,0,0:0:0:0:
232,256,180440,1,0,0:0:0:0:
256,312,180590,1,0,0:0:0:0:
376,288,180890,6,0,L|368:192,1,75.0000028610231
488,184,181340,2,0,L|496:280,1,75.0000028610231
424,160,181790,2,0,L|416:64,3,75.0000028610231
360,72,182390,6,0,L|280:64,1,75.0000028610231,8|0,0:0|0:0,0:0:0:0:
256,64,182840,2,0,L|168:104,1,75.0000028610231
168,112,183290,1,0,0:0:0:0:
152,136,183440,1,0,0:0:0:0:
144,168,183590,1,8,0:0:0:0:
152,200,183740,1,0,0:0:0:0:
160,240,183890,6,0,L|296:240,1,100
260,240,184265,2,0,L|308:240,5,25
256,176,184790,6,0,P|275:81|353:22,1,200,12|0,0:0|0:0,0:0:0:0:
376,160,185690,2,0,L|360:248,1,50,8|0,0:0|0:0,0:0:0:0:
440,240,186140,2,0,L|456:152,1,50,8|0,0:0|0:0,0:0:0:0:
448,112,186590,1,0,0:0:0:0:
384,64,186890,1,0,0:0:0:0:
344,56,187040,1,0,0:0:0:0:
304,64,187190,6,0,B|240:104|240:104|200:184,1,150,8|0,0:0|0:0,0:0:0:0:
176,192,187790,1,0,0:0:0:0:
176,232,187940,1,0,0:0:0:0:
208,256,188090,6,2,B|138:280|138:280|64:263,1,150,8|0,0:0|0:0,0:0:0:0:
64,224,188690,6,2,B|80:176|80:176|72:128,1,100
96,96,189140,1,0,0:0:0:0:
136,80,189290,1,0,0:0:0:0:
176,80,189440,1,0,0:0:0:0:
216,96,189590,6,2,B|264:128|264:128|352:104|416:152,1,200,4|0,0:0|0:0,0:0:0:0:
400,224,190490,6,0,L|424:264,1,37.5000014305115,8|0,0:0|0:0,0:0:0:0:
352,312,190940,2,0,L|328:272,1,37.5000014305115,8|0,0:0|0:0,0:0:0:0:
312,192,191390,2,0,P|200:120|144:120,1,150,0|0,0:0|0:0,0:0:0:0:
144,128,191990,6,0,L|80:152,1,50,4|0,0:0|0:0,0:0:0:0:
168,184,192440,2,0,L|152:256,1,50,4|0,0:0|0:0,0:0:0:0:
232,200,192890,2,0,L|280:248,1,50,4|0,0:0|0:0,0:0:0:0:
288,160,193340,2,0,L|344:192,1,50,4|0,0:0|0:0,0:0:0:0:
344,104,193790,6,2,L|376:104,4,25
272,64,194390,6,0,B|256:64|256:64|248:72|248:72|248:56|248:56|240:64|240:64|232:72|232:72|232:56|232:56|224:64|224:64|192:64,1,100,4|0,0:0|0:0,0:0:0:0:
144,104,194990,6,0,P|136:160|120:184,1,75
136,232,195440,6,0,L|192:288,1,75,4|0,0:0|0:0,0:0:0:0:
264,216,196040,6,0,P|328:216|384:256,2,125,4|4|4,1:0|0:0|1:0,0:0:0:0:
256,192,197165,12,0,197690,1:0:0:0:
440,240,198365,5,4,1:0:0:0:
