osu file format v14

[General]
AudioFilename: 06.+Be My Sacrifice+.mp3
AudioLeadIn: 0
PreviewTime: -1
Countdown: 1
SampleSet: None
StackLeniency: 0.7
Mode: 0
LetterboxInBreaks: 1
WidescreenStoryboard: 1

[Editor]
Bookmarks: 28790,50390,127190,136790,172790
DistanceSpacing: 0.8
BeatDivisor: 4
GridSize: 8
TimelineZoom: 1

[Metadata]
Title:+Be My Sacrifice+
TitleUnicode:+Be My Sacrifice+
Artist:Yuyoyuppe
ArtistUnicode:ゆよゆっぺ
Creator:gasuton neko
Version:Hard
Source:For a sick boy
Tags:Vocaloid metal rock Hatsune Miku
BeatmapID:649697
BeatmapSetID:288039

[Difficulty]
HPDrainRate:7
CircleSize:5
OverallDifficulty:7
ApproachRate:7
SliderMultiplier:2
SliderTickRate:1

[Events]
//Background and Video events
0,0,"Miku.jpg",0,0
//Break Periods
2,40989,48890
2,108190,126290
2,146290,155090
//Storyboard Layer 0 (Background)
//Storyboard Layer 1 (Fail)
//Storyboard Layer 2 (Pass)
//Storyboard Layer 3 (Foreground)
//Storyboard Sound Samples

[TimingPoints]
2390,600,4,1,0,50,1,0
69290,-200,4,1,0,50,0,0
70490,-100,4,1,0,50,0,0
76790,-133.333333333333,4,1,0,50,0,0
84890,-100,4,1,0,50,0,0
88790,-66.6666666666667,4,1,0,50,0,1
97490,-100,4,1,0,50,0,1
107390,-100,4,1,0,50,0,1
107990,-100,4,3,0,50,0,0
127190,-100,4,2,0,30,0,0
136790,-100,4,1,0,50,0,0
155990,-133.333333333333,4,2,0,50,0,0
165590,-100,4,1,0,50,0,0
172790,-133.333333333333,4,3,0,50,0,1
172940,-100,4,3,0,50,0,0

[Colours]
Combo1 : 188,254,252
Combo2 : 100,0,100
Combo3 : 0,103,230
Combo4 : 9,221,216

[HitObjects]
368,272,28790,5,4,0:0:0:0:
256,120,30440,6,0,L|256:176,1,50,0|8,0:0|0:0,0:0:0:0:
256,248,30890,2,0,L|256:304,2,50,8|0|8,0:0|0:0|0:0,0:0:0:0:
152,192,31640,6,0,P|96:208|40:192,1,100
96,128,32240,2,0,P|143:112|192:119,1,100
256,168,32840,6,2,B|256:232|256:232|264:248|264:248|248:248|248:248|272:272|272:272|240:272|240:272|256:288|256:288|256:352,1,250
376,328,34040,6,0,B|368:272|368:272|384:224,1,100
440,176,34640,2,0,B|448:232|448:232|432:280,1,100
368,232,35240,6,2,B|296:208|296:208|240:256|168:232|176:160,1,250
120,104,36290,6,0,L|64:88,1,50
88,176,36740,2,0,P|52:210|29:255,2,100
152,232,37640,6,2,B|96:264|96:352|96:352|176:320|240:344,1,250
280,320,38690,6,0,L|360:312,1,50
408,312,39140,2,0,P|472:280|496:240,2,100
352,256,40040,6,2,B|296:208|305:158|304:152|304:152|280:160|280:160|256:152|256:152|232:160|232:160|208:152|208:152|184:160|184:160|160:152,1,250,0|4,0:0|0:0,0:0:0:0:
256,192,49790,12,4,50390,0:0:0:0:
112,296,50990,6,0,L|192:280,1,50,8|0,0:0|0:0,0:0:0:0:
240,312,51440,2,0,P|304:280|336:184,1,150
360,136,52190,2,0,L|424:136,1,50,8|0,0:0|0:0,0:0:0:0:
472,32,52790,5,0,0:0:0:0:
424,96,53090,1,0,0:0:0:0:
352,56,53390,6,0,L|256:56,1,50,8|0,0:0|0:0,0:0:0:0:
224,64,53840,2,0,P|160:96|80:104,1,150
72,184,54590,2,0,P|120:216|176:224,1,100,8|0,0:0|0:0,0:0:0:0:
224,176,55190,6,0,L|248:248,1,50,8|0,0:0|0:0,0:0:0:0:
160,312,55790,6,0,L|144:264,2,50
192,336,56240,2,0,P|304:352|320:352,1,100
408,328,56990,2,0,B|368:256|368:256|280:240|288:168,1,200,0|8,0:0|0:0,0:0:0:0:
287,184,57740,1,0,0:0:0:0:
376,104,58190,6,0,L|288:56,1,100
248,56,58640,2,0,L|192:144,1,100
160,152,59090,2,0,L|48:120,1,100
48,200,59690,5,0,0:0:0:0:
64,240,59840,1,0,0:0:0:0:
96,264,59990,2,0,P|176:264|208:280,1,100,8|0,0:0|0:0,0:0:0:0:
264,312,60590,6,0,L|328:232,1,100
368,240,61040,2,0,P|456:224|480:200,1,100
472,184,61490,2,0,L|496:56,1,100
408,72,62090,5,0,0:0:0:0:
336,96,62390,1,8,0:0:0:0:
336,96,62540,1,8,0:0:0:0:
216,80,62990,6,0,L|144:72,1,50
88,80,63440,2,0,P|80:144|48:208,1,100
128,280,64190,5,8,0:0:0:0:
184,216,64490,1,0,0:0:0:0:
224,216,64640,1,0,0:0:0:0:
264,224,64790,1,0,0:0:0:0:
304,240,64940,1,0,0:0:0:0:
368,288,65390,6,0,L|456:280,2,50
328,304,65840,2,2,P|240:304|168:328,1,150
120,272,66590,1,8,0:0:0:0:
120,272,66740,1,8,0:0:0:0:
32,192,67190,6,0,P|96:152|120:112,1,100
40,96,67790,2,0,P|112:56|152:72,1,100
160,64,68240,2,0,P|208:59|244:26,1,100,8|8,0:0|0:0,0:0:0:0:
256,144,68990,5,0,0:0:0:0:
256,144,69290,2,0,L|88:144,1,150,0|8,0:0|0:0,0:0:0:0:
80,216,70490,6,0,L|72:312,1,50
152,272,70940,2,0,L|160:176,1,50
232,256,71390,6,0,P|320:248|384:272,1,150,8|0,0:0|0:0,0:0:0:0:
408,288,71990,2,0,P|480:232|480:128,1,200,0|8,0:0|0:0,0:0:0:0:
400,144,72890,5,0,0:0:0:0:
344,88,73190,2,0,L|259:172,1,100
208,120,73790,2,0,P|64:128|56:144,1,150,8|0,0:0|0:0,0:0:0:0:
75,113,74390,1,0,0:0:0:0:
48,272,74990,5,8,0:0:0:0:
120,296,75290,2,0,L|200:208,1,100
216,296,75890,2,0,P|280:320|328:320,2,100,0|8|0,0:0|0:0|0:0,0:0:0:0:
264,256,76790,6,0,P|269:182|326:125,1,150.000005722046,0|8,0:0|0:0,0:0:0:0:
376,144,77690,2,0,L|400:32,1,112.500004291535
432,40,78290,2,0,L|520:56,1,75.0000028610231,0|8,0:0|0:0,0:0:0:0:
512,112,78890,2,2,P|488:208|360:256,1,225.000008583069,2|10,0:0|0:0,0:0:0:0:
328,224,80090,6,0,L|232:240,1,75.0000028610231
200,256,80690,2,0,L|144:296,2,37.5000014305115,0|0|8,0:0|0:0|0:0,0:0:0:0:
160,216,81290,2,0,L|96:144,1,75.0000028610231
232,152,82190,6,0,P|296:80|416:112,1,225.000008583069,8|0,0:0|0:0,0:0:0:0:
424,168,83390,5,8,0:0:0:0:
432,224,83690,2,0,P|400:296|328:296,1,150.000005722046
176,296,84890,6,0,P|112:232|112:128,1,200
184,168,85790,2,0,P|269:121|297:28,1,200,8|8,0:0|0:0,0:0:0:0:
384,112,86840,5,8,0:0:0:0:
496,72,87290,1,8,0:0:0:0:
480,192,87740,1,8,0:0:0:0:
480,192,87890,2,0,L|384:240,2,100,8|0|0,0:0|0:0|0:0,0:0:0:0:
360,168,88790,6,0,P|264:192|208:176,1,150.000005722046,4|0,0:0|0:0,0:0:0:0:
200,120,89240,2,0,B|80:136|80:136|88:200|64:256,1,225.000008583069
96,296,89840,2,0,L|272:328,1,150.000005722046
224,264,90290,1,0,0:0:0:0:
104,296,90590,6,0,P|136:248|144:152,1,150.000005722046
96,184,91040,1,0,0:0:0:0:
96,128,91190,2,0,B|208:72|208:72|360:72,1,225.000008583069
248,72,91790,1,0,0:0:0:0:
232,192,92090,6,0,B|218:247|218:247|192:240|192:240|176:304,1,150.000005722046,8|0,0:0|0:0,0:0:0:0:
280,360,92690,2,0,B|294:305|294:305|320:312|320:312|336:248,1,150.000005722046,8|0,0:0|0:0,0:0:0:0:
456,272,93290,6,2,B|416:264|416:264|432:168|432:168|272:144,1,300.000011444092
312,32,94190,1,0,0:0:0:0:
192,48,94490,6,0,L|208:144,1,75.0000028610231,8|0,0:0|0:0,0:0:0:0:
160,232,94940,2,0,L|147:158,1,75.0000028610231,8|0,0:0|0:0,0:0:0:0:
80,256,95390,6,0,B|136:306|136:306|212:308,2,150.000005722046
168,96,96440,5,0,0:0:0:0:
280,240,96890,1,0,0:0:0:0:
464,88,97490,2,0,L|328:88,1,100
328,96,97940,2,0,L|256:96,2,50
344,128,98390,6,0,P|256:280|200:288,1,200,4|0,0:0|0:0,0:0:0:0:
168,280,99290,2,0,L|184:192,1,50,8|0,0:0|0:0,0:0:0:0:
104,200,99740,2,0,L|88:288,1,50,8|0,0:0|0:0,0:0:0:0:
104,328,100190,1,0,0:0:0:0:
176,360,100490,5,0,0:0:0:0:
256,336,100790,2,0,B|320:296|320:296|360:216,1,150,8|0,0:0|0:0,0:0:0:0:
424,136,101690,2,0,B|350:119|350:119|265:147,1,150,8|0,0:0|0:0,0:0:0:0:
240,160,102290,6,0,L|128:160,2,100
232,200,103040,1,0,0:0:0:0:
240,240,103190,2,2,B|312:320|312:320|424:328,1,200
424,248,104090,6,0,L|448:208,1,37.5000014305115,8|0,0:0|0:0,0:0:0:0:
376,160,104540,2,0,L|352:200,1,37.5000014305115,8|0,0:0|0:0,0:0:0:0:
272,168,104990,2,2,P|160:240|104:240,1,150,0|0,0:0|0:0,0:0:0:0:
104,232,105590,6,0,L|40:208,1,50,4|0,0:0|0:0,0:0:0:0:
128,176,106040,2,0,L|112:104,1,50,4|0,0:0|0:0,0:0:0:0:
192,160,106490,2,0,L|240:112,1,50,4|0,0:0|0:0,0:0:0:0:
248,200,106940,2,0,L|304:168,1,50,4|0,0:0|0:0,0:0:0:0:
256,192,107390,12,4,107990,0:0:0:0:
96,104,127190,6,0,B|120:208|120:208|192:200|240:224,1,200,6|0,0:0|0:0,0:0:0:0:
280,256,128090,2,0,B|256:328|256:328|168:304|96:336,1,200
88,256,128990,2,0,B|56:208|56:208|64:128,1,100,0|2,0:0|0:0,0:0:0:0:
136,144,129590,6,0,B|184:88|184:88|232:88|272:64|272:8,1,200
352,32,130490,2,0,B|432:64|448:144|448:144|408:184,1,200
336,200,131390,2,0,L|256:128,1,100,0|2,0:0|0:0,0:0:0:0:
304,64,131990,6,0,P|400:120|504:112,1,200,2|0,0:0|0:0,0:0:0:0:
480,200,132890,2,0,P|424:272|392:264,2,100,0|2|2,0:0|0:0|0:0,0:0:0:0:
440,184,133640,1,0,0:0:0:0:
400,184,133790,2,0,P|328:216|320:248,1,100,2|6,0:0|0:0,0:0:0:0:
288,304,134390,6,0,P|152:304|104:256,1,200,6|0,0:0|0:0,0:0:0:0:
64,200,135290,2,2,B|112:144|112:144|152:192|224:192,1,200
264,120,136190,2,2,L|312:96,3,50
344,88,136790,6,0,B|408:120|408:120|432:192|384:240,1,200
304,240,137690,2,0,L|296:304,1,50
216,280,138140,2,0,L|224:216,1,50
144,208,138590,1,0,0:0:0:0:
88,152,138890,2,0,L|16:136,2,50
184,24,139790,5,0,0:0:0:0:
200,104,140090,2,0,L|264:80,1,50
320,48,140540,2,0,L|360:8,1,50
416,64,140990,2,0,P|384:136|344:144,1,100
304,192,141590,6,0,B|344:240|400:256|400:256|360:336,1,200
288,352,142490,2,0,L|200:344,1,50
232,264,142940,2,0,L|168:288,1,50
120,328,143390,2,0,P|96:248|96:216,1,100
96,192,143840,1,0,0:0:0:0:
104,152,143990,6,0,P|168:96|280:96,1,200
328,160,144890,6,0,L|352:96,1,50
416,80,145340,2,0,L|472:64,1,50
496,136,145790,6,0,L|496:192,2,50,0|0|6,0:0|0:0|0:0,0:0:0:0:
256,64,155990,5,2,0:0:0:0:
256,304,157190,1,2,0:0:0:0:
112,192,158090,6,0,L|200:192,1,75.0000028610231,0|2,0:0|0:0,0:0:0:0:
400,192,159290,2,0,L|312:192,1,75.0000028610231,0|2,0:0|0:0,0:0:0:0:
191,95,160490,6,2,B|216:160|216:160|176:200|168:248,1,150.000005722046
208,344,161690,2,0,P|240:304|248:272,1,75.0000028610231,0|2,0:0|0:0,0:0:0:0:
424,320,162890,2,0,L|328:288,2,75.0000028610231,0|2|0,0:0|0:0|0:0,0:0:0:0:
496,224,164090,5,0,0:0:0:0:
440,208,164390,2,0,B|392:152|384:104|384:104|328:104|272:88,1,225.000008583069,2|0,0:0|0:0,0:0:0:0:
200,80,165590,6,0,P|136:88|80:72,2,100,4|0|0,0:0|0:0|0:0,0:0:0:0:
272,112,166490,6,0,P|220:150|164:165,1,100
112,176,167090,2,0,B|128:240|176:240|216:272,1,100
256,264,167690,5,0,0:0:0:0:
272,184,167990,2,0,B|352:200|336:272|344:272|344:272|432:272,1,200,4|0,0:0|0:0,0:0:0:0:
488,232,168890,6,0,P|449:200|402:183,1,100
408,264,169490,2,0,P|356:302|300:317,1,100
248,344,170090,6,0,B|229:280|271:256|290:208,2,100,0|4|0,0:0|0:0|0:0,0:0:0:0:
168,336,170990,1,0,0:0:0:0:
88,320,171290,6,0,B|104:240|176:256|176:248|176:248|176:160,1,200
96,152,172190,2,0,P|144:96|176:96,2,100,0|0|4,0:0|0:0|0:0,0:0:0:0:
