osu file format v14

[General]
AudioFilename: Yuyoyuppe feat. Hatsune Miku - Hope.mp3
AudioLeadIn: 0
PreviewTime: 55784
Countdown: 0
SampleSet: Normal
StackLeniency: 0.7
Mode: 1
LetterboxInBreaks: 0
WidescreenStoryboard: 0

[Editor]
DistanceSpacing: 1
BeatDivisor: 4
GridSize: 4
TimelineZoom: 1

[Metadata]
Title:Hope
TitleUnicode:Hope
Artist:Yuyoyuppe
ArtistUnicode:ゆよゆっぺ
Creator:game rock
Version:Muzukashii
Source:
Tags:初音ミク Hatsune Miku vocaloid2 HOPE/Despair
BeatmapID:796949
BeatmapSetID:362784

[Difficulty]
HPDrainRate:6
CircleSize:2
OverallDifficulty:5
ApproachRate:5
SliderMultiplier:1.4
SliderTickRate:1

[Events]
//Background and Video events
0,0,"bg.jpg",0,90
//Break Periods
//Storyboard Layer 0 (Background)
//Storyboard Layer 1 (Fail)
//Storyboard Layer 2 (Pass)
//Storyboard Layer 3 (Foreground)
//Storyboard Sound Samples

[TimingPoints]
1785,428.571428571429,4,1,0,90,1,0
56642,-100,4,1,0,90,0,1
84070,-100,4,1,0,90,0,0

[HitObjects]
256,192,1785,5,4,0:0:0:0:
256,192,2106,1,0,0:0:0:0:
256,192,2427,1,0,0:0:0:0:
256,192,2642,1,8,0:0:0:0:
256,192,3070,1,4,0:0:0:0:
256,192,3392,1,0,0:0:0:0:
256,192,3713,1,0,0:0:0:0:
256,192,3927,1,8,0:0:0:0:
256,192,4356,1,8,0:0:0:0:
256,192,4463,1,8,0:0:0:0:
256,192,4570,1,8,0:0:0:0:
256,192,4785,1,8,0:0:0:0:
256,192,5213,1,4,0:0:0:0:
256,192,5535,1,0,0:0:0:0:
256,192,5856,1,0,0:0:0:0:
256,192,6070,1,8,0:0:0:0:
256,192,6499,1,4,0:0:0:0:
256,192,6820,1,0,0:0:0:0:
256,192,7142,1,0,0:0:0:0:
256,192,7356,1,8,0:0:0:0:
256,192,7785,1,8,0:0:0:0:
256,192,7999,1,8,0:0:0:0:
256,192,8213,1,8,0:0:0:0:
256,192,8320,1,8,0:0:0:0:
256,192,8427,1,8,0:0:0:0:
256,192,8642,1,4,0:0:0:0:
256,192,8963,1,0,0:0:0:0:
256,192,9285,1,0,0:0:0:0:
256,192,9499,1,8,0:0:0:0:
256,192,9927,1,4,0:0:0:0:
256,192,10249,1,0,0:0:0:0:
256,192,10570,1,0,0:0:0:0:
256,192,10785,1,8,0:0:0:0:
256,192,11213,1,8,0:0:0:0:
256,192,11320,1,8,0:0:0:0:
256,192,11427,1,8,0:0:0:0:
256,192,11642,1,8,0:0:0:0:
256,192,12070,1,4,0:0:0:0:
256,192,12392,1,0,0:0:0:0:
256,192,12713,1,0,0:0:0:0:
256,192,12927,1,8,0:0:0:0:
256,192,13356,1,4,0:0:0:0:
256,192,13677,1,0,0:0:0:0:
256,192,13999,1,0,0:0:0:0:
256,192,14213,1,8,0:0:0:0:
256,192,14642,1,8,0:0:0:0:
256,192,14856,1,8,0:0:0:0:
256,192,15070,1,8,0:0:0:0:
256,192,15177,1,8,0:0:0:0:
256,192,15285,1,8,0:0:0:0:
256,192,15499,1,4,0:0:0:0:
256,192,17213,1,8,0:0:0:0:
256,192,18927,1,8,0:0:0:0:
256,192,20642,1,8,0:0:0:0:
256,192,21499,1,0,0:0:0:0:
256,192,22356,1,8,0:0:0:0:
256,192,24070,1,8,0:0:0:0:
256,192,25785,1,8,0:0:0:0:
256,192,27499,1,8,0:0:0:0:
256,192,28356,1,8,0:0:0:0:
256,192,28999,1,8,0:0:0:0:
256,192,29213,1,0,0:0:0:0:
256,192,30070,1,8,0:0:0:0:
256,192,30713,1,0,0:0:0:0:
256,192,30927,1,0,0:0:0:0:
256,192,31785,1,8,0:0:0:0:
256,192,32642,1,0,0:0:0:0:
256,192,33499,1,8,0:0:0:0:
256,192,34142,1,0,0:0:0:0:
256,192,34356,1,0,0:0:0:0:
256,192,35213,1,8,0:0:0:0:
256,192,35642,1,0,0:0:0:0:
256,192,36070,1,0,0:0:0:0:
256,192,36927,1,8,0:0:0:0:
256,192,37785,1,0,0:0:0:0:
256,192,38642,1,8,0:0:0:0:
256,192,39499,1,0,0:0:0:0:
256,192,40356,1,8,0:0:0:0:
256,192,40999,1,0,0:0:0:0:
256,192,41213,1,0,0:0:0:0:
256,192,42070,1,8,0:0:0:0:
256,192,42285,1,0,0:0:0:0:
256,192,42499,1,8,0:0:0:0:
256,192,42927,1,4,0:0:0:0:
256,192,43785,1,8,0:0:0:0:
256,192,44427,1,0,0:0:0:0:
256,192,44642,1,0,0:0:0:0:
256,192,45499,1,8,0:0:0:0:
256,192,46356,1,0,0:0:0:0:
256,192,46785,1,0,0:0:0:0:
256,192,47213,1,8,0:0:0:0:
256,192,48070,1,0,0:0:0:0:
256,192,48499,1,0,0:0:0:0:
256,192,48927,1,8,0:0:0:0:
256,192,49356,1,8,0:0:0:0:
256,192,49785,1,0,0:0:0:0:
256,192,50642,1,8,0:0:0:0:
256,192,51285,1,0,0:0:0:0:
256,192,51499,1,0,0:0:0:0:
256,192,51927,1,0,0:0:0:0:
256,192,52356,1,8,0:0:0:0:
256,192,53213,1,0,0:0:0:0:
256,192,54070,1,8,0:0:0:0:
256,192,54499,1,0,0:0:0:0:
256,192,54713,1,0,0:0:0:0:
256,192,56642,1,12,0:0:0:0:
256,192,57070,1,0,0:0:0:0:
256,192,57285,1,0,0:0:0:0:
256,192,57499,1,8,0:0:0:0:
256,192,57927,1,8,0:0:0:0:
256,192,58142,1,0,0:0:0:0:
256,192,58356,1,0,0:0:0:0:
256,192,58677,1,0,0:0:0:0:
256,192,58999,1,0,0:0:0:0:
256,192,59213,1,8,0:0:0:0:
256,192,59642,1,8,0:0:0:0:
256,192,59856,1,8,0:0:0:0:
256,192,60070,1,0,0:0:0:0:
256,192,60499,1,0,0:0:0:0:
256,192,60713,1,0,0:0:0:0:
256,192,60927,1,8,0:0:0:0:
256,192,61142,1,0,0:0:0:0:
256,192,61356,1,0,0:0:0:0:
256,192,61785,1,0,0:0:0:0:
256,192,62106,1,8,0:0:0:0:
256,192,62427,1,0,0:0:0:0:
256,192,62642,1,8,0:0:0:0:
256,192,62856,1,0,0:0:0:0:
256,192,63070,1,8,0:0:0:0:
256,192,63177,1,8,0:0:0:0:
256,192,63285,1,8,0:0:0:0:
256,192,63499,1,4,0:0:0:0:
256,192,63927,1,0,0:0:0:0:
256,192,64142,1,0,0:0:0:0:
256,192,64356,1,8,0:0:0:0:
256,192,64570,1,0,0:0:0:0:
256,192,64785,1,0,0:0:0:0:
256,192,65213,1,0,0:0:0:0:
256,192,65535,1,0,0:0:0:0:
256,192,65856,1,0,0:0:0:0:
256,192,66070,1,8,0:0:0:0:
256,192,66285,1,0,0:0:0:0:
256,192,66499,1,8,0:0:0:0:
256,192,66713,1,8,0:0:0:0:
256,192,66927,1,0,0:0:0:0:
256,192,67356,1,0,0:0:0:0:
256,192,67570,1,8,0:0:0:0:
256,192,67999,1,8,0:0:0:0:
256,192,68213,1,0,0:0:0:0:
256,192,68642,1,8,0:0:0:0:
256,192,68856,1,8,0:0:0:0:
256,192,69499,1,8,0:0:0:0:
256,192,69927,1,8,0:0:0:0:
256,192,70035,1,8,0:0:0:0:
256,192,70142,1,8,0:0:0:0:
256,192,70356,1,12,0:0:0:0:
256,192,70785,1,0,0:0:0:0:
256,192,70999,1,0,0:0:0:0:
256,192,71213,1,8,0:0:0:0:
256,192,71642,1,8,0:0:0:0:
256,192,71856,1,0,0:0:0:0:
256,192,72070,1,0,0:0:0:0:
256,192,72392,1,0,0:0:0:0:
256,192,72713,1,0,0:0:0:0:
256,192,72927,1,8,0:0:0:0:
256,192,73356,1,8,0:0:0:0:
256,192,73570,1,8,0:0:0:0:
256,192,73785,1,0,0:0:0:0:
256,192,74213,1,0,0:0:0:0:
256,192,74427,1,0,0:0:0:0:
256,192,74642,1,8,0:0:0:0:
256,192,74856,1,0,0:0:0:0:
256,192,75070,1,0,0:0:0:0:
256,192,75499,1,0,0:0:0:0:
256,192,75820,1,8,0:0:0:0:
256,192,76142,1,0,0:0:0:0:
256,192,76356,1,8,0:0:0:0:
256,192,76570,1,0,0:0:0:0:
256,192,76785,1,8,0:0:0:0:
256,192,76892,1,8,0:0:0:0:
256,192,76999,1,8,0:0:0:0:
256,192,77213,1,0,0:0:0:0:
256,192,77642,1,0,0:0:0:0:
256,192,77856,1,0,0:0:0:0:
256,192,78070,1,8,0:0:0:0:
256,192,78285,1,0,0:0:0:0:
256,192,78499,1,0,0:0:0:0:
256,192,78927,1,0,0:0:0:0:
256,192,79249,1,0,0:0:0:0:
256,192,79570,1,0,0:0:0:0:
256,192,79785,1,8,0:0:0:0:
256,192,79999,1,0,0:0:0:0:
256,192,80213,1,8,0:0:0:0:
256,192,80427,1,8,0:0:0:0:
256,192,80642,1,0,0:0:0:0:
256,192,81070,1,0,0:0:0:0:
256,192,81285,1,8,0:0:0:0:
256,192,81713,1,8,0:0:0:0:
256,192,81927,1,0,0:0:0:0:
256,192,82356,1,8,0:0:0:0:
256,192,82677,1,8,0:0:0:0:
256,192,82999,1,8,0:0:0:0:
256,192,83213,1,0,0:0:0:0:
256,192,83535,1,0,0:0:0:0:
256,192,83856,1,0,0:0:0:0:
256,192,84070,1,4,0:0:0:0:
256,192,84392,1,0,0:0:0:0:
256,192,84713,1,0,0:0:0:0:
256,192,84927,1,8,0:0:0:0:
256,192,85356,1,4,0:0:0:0:
256,192,85677,1,0,0:0:0:0:
256,192,85999,1,0,0:0:0:0:
256,192,86213,1,8,0:0:0:0:
256,192,86642,1,8,0:0:0:0:
256,192,86749,1,8,0:0:0:0:
256,192,86856,1,8,0:0:0:0:
256,192,87070,1,8,0:0:0:0:
256,192,87499,1,4,0:0:0:0:
256,192,87820,1,0,0:0:0:0:
256,192,88142,1,0,0:0:0:0:
256,192,88356,1,8,0:0:0:0:
256,192,88785,1,4,0:0:0:0:
256,192,89106,1,0,0:0:0:0:
256,192,89427,1,0,0:0:0:0:
256,192,89642,1,8,0:0:0:0:
256,192,90070,1,8,0:0:0:0:
256,192,90285,1,8,0:0:0:0:
256,192,90499,1,8,0:0:0:0:
256,192,90606,1,8,0:0:0:0:
256,192,90713,1,8,0:0:0:0:
256,192,90927,1,4,0:0:0:0:
256,192,91249,1,0,0:0:0:0:
256,192,91570,1,0,0:0:0:0:
256,192,91785,1,8,0:0:0:0:
256,192,92213,1,4,0:0:0:0:
256,192,92535,1,0,0:0:0:0:
256,192,92856,1,0,0:0:0:0:
256,192,93070,1,8,0:0:0:0:
256,192,93499,1,8,0:0:0:0:
256,192,93606,1,8,0:0:0:0:
256,192,93713,1,8,0:0:0:0:
256,192,93927,1,8,0:0:0:0:
256,192,94356,1,4,0:0:0:0:
256,192,94677,1,0,0:0:0:0:
256,192,94999,1,0,0:0:0:0:
256,192,95213,1,8,0:0:0:0:
256,192,95642,1,4,0:0:0:0:
256,192,95963,1,0,0:0:0:0:
256,192,96285,1,0,0:0:0:0:
256,192,96499,1,8,0:0:0:0:
256,192,96927,1,8,0:0:0:0:
256,192,97142,1,8,0:0:0:0:
256,192,97356,1,8,0:0:0:0:
256,192,97463,1,8,0:0:0:0:
256,192,97570,1,8,0:0:0:0:
256,192,97785,1,12,0:0:0:0:
