osu file format v9

[General]
AudioFilename: Durarara_-_Trust_Me_TV_Size.mp3
AudioLeadIn: 0
PreviewTime: 7895
Countdown: 0
SampleSet: Soft
StackLeniency: 0.4
Mode: 0
LetterboxInBreaks: 0

[Editor]
Bookmarks: 3165,27654,47246,66838,83981
DistanceSpacing: 1
BeatDivisor: 4
GridSize: 8

[Metadata]
Title:Trust Me (TV Size)
Artist:Yuya Matsushita
Creator:Lanttu
Version:Normal
Source:Durarara!!
Tags:

[Difficulty]
HPDrainRate:4
CircleSize:4
OverallDifficulty:5
ApproachRate:5
SliderMultiplier:1.4
SliderTickRate:2

[Events]
//Background and Video events
0,0,"bg.png"
//Break Periods
//Storyboard Layer 0 (Background)
//Storyboard Layer 1 (Fail)
//Storyboard Layer 2 (Pass)
//Storyboard Layer 3 (Foreground)
//Storyboard Sound Samples
//Background Colour Transformations
3,100,0,0,0

[TimingPoints]
3200,612.244897959184,4,2,1,100,1,0
8097,-100,4,1,0,70,0,1
8404,-100,4,1,0,70,0,0
27995,-100,4,2,1,100,0,0
28761,-100,4,1,0,70,0,0
29526,-100,4,2,1,100,0,0
31210,-100,4,1,0,70,0,0
31975,-100,4,2,1,100,0,0
33659,-100,4,1,0,70,0,0
34424,-100,4,2,1,100,0,0
36108,-100,4,1,0,70,0,0
36873,-100,4,2,1,100,0,0
39169,-100,4,1,2,70,0,0
39628,-100,4,1,0,30,0,0
39934,-100,4,2,1,100,0,0
41618,-100,4,1,2,70,0,0
42077,-100,4,1,0,30,0,0
42383,-100,4,2,1,100,0,0
47281,-100,4,1,0,70,0,1
47587,-100,4,1,0,70,0,0
66874,-100,4,1,0,70,0,1
84016,-100,4,2,1,100,0,0

[Colours]
Combo1 : 233,233,233
Combo2 : 139,187,199
Combo3 : 85,85,89

[HitObjects]
376,248,3200,1,0
376,248,3812,2,0,B|336:184|248:192,1,140,8|0
136,280,5036,2,0,B|176:344|264:336,1,140,8|4
256,264,5955,1,0
256,192,6261,2,4,B|256:48,2,140
256,192,8097,1,4
288,256,8404,6,0,B|256:280|224:256,1,70,0|8
324,340,9322,2,0,B|256:368|188:340,1,140,0|8
256,192,10546,1,4
224,128,10853,6,0,B|256:104|288:128,1,70,0|8
188,44,11771,2,0,B|256:16|324:44,1,140,0|8
328,184,12995,5,4
256,192,13302,1,0
184,184,13608,1,8
56,128,14220,6,0,B|8:192|56:256,1,140,0|8
192,296,15444,2,4,B|256:344|320:296,1,140,4|12
456,256,16669,2,4,B|504:192|456:128,2,140,4|12|4
440,328,18200,6,0,B|400:320|384:280,1,70,0|8
320,160,19118,1,0
256,136,19424,1,0
192,160,19730,1,8
256,288,20342,1,4
288,352,20648,6,0,B|256:376|224:352,1,70,0|8
256,216,21567,2,0,B|256:72,1,140,0|8
328,72,22485,6,0,B|320:16|256:-24|192:16|184:72,1,210,4|8
296,152,24016,2,0,B|264:128|256:96|256:96|248:128|216:152,1,140,0|8
104,240,25240,6,0,B|128:208|168:208,1,70,4|0
200,272,25853,2,0,B|216:304|256:328|296:304|312:272,1,140,12|0
344,208,26771,2,0,B|379:208|403:240,2,70,0|8|0
256,192,27689,6,0,B|256:120,2,70,4|0|8
168,136,28761,2,0,B|160:72|96:64,1,105
32,64,29526,1,8
32,200,30138,6,0,B|32:272,2,70,4|0|8
120,256,31210,2,0,B|128:320|192:328,1,105
256,328,31975,1,8
200,200,32587,6,0,B|248:184|256:160|256:160|264:184|312:200,1,140,4|8
304,96,33659,2,0,B|256:56|208:96,1,105
160,144,34424,1,8
256,248,35036,5,4
352,144,35648,1,8
336,248,36108,2,0,B|440:248,1,105
424,320,36873,2,0,B|352:320,2,70,8|0|4
488,192,38097,6,0,B|448:152|448:152|448:64,1,140,8|0
344,88,39169,2,0,B|344:152|304:184,1,105
256,232,39934,1,4
216,96,40546,6,0,B|176:136|176:136|88:136,1,140,8|0
112,240,41618,2,0,B|176:240|208:280,1,105
256,328,42383,1,4
328,208,42995,6,0,B|360:192|400:208|440:224|472:208,2,140,8|0|8
256,192,44526,1,0
184,208,44832,2,0,B|152:192|112:208|72:224|40:208,2,140,2|8|2
256,88,46669,2,0,B|256:16,2,70,10|2|4
256,160,47587,6,0,B|256:232,1,70,0|8
320,352,48506,2,0,B|256:304|192:352,2,140,0|8|4
384,320,50036,6,0,B|416:344|448:320,1,70,0|8
416,256,50648,1,0
416,184,50955,2,0,B|416:120|480:128|480:64,2,140,0|8|4
416,256,52485,6,0,B|368:256|344:208,1,70,0|8
312,96,53404,1,0
256,56,53710,1,0
200,96,54016,1,8
160,232,54628,6,0,B|232:208|256:136,1,140,4|12
352,240,55853,2,0,B|280:264|256:336,1,140,0|12
256,334,57077,1,4
192,312,57383,6,0,B|160:336|128:312,1,70,0|8
160,248,57995,1,0
160,176,58302,2,0,B|160:112|96:120|96:56,2,140,0|8|4
128,240,59832,6,0,B|160:264|192:240,1,70,0|8
320,240,60751,1,0
256,208,61057,1,0
192,240,61363,1,8
199,167,61669,6,0,B|184:104|256:64|328:104|312:168,1,210,4|8
191,240,63200,2,0,B|230:240|256:216|256:216|280:240|320:240,1,140,0|8
452,288,64424,6,0,B|380:288,1,70,4|0
320,324,65036,2,0,B|281:324|255:348|255:348|231:324|191:324,1,140,8|0
130,288,65955,2,0,B|60:288,1,70,0|8
96,152,66873,1,4
144,104,67179,6,0,B|200:48,1,70,0|8
256,176,68097,2,0,B|256:264|352:264,1,140,0|8
392,128,69322,1,4
440,184,69628,6,0,B|496:240,1,70,0|8
344,264,70546,2,0,B|344:352|248:352,2,140,0|8|4
272,280,72077,6,0,B|216:224,1,70,0|8
120,128,72995,2,0,B|120:40|24:40,2,140,0|8|4
120,272,74832,5,12
256,248,75444,1,4
392,272,76057,1,12
256,320,76669,1,4
256,248,76975,6,0,B|256:176,1,70,0|8
320,56,77893,2,0,B|256:8|192:56,2,140,0|8|4
256,104,79424,6,0,B|256:184,1,70,0|8
184,296,80342,1,0
256,312,80648,1,0
328,296,80955,1,8
344,224,81261,6,0,B|296:220|256:272|256:272|216:220|168:224,1,210,4|8
200,88,82791,2,0,B|232:96|256:128|256:128|280:96|312:88,1,140,0|8
424,176,84016,6,0,B|384:184|344:176,1,70,4|0
312,232,84628,2,0,B|296:272|256:272|216:272|200:232,1,140,4|4
157,178,85546,2,0,B|128:184|88:176,2,70,0|0|0
