osu file format v12

[General]
AudioFilename: trust me.mp3
AudioLeadIn: 0
PreviewTime: 8260
Countdown: 0
SampleSet: Soft
StackLeniency: 0.7
Mode: 0
LetterboxInBreaks: 0

[Editor]
DistanceSpacing: 0.8
BeatDivisor: 2
GridSize: 4

[Metadata]
Title:Trust Me (TV Size)
TitleUnicode:Trust Me (TV Size)
Artist:Yuya Matsushita
ArtistUnicode:松下優也
Creator:Kei
Version:Normal
Source:Durarara!!
Tags:drrr ending
BeatmapID:243677
BeatmapSetID:89648

[Difficulty]
HPDrainRate:4
CircleSize:3
OverallDifficulty:4
ApproachRate:4
SliderMultiplier:1.6
SliderTickRate:2

[Events]
//Background and Video events
0,0,"durararabackground.jpg",0,0
Video,-818,"blah.avi"
//Break Periods
//Storyboard Layer 0 (Background)
//Storyboard Layer 1 (Fail)
//Storyboard Layer 2 (Pass)
//Storyboard Layer 3 (Foreground)
//Storyboard Sound Samples
//Background Colour Transformations
3,100,163,162,255

[TimingPoints]
747,612.244897959184,4,2,1,75,1,0
8093,-100,4,2,1,85,0,1
8246,-100,4,2,1,85,0,0
27685,-100,4,2,1,55,0,0
35032,-100,4,2,1,75,0,0
47277,-100,4,2,1,85,0,1
56920,-100,4,2,1,85,0,0
57073,-100,4,2,1,85,0,1
66716,-100,4,2,1,85,0,0
66869,-100,4,2,1,85,0,1
76512,-100,4,2,1,85,0,0
76665,-100,4,2,1,85,0,1
84012,-100,4,2,1,75,0,0
84624,-100,4,2,1,45,0,0
85236,-100,4,2,1,75,0,0

[Colours]
Combo1 : 249,236,81
Combo2 : 255,113,113
Combo3 : 94,189,247

[HitObjects]
188,280,2583,2,0,P|268:268|304:200,1,160,8|4,1:0|0:0,0:0:0:0:
240,92,3808,1,8,0:0:0:0:
176,104,4114,1,2,0:0:0:0:
116,120,4420,2,0,P|60:172|40:256,1,160,0|8,1:0|0:0,0:0:0:0:
52,312,5338,5,2,0:0:0:0:
116,312,5644,2,0,P|172:260|192:176,1,160,4|12,2:0|0:0,0:0:0:0:
319,181,6869,2,0,P|340:260|396:312,1,160,4|12,2:0|0:0,0:0:0:0:
444,192,8093,5,4,0:0:0:0:
436,128,8400,1,2,0:0:0:0:
380,100,8706,2,0,P|276:84|224:120,2,160,8|0|8,0:0|1:0|0:0,0:0:0:0:
312,208,10542,5,4,0:0:0:0:
260,244,10849,1,2,0:0:0:0:
196,248,11155,2,0,P|156:236|128:204,1,80,8|0,0:0|0:0,0:0:0:0:
104,148,11767,2,0,P|140:68|240:48,1,160,0|8,1:0|0:0,0:0:0:0:
320,92,12991,5,4,0:0:0:0:
292,152,13298,1,2,0:0:0:0:
232,176,13604,2,0,P|204:216|232:328,1,160,8|0,0:0|1:0,0:0:0:0:
276,352,14522,1,0,0:0:0:0:
340,344,14828,1,8,0:0:0:0:
416,240,15440,6,0,P|448:172|428:76,2,160,4|8|4,0:0|0:0|0:0,0:0:0:0:
328,148,17277,1,8,0:0:0:0:
268,128,17583,1,0,0:0:0:0:
204,136,17889,6,0,L|124:164,2,80,4|2|8,0:0|0:0|0:0,0:0:0:0:
256,252,19114,1,0,1:0:0:0:
308,288,19420,1,0,0:0:0:0:
372,296,19726,2,0,P|444:256|480:156,1,160,8|4,0:0|0:0,0:0:0:0:
440,68,20951,6,0,P|404:88|376:128,1,80,8|0,0:0|0:0,0:0:0:0:
348,172,21563,2,0,P|272:228|180:212,2,160,0|8|4,1:0|0:0|0:0,0:0:0:0:
404,56,23400,1,8,0:0:0:0:
344,36,23706,1,2,0:0:0:0:
284,60,24012,2,0,P|260:96|260:144,2,80,0|2|8,1:0|0:0|0:0,0:0:0:0:
372,152,25236,6,0,P|356:212|260:248,1,160,4|12,0:0|0:0,0:0:0:0:
208,236,26155,1,2,0:0:0:0:
188,176,26461,2,0,P|204:116|287:77,2,160,4|8|4,0:0|0:0|0:0,0:0:0:0:
228,300,28298,6,0,B|160:324|112:284,2,120,8|0|0,1:0|1:0|1:0,0:0:0:0:
288,280,29522,1,8,1:2:0:0:
372,184,30134,5,4,0:0:0:0:
360,56,30747,2,0,P|300:76|260:120,2,120,8|0|0,1:0|1:0|1:0,0:0:0:0:
424,68,31971,1,8,1:0:0:0:
372,184,32583,5,4,2:0:0:0:
276,268,33195,2,0,L|172:340,2,120,8|0|0,1:0|1:0|1:0,0:0:0:0:
328,228,34420,1,8,1:0:0:0:
324,100,35032,6,0,P|252:120|200:196,1,160,4|8,0:0|0:0,0:0:0:0:
200,252,35951,1,2,0:0:0:0:
260,276,36257,2,0,P|332:256|384:180,2,160,0|8|4,1:0|0:0|0:0,0:0:0:0:
132,280,38093,6,0,P|68:224|52:124,1,160,8|0,1:2|1:0,0:0:0:0:
64,92,39012,1,2,0:0:0:0:
128,80,39318,2,0,P|208:106|262:192,1,160,8|0,0:0|1:0,0:0:0:0:
256,292,40542,6,0,P|340:260|372:172,1,160,8|0,0:0|1:0,0:0:0:0:
348,140,41461,1,2,0:0:0:0:
296,104,41767,2,0,P|212:136|180:224,1,160,8|0,0:0|1:0,0:0:0:0:
144,316,42991,5,8,0:0:0:0:
184,364,43298,1,2,0:0:0:0:
248,368,43604,2,0,P|308:336|348:252,1,160,0|8,1:0|0:0,0:0:0:0:
356,192,44522,5,2,0:0:0:0:
292,188,44828,2,0,P|196:168|148:108,2,160,4|8|2,0:0|0:0|0:0,0:0:0:0:
420,180,46665,1,12,0:0:0:0:
404,120,46971,1,2,0:0:0:0:
352,84,47277,6,0,P|272:96|228:164,1,160,4|8,0:0|0:0,0:0:0:0:
228,220,48195,1,2,0:0:0:0:
208,280,48502,2,0,P|165:341|85:353,1,160,0|8,1:0|0:0,0:0:0:0:
120,228,49726,6,0,P|167:176|251:184,1,160,4|8,0:0|2:0,0:0:0:0:
284,240,50644,1,2,0:0:0:0:
256,296,50951,2,0,P|220:320|176:316,2,80,0|2|8,1:0|0:0|0:0,0:0:0:0:
376,256,52175,6,0,P|440:228|472:140,1,160,4|8,0:0|0:0,0:0:0:0:
472,84,53093,1,2,0:0:0:0:
408,76,53400,2,0,P|344:104|312:192,1,160,0|8,1:0|0:0,0:0:0:0:
208,112,54624,6,0,P|224:220|264:260,1,160,4|8,0:0|0:0,0:0:0:0:
368,320,55849,2,0,P|316:368|224:372,1,160,4|8,0:0|0:0,0:0:0:0:
124,300,57073,5,4,0:0:0:0:
96,244,57379,1,2,0:0:0:0:
76,180,57685,2,0,P|76:100|124:36,2,160,8|0|8,0:0|1:0|0:0,0:0:0:0:
196,140,59522,5,4,0:0:0:0:
252,108,59828,1,2,0:0:0:0:
308,136,60134,2,0,P|360:172|376:268,1,160,8|0,0:0|1:0,0:0:0:0:
336,312,61053,1,2,0:0:0:0:
276,328,61359,6,0,P|224:292|208:196,1,160,8|4,0:0|2:0,0:0:0:0:
208,72,62583,1,8,0:0:0:0:
148,48,62889,1,2,0:0:0:0:
84,64,63195,2,0,P|48:88|28:136,2,80,0|2|8,1:0|0:0|0:0,0:0:0:0:
148,176,64420,6,0,P|204:256|264:272,1,160,4|8,0:0|0:0,0:0:0:0:
324,268,65338,1,2,0:0:0:0:
356,212,65644,2,0,P|432:148|496:156,1,160,4|8,0:0|0:0,0:0:0:0:
464,280,66869,5,4,0:0:0:0:
424,332,67175,1,2,0:0:0:0:
364,348,67481,2,0,P|288:344|236:280,1,160,8|0,0:0|1:0,0:0:0:0:
220,156,68706,1,8,0:0:0:0:
204,27,69318,6,0,P|280:31|332:92,1,160,4|8,0:0|0:0,0:0:0:0:
280,132,70236,1,2,0:0:0:0:
220,156,70542,2,0,P|144:152|92:91,1,160,0|8,1:0|0:0,0:0:0:0:
204,28,71767,5,4,0:0:0:0:
268,32,72073,1,2,0:0:0:0:
324,64,72379,2,0,P|388:120|396:224,1,160,8|0,0:0|1:0,0:0:0:0:
280,184,73604,1,8,0:0:0:0:
220,168,73910,1,2,0:0:0:0:
184,116,74216,6,0,P|84:152|68:204,2,160,4|8|4,0:0|0:0|0:0,0:0:0:0:
244,228,76053,1,8,0:0:0:0:
304,252,76359,1,2,2:0:0:0:
364,236,76665,6,0,P|428:188|480:108,1,160,4|8,0:0|0:0,0:0:0:0:
404,16,77889,2,0,P|376:84|288:144,1,160,0|8,1:0|0:0,0:0:0:0:
256,168,78808,1,2,0:0:0:0:
200,136,79114,6,0,P|133:83|105:15,1,160,4|8,0:0|0:0,0:0:0:0:
40,124,80338,2,0,P|85:189|149:237,1,160,0|8,1:0|0:0,0:0:0:0:
208,264,81257,1,2,0:0:0:0:
268,288,81563,6,0,B|308:316|352:300|352:300|384:288|424:304,2,160,4|8|0,0:0|0:0|1:0,0:0:0:0:
316,168,83400,1,8,0:0:0:0:
376,152,83706,1,2,0:0:0:0:
440,160,84012,6,0,P|492:124|480:36,2,160,4|8|4,0:0|1:0|0:0,0:0:0:0:
376,152,85542,1,2,0:0:0:0:
340,100,85849,1,8,0:0:0:0:
360,40,86155,1,4,0:0:0:0:
