osu file format v12

[General]
AudioFilename: trust me.mp3
AudioLeadIn: 0
PreviewTime: 8260
Countdown: 0
SampleSet: Soft
StackLeniency: 0.7
Mode: 0
LetterboxInBreaks: 0

[Editor]
DistanceSpacing: 0.9
BeatDivisor: 4
GridSize: 4

[Metadata]
Title:Trust Me (TV Size)
TitleUnicode:Trust Me (TV Size)
Artist:Yuya Matsushita
ArtistUnicode:松下優也
Creator:Kei
Version:Hard
Source:Durarara!!
Tags:drrr ending
BeatmapID:243590
BeatmapSetID:89648

[Difficulty]
HPDrainRate:6
CircleSize:4
OverallDifficulty:7
ApproachRate:7
SliderMultiplier:1.9
SliderTickRate:2

[Events]
//Background and Video events
0,0,"durararabackground.jpg",0,0
Video,-818,"blah.avi"
//Break Periods
//Storyboard Layer 0 (Background)
//Storyboard Layer 1 (Fail)
//Storyboard Layer 2 (Pass)
//Storyboard Layer 3 (Foreground)
//Storyboard Sound Samples
//Background Colour Transformations
3,100,163,162,255

[TimingPoints]
747,612.244897959184,4,2,1,75,1,0
8093,-100,4,2,1,85,0,1
8246,-100,4,2,1,85,0,0
27685,-100,4,2,1,55,0,0
35032,-100,4,2,1,75,0,0
47277,-100,4,2,1,95,0,1
56920,-100,4,2,1,85,0,0
57073,-100,4,2,1,95,0,1
66716,-100,4,2,1,85,0,0
66869,-100,4,2,1,85,0,1
76512,-100,4,2,1,85,0,0
76665,-100,4,2,1,85,0,1
84012,-100,4,2,1,75,0,0
84624,-100,4,2,1,45,0,0
84930,-100,4,2,1,75,0,0

[Colours]
Combo1 : 249,236,81
Combo2 : 255,113,113
Combo3 : 94,189,247

[HitObjects]
180,288,2583,1,8,1:0:0:0:
159,279,2736,1,0,0:0:0:0:
143,263,2889,1,2,0:0:0:0:
135,239,3042,1,0,0:0:0:0:
139,215,3195,1,4,0:0:0:0:
224,60,3808,5,8,0:0:0:0:
244,68,3961,1,0,0:0:0:0:
260,84,4114,1,0,0:0:0:0:
272,104,4267,1,0,0:0:0:0:
280,128,4420,2,0,P|288:184|320:216,1,95,2|0,0:0|0:0,0:0:0:0:
332,224,4879,1,0,0:0:0:0:
356,232,5032,1,8,0:0:0:0:
416,308,5338,5,2,0:0:0:0:
320,320,5644,2,0,P|287:312|247:268,1,95,4|2,0:0|0:0,0:0:0:0:
128,136,6257,2,0,P|160:143|200:187,1,95,12|2,0:0|0:0,0:0:0:0:
84,312,6869,2,0,P|116:304|164:264,1,95,4|2,0:0|0:0,0:0:0:0:
284,184,7481,2,0,P|331:147|364:144,1,95,12|2,0:0|0:0,0:0:0:0:
388,144,7940,1,8,0:0:0:0:
408,152,8093,1,4,0:0:0:0:
436,276,8400,5,2,0:0:0:0:
344,360,8706,1,8,0:0:0:0:
232,292,9012,1,2,0:0:0:0:
216,276,9165,1,0,0:0:0:0:
200,256,9318,2,0,L|152:148,1,95,0|0,1:0|0:0,0:0:0:0:
152,148,9777,2,0,P|224:120|236:72,1,95,2|0,0:0|0:0,0:0:0:0:
248,92,10236,2,0,P|316:72|348:80,1,95,2|4,0:0|0:0,0:0:0:0:
312,184,10849,5,2,0:0:0:0:
208,260,11155,1,8,0:0:0:0:
152,148,11461,1,2,0:0:0:0:
140,128,11614,1,0,0:0:0:0:
120,116,11767,2,0,P|64:140|40:200,1,95,0|0,1:0|0:0,0:0:0:0:
44,192,12226,2,0,P|92:216|108:256,1,95,2|0,0:0|0:0,0:0:0:0:
116,276,12685,2,0,P|148:324|184:340,1,95,2|4,0:0|0:0,0:0:0:0:
224,232,13298,5,2,0:0:0:0:
308,304,13604,1,8,0:0:0:0:
344,196,13910,1,2,0:0:0:0:
352,176,14063,1,0,0:0:0:0:
356,152,14216,2,0,P|344:84|328:64,1,95,0|0,1:0|0:0,0:0:0:0:
312,52,14675,1,0,0:0:0:0:
288,44,14828,1,8,0:0:0:0:
124,128,15134,5,2,0:0:0:0:
112,148,15287,1,0,0:0:0:0:
108,172,15440,2,0,P|112:232|128:261,1,95,4|0,0:0|1:0,0:0:0:0:
304,232,16053,2,0,P|300:172|283:142,1,95,12|0,0:0|1:0,0:0:0:0:
184,328,16665,2,0,P|244:324|273:307,1,95,4|0,0:0|1:0,0:0:0:0:
232,80,17277,2,0,P|172:84|142:100,1,95,12|0,0:0|1:0,0:0:0:0:
124,116,17736,1,8,0:0:0:0:
108,132,17889,1,4,0:0:0:0:
96,280,18195,5,2,0:0:0:0:
200,192,18502,1,8,0:0:0:0:
244,324,18808,1,2,0:0:0:0:
260,340,18961,1,0,0:0:0:0:
284,344,19114,2,0,P|328:336|364:292,1,95,0|0,1:0|0:0,0:0:0:0:
368,280,19573,2,0,P|396:244|452:236,1,95,2|0,0:0|0:0,0:0:0:0:
464,228,20032,2,0,P|492:188|488:144,1,95,2|4,0:0|0:0,0:0:0:0:
360,160,20644,5,2,0:0:0:0:
280,252,20951,1,8,0:0:0:0:
192,172,21257,1,0,0:0:0:0:
272,88,21563,2,0,P|316:52|356:44,2,95,0|0|8,1:0|0:0|0:0,0:0:0:0:
252,180,22481,1,2,0:0:0:0:
200,260,22787,5,4,2:0:0:0:
104,256,23093,1,0,0:0:0:0:
44,184,23400,2,0,P|52:136|88:100,1,95,8|2,0:0|0:0,0:0:0:0:
144,176,24012,2,0,P|136:224|104:256,1,95,0|0,1:0|0:0,0:0:0:0:
84,268,24471,1,2,0:0:0:0:
68,284,24624,1,8,0:0:0:0:
176,340,24930,5,2,0:0:0:0:
196,328,25083,1,0,0:0:0:0:
216,316,25236,2,0,P|252:280|296:272,1,95,4|0,0:0|0:0,0:0:0:0:
316,272,25695,1,2,0:0:0:0:
340,272,25849,2,0,L|416:200,1,95,12|2,0:0|0:0,0:0:0:0:
428,192,26308,1,2,0:0:0:0:
444,172,26461,5,4,0:0:0:0:
448,148,26614,1,0,0:0:0:0:
448,124,26767,2,0,P|416:80|376:72,1,95,0|12,0:0|0:0,0:0:0:0:
296,164,27379,1,0,0:0:0:0:
296,164,27532,1,8,0:0:0:0:
296,164,27685,5,4,0:0:0:0:
204,180,27991,1,2,0:0:0:0:
204,180,28298,1,8,1:0:0:0:
156,100,28604,1,0,0:0:0:0:
140,80,28757,1,0,1:0:0:0:
60,132,29063,5,0,1:0:0:0:
72,148,29216,1,0,1:0:0:0:
84,164,29369,1,0,0:0:0:0:
96,180,29522,1,8,1:0:0:0:
168,280,29828,1,2,0:0:0:0:
168,280,29981,1,0,0:0:0:0:
168,280,30134,5,4,0:0:0:0:
264,292,30440,1,0,0:0:0:0:
284,292,30593,1,0,0:0:0:0:
300,288,30747,1,8,1:0:0:0:
384,240,31053,1,0,1:0:0:0:
400,220,31206,1,0,0:0:0:0:
412,124,31512,5,0,1:0:0:0:
393,115,31665,1,0,1:0:0:0:
374,107,31818,1,0,0:0:0:0:
356,100,31971,1,8,1:0:0:0:
256,180,32277,1,2,0:0:0:0:
168,96,32583,5,4,0:0:0:0:
256,12,32889,1,0,0:0:0:0:
348,96,33195,1,8,1:0:0:0:
364,112,33349,1,0,0:0:0:0:
396,200,33655,5,0,1:0:0:0:
356,284,33961,1,0,1:0:0:0:
336,292,34114,1,0,1:0:0:0:
240,292,34420,1,8,1:2:0:0:
212,192,34726,1,0,0:0:0:0:
296,144,35032,6,0,P|320:108|368:88,1,95,4|0,0:0|0:0,0:0:0:0:
388,84,35491,1,0,0:0:0:0:
408,92,35644,2,0,P|432:124|488:136,1,95,12|2,0:0|0:0,0:0:0:0:
508,132,36104,1,4,0:0:0:0:
484,40,36410,1,2,0:0:0:0:
484,40,36563,1,0,0:0:0:0:
392,16,36869,1,12,0:0:0:0:
368,20,37022,1,0,0:0:0:0:
348,28,37175,1,2,0:0:0:0:
328,44,37328,1,8,0:0:0:0:
312,64,37481,5,4,0:0:0:0:
260,144,37787,1,2,0:0:0:0:
168,124,38093,2,0,L|72:92,1,95,8|2,1:2|0:0,0:0:0:0:
72,188,38706,2,0,L|168:220,1,95,0|2,1:0|0:0,0:0:0:0:
184,228,39165,2,0,P|244:264|264:336,1,142.5,0|2,0:0|0:0,0:0:0:0:
168,324,39930,1,0,1:0:0:0:
184,228,40236,5,2,0:0:0:0:
192,208,40389,1,0,0:0:0:0:
208,192,40542,2,0,P|244:156|264:104,1,95,8|2,0:0|0:0,0:0:0:0:
280,24,41155,2,0,P|332:48|348:80,1,95,0|2,1:0|0:0,0:0:0:0:
352,104,41614,2,0,P|364:152|448:180,1,142.5,0|2,0:0|0:0,0:0:0:0:
444,84,42379,1,0,1:0:0:0:
352,104,42685,5,2,0:0:0:0:
292,176,42991,2,0,P|272:220|224:248,1,95,8|0,0:0|0:0,0:0:0:0:
200,156,43604,1,0,1:0:0:0:
292,176,43910,1,0,0:0:0:0:
312,188,44063,1,0,0:0:0:0:
328,208,44216,1,8,0:0:0:0:
328,304,44522,5,2,0:0:0:0:
312,324,44675,1,0,0:0:0:0:
292,336,44828,2,0,P|232:328|192:244,1,142.5,4|2,0:0|0:0,0:0:0:0:
192,240,45440,2,0,P|167:195|123:174,1,95,8|0,0:0|0:0,0:0:0:0:
104,180,45900,1,0,0:0:0:0:
84,196,46053,2,0,P|86:246|116:284,1,95,2|0,0:0|0:0,0:0:0:0:
128,300,46512,1,0,0:0:0:0:
144,312,46665,1,12,0:0:0:0:
284,352,46971,1,0,0:0:0:0:
304,336,47124,1,8,0:0:0:0:
324,324,47277,6,0,P|368:288|408:272,1,95,4|2,0:0|0:0,0:0:0:0:
508,208,47889,1,8,0:0:0:0:
416,120,48195,1,2,0:0:0:0:
396,108,48349,1,0,0:0:0:0:
376,100,48502,2,0,P|332:76|284:72,1,95,0|0,1:0|0:0,0:0:0:0:
264,72,48961,2,0,P|208:76|160:52,1,95,2|0,0:0|0:0,0:0:0:0:
152,56,49420,2,0,L|88:144,1,95,2|4,0:0|0:0,0:0:0:0:
32,252,50032,5,2,0:0:0:0:
164,260,50338,1,8,0:0:0:0:
236,200,50644,1,2,0:0:0:0:
256,184,50798,1,0,0:0:0:0:
276,176,50951,2,0,P|328:156|372:156,1,95,0|0,1:0|0:0,0:0:0:0:
392,156,51410,2,0,P|448:152|484:112,1,95,2|0,0:0|0:0,0:0:0:0:
480,104,51869,2,0,P|452:68|388:56,1,95,2|4,0:0|0:0,0:0:0:0:
284,96,52481,5,2,0:0:0:0:
392,156,52787,1,8,0:0:0:0:
388,252,53093,1,2,0:0:0:0:
376,272,53246,1,0,0:0:0:0:
356,284,53400,2,0,P|308:304|260:296,1,95,0|0,1:0|0:0,0:0:0:0:
244,296,53859,1,2,0:0:0:0:
224,284,54012,1,8,0:0:0:0:
168,208,54318,5,2,0:0:0:0:
160,188,54471,1,0,0:0:0:0:
160,164,54624,1,4,0:0:0:0:
224,56,54930,1,0,0:0:0:0:
288,160,55236,1,8,0:0:0:0:
160,164,55542,1,0,0:0:0:0:
116,80,55849,6,0,P|68:124|100:224,1,142.5,4|0,0:0|0:0,0:0:0:0:
84,216,56461,2,0,P|104:260|92:312,1,95,8|2,0:0|0:0,0:0:0:0:
88,328,56920,1,8,0:0:0:0:
88,352,57073,1,4,0:0:0:0:
216,344,57379,5,2,0:0:0:0:
196,208,57685,1,8,0:0:0:0:
192,112,57991,1,2,0:0:0:0:
200,92,58144,1,0,0:0:0:0:
216,76,58298,2,0,P|256:52|304:60,1,95,0|0,1:0|0:0,1:0:0:0:
324,68,58757,2,0,P|368:80|416:68,1,95,2|0,0:0|0:0,0:0:0:0:
436,64,59216,2,0,P|488:80|512:120,1,95,2|4,0:0|0:0,0:0:0:0:
404,180,59828,5,2,0:0:0:0:
324,68,60134,1,8,0:0:0:0:
252,128,60440,1,0,0:0:0:0:
300,212,60746,2,0,L|360:300,1,95,0|0,1:0|0:0,0:0:0:0:
292,360,61359,2,0,L|232:272,1,95,8|2,0:0|0:0,0:0:0:0:
208,192,61971,6,0,P|236:140|356:140,1,190,4|8,0:0|0:0,0:0:0:0:
408,216,62889,1,2,0:0:0:0:
372,304,63195,2,0,P|332:328|280:332,1,95,0|2,1:0|0:0,0:0:0:0:
260,332,63655,1,0,0:0:0:0:
236,324,63808,1,8,0:0:0:0:
104,264,64114,5,2,0:0:0:0:
84,172,64420,2,0,L|40:144,2,47.5,4|0|0,0:0|0:0|0:0,0:0:0:0:
104,184,64879,1,2,0:0:0:0:
128,188,65032,2,0,P|176:196|224:188,1,95,12|2,0:0|0:0,0:0:0:0:
244,184,65491,5,0,0:0:0:0:
268,176,65644,2,0,P|316:168|376:184,1,95,4|2,0:0|0:0,0:0:0:0:
384,180,66104,1,0,0:0:0:0:
404,168,66257,2,0,L|480:80,1,95,12|0,0:0|0:0,0:0:0:0:
480,80,66716,1,8,0:0:0:0:
496,60,66869,1,4,0:0:0:0:
368,16,67175,5,2,0:0:0:0:
368,160,67481,1,8,0:0:0:0:
272,160,67787,1,2,0:0:0:0:
248,160,67940,1,0,0:0:0:0:
224,152,68093,2,0,P|176:128|148:92,1,95,0|0,1:0|0:0,0:0:0:0:
128,96,68553,2,0,P|112:133|72:169,1,95,2|0,2:0|0:0,0:0:0:0:
52,184,69012,2,0,P|20:232|20:276,1,95,2|4,0:0|0:0,0:0:0:0:
144,264,69624,5,2,0:0:0:0:
208,152,69930,1,8,0:0:0:0:
292,196,70236,1,2,0:0:0:0:
312,208,70389,1,0,0:0:0:0:
332,220,70542,2,0,P|392:248|432:240,1,95,0|0,1:0|0:0,0:0:0:0:
436,228,71002,2,0,P|420:180|380:144,1,95,2|0,0:0|0:0,0:0:0:0:
368,136,71461,2,0,P|328:96|312:56,1,95,2|4,0:0|0:0,0:0:0:0:
440,24,72073,5,2,0:0:0:0:
504,140,72379,1,8,0:0:0:0:
436,208,72685,1,2,0:0:0:0:
420,228,72838,1,0,0:0:0:0:
400,244,72991,2,0,P|332:280|292:276,1,95,0|2,1:0|0:0,0:0:0:0:
292,284,73451,1,0,0:0:0:0:
268,280,73604,1,8,0:0:0:0:
176,248,73910,5,2,0:0:0:0:
156,232,74063,1,0,0:0:0:0:
144,212,74216,1,4,0:0:0:0:
152,88,74522,1,0,0:0:0:0:
240,152,74828,1,8,0:0:0:0:
144,212,75134,1,0,0:0:0:0:
152,88,75440,6,0,P|208:36|308:68,1,190,4|8,0:0|0:0,0:0:0:0:
312,152,76359,1,0,0:0:0:0:
308,176,76512,1,8,0:0:0:0:
296,196,76665,1,4,0:0:0:0:
192,272,76971,5,2,0:0:0:0:
268,368,77277,1,8,0:0:0:0:
372,312,77583,1,2,0:0:0:0:
392,296,77736,1,0,0:0:0:0:
408,276,77889,2,0,P|448:232|468:180,1,95,0|0,1:0|0:0,0:0:0:0:
460,176,78349,2,0,P|400:188|356:168,1,95,2|0,0:0|0:0,0:0:0:0:
348,168,78808,2,0,P|304:152|252:160,1,95,2|4,0:0|0:0,0:0:0:0:
288,288,79420,5,2,0:0:0:0:
416,260,79726,1,8,0:0:0:0:
460,176,80032,1,0,0:0:0:0:
412,92,80338,2,0,P|348:68|324:76,1,95,0|0,1:0|0:0,0:0:0:0:
264,148,80951,2,0,P|328:172|352:164,1,95,8|0,0:0|0:0,0:0:0:0:
380,256,81563,6,0,P|308:276|204:220,1,190,4|8,0:0|0:0,0:0:0:0:
180,136,82481,1,2,0:0:0:0:
184,40,82787,2,0,P|132:44|92:96,1,95,0|2,1:0|0:0,0:0:0:0:
92,92,83246,1,0,0:0:0:0:
80,112,83400,1,8,0:0:0:0:
96,240,83706,5,2,0:0:0:0:
116,252,83859,1,0,0:0:0:0:
140,260,84012,2,0,P|188:272|240:264,1,95,4|2,0:0|0:0,0:0:0:0:
256,260,84471,1,0,0:0:0:0:
280,256,84624,2,0,P|332:252|388:260,1,95,12|2,0:0|0:0,0:0:0:0:
396,264,85083,1,0,0:0:0:0:
420,272,85236,5,4,0:0:0:0:
444,272,85389,1,0,0:0:0:0:
464,264,85542,2,0,P|496:224|496:176,1,95,2|8,0:0|0:0,0:0:0:0:
404,164,86155,1,4,0:0:0:0:
