osu file format v12

[General]
AudioFilename: trust me.mp3
AudioLeadIn: 0
PreviewTime: 8260
Countdown: 0
SampleSet: Soft
StackLeniency: 0.7
Mode: 0
LetterboxInBreaks: 0

[Editor]
DistanceSpacing: 0.9
BeatDivisor: 4
GridSize: 4

[Metadata]
Title:Trust Me (TV Size)
TitleUnicode:Trust Me (TV Size)
Artist:Yuya Matsushita
ArtistUnicode:松下優也
Creator:Kei
Version:Easy
Source:Durarara!!
Tags:drrr ending
BeatmapID:246411
BeatmapSetID:89648

[Difficulty]
HPDrainRate:2
CircleSize:3
OverallDifficulty:2
ApproachRate:3
SliderMultiplier:1.2
SliderTickRate:2

[Events]
//Background and Video events
0,0,"durararabackground.jpg",0,0
Video,-818,"blah.avi"
//Break Periods
//Storyboard Layer 0 (Background)
//Storyboard Layer 1 (Fail)
//Storyboard Layer 2 (Pass)
//Storyboard Layer 3 (Foreground)
//Storyboard Sound Samples
//Background Colour Transformations
3,100,163,162,255

[TimingPoints]
747,612.244897959184,4,2,1,75,1,0
8093,-100,4,2,1,85,0,1
8246,-100,4,2,1,85,0,0
27685,-100,4,2,1,55,0,0
35032,-100,4,2,1,75,0,0
47277,-100,4,2,1,85,0,1
56920,-100,4,2,1,85,0,0
57073,-100,4,2,1,85,0,1
66716,-100,4,2,1,85,0,0
66869,-100,4,2,1,85,0,1
76512,-100,4,2,1,85,0,0
76665,-100,4,2,1,85,0,1
84012,-100,4,2,1,75,0,0
84624,-100,4,2,1,45,0,0
85236,-100,4,2,1,75,0,0

[Colours]
Combo1 : 249,236,81
Combo2 : 255,113,113
Combo3 : 94,189,247

[HitObjects]
72,76,2583,2,0,P|128:48|184:60,1,120,8|4,1:0|0:0,0:0:0:0:
232,156,3808,2,0,P|168:228|48:184,1,240,8|8,0:0|0:0,0:0:0:0:
136,124,5644,6,0,L|180:68,2,60,4|2|12,0:0|0:0|0:0,0:0:0:0:
36,80,6869,2,0,L|88:12,2,60,4|2|12,0:0|0:0|0:0,0:0:0:0:
44,188,8093,5,4,0:0:0:0:
112,272,8706,1,8,0:0:0:0:
216,300,9318,2,0,P|340:300|388:180,1,240,0|4,1:0|0:0,0:0:0:0:
284,212,11155,5,8,0:0:0:0:
176,216,11767,2,0,P|226:124|350:124,1,240,0|4,1:0|0:0,0:0:0:0:
456,144,13604,5,8,0:0:0:0:
416,44,14216,2,0,P|368:12|300:0,1,120,0|8,1:0|0:0,0:0:0:0:
208,44,15440,6,0,L|164:84,2,60,4|2|8,0:0|0:0|0:0,0:0:0:0:
296,108,16665,2,0,L|252:152,2,60,4|2|8,0:0|0:0|0:0,0:0:0:0:
388,168,17889,6,0,L|296:260,1,120,4|8,0:0|0:0,0:0:0:0:
272,356,19114,2,0,P|216:324|196:256,1,120,0|8,1:0|0:0,0:0:0:0:
232,172,20338,5,4,0:0:0:0:
148,104,20951,1,8,0:0:0:0:
64,172,21563,2,0,P|32:224|32:288,1,120,0|8,1:0|0:0,0:0:0:0:
136,256,22787,6,0,P|200:228|352:296,1,240,4|0,0:0|1:0,0:0:0:0:
428,364,24624,1,8,0:0:0:0:
456,260,25236,6,0,P|444:148|312:48,1,240,4|4,0:0|0:0,0:0:0:0:
248,64,27073,1,8,0:0:0:0:
168,136,27685,5,4,0:0:0:0:
84,193,28298,2,0,P|68:136|88:72,2,120,8|0|8,1:2|0:0|1:0,0:0:0:0:
124,296,30134,5,4,0:0:0:0:
200,220,30747,2,0,P|256:160|312:160,2,120,8|0|8,1:0|0:0|1:0,0:0:0:0:
212,328,32583,1,4,0:0:0:0:
300,264,33195,6,0,P|428:244|448:116,1,240,8|8,1:0|1:0,0:0:0:0:
400,60,35032,2,0,P|292:64|232:176,1,240,4|0,0:0|1:0,0:0:0:0:
228,276,36869,2,0,L|172:312,2,60,8|2|4,0:0|0:0|1:2,0:0:0:0:
320,224,38093,5,8,0:0:0:0:
308,116,38706,2,0,P|224:72|88:116,1,240,0|0,1:0|1:0,0:0:0:0:
40,208,40542,5,8,0:0:0:0:
88,304,41155,2,0,B|196:344|196:344|316:304,1,240,0|0,1:0|1:0,0:0:0:0:
412,260,42991,5,8,0:0:0:0:
464,164,43604,2,0,P|396:148|344:176,1,120,0|8,1:0|0:0,0:0:0:0:
256,216,44828,6,4,P|152:220|68:124,1,240,4|0,0:0|1:0,0:0:0:0:
152,52,46665,2,0,L|212:64,2,60,8|2|4,0:0|0:0|0:0,0:0:0:0:
48,32,47889,5,8,0:0:0:0:
56,140,48502,2,0,P|112:280|196:312,1,240,0|4,1:0|0:0,0:0:0:0:
292,328,50338,5,8,0:0:0:0:
320,224,50951,2,0,P|264:84|180:52,1,240,0|4,1:0|0:0,0:0:0:0:
124,140,52787,5,8,0:0:0:0:
140,248,53400,2,0,P|186:293|246:300,1,120,0|8,1:0|0:0,0:0:0:0:
348,292,54624,6,0,L|420:316,2,60,4|2|8,0:0|0:0|0:0,0:0:0:0:
324,188,55849,2,0,L|384:204,2,60,4|2|8,0:0|0:0|0:0,0:0:0:0:
232,252,57073,5,4,0:0:0:0:
140,192,57685,1,8,0:0:0:0:
172,88,58298,2,0,B|240:56|240:56|332:96|396:40,1,240,0|4,0:0|0:0,0:0:0:0:
504,40,60134,5,8,0:0:0:0:
452,132,60747,2,0,B|380:174|390:274|390:274|338:329,1,240,0|4,0:0|0:0,0:0:0:0:
256,256,62583,2,2,L|256:192,2,60,8|2|0,0:0|0:0|1:0,0:0:0:0:
176,328,63808,1,8,0:0:0:0:
88,268,64420,6,0,P|76:188|208:100,1,240,4|4,0:0|0:0,0:0:0:0:
276,160,66257,2,0,L|324:196,2,60,8|2|4,0:0|0:0|0:0,0:0:0:0:
348,80,67481,6,0,L|444:156,1,120,8|0,0:0|1:0,0:0:0:0:
496,248,68706,1,8,0:0:0:0:
396,288,69318,6,0,P|344:308|280:284,1,120,4|8,0:0|0:0,0:0:0:0:
176,288,70542,2,0,P|200:212|344:200,1,240,0|4,1:0|0:0,0:0:0:0:
448,216,72379,5,8,0:0:0:0:
396,120,72991,2,0,P|340:88|280:80,1,120,0|8,1:0|0:0,0:0:0:0:
180,52,74216,6,0,L|108:36,2,60,4|2|8,0:0|0:0|0:0,0:0:0:0:
208,156,75440,2,0,L|156:200,2,60,4|2|8,0:0|0:0|0:0,0:0:0:0:
284,80,76665,5,4,0:0:0:0:
300,188,77277,2,0,P|332:284|452:344,1,240,8|8,0:0|2:0,0:0:0:0:
484,240,79114,5,4,0:0:0:0:
412,160,79726,1,8,0:0:0:0:
348,76,80338,6,0,P|216:92|164:188,1,240,0|4,1:0|0:0,0:0:0:0:
124,276,82175,2,0,L|80:316,2,60,8|2|0,0:0|0:0|1:0,0:0:0:0:
232,264,83400,2,0,L|276:224,2,60,8|2|4,0:0|0:0|0:0,0:0:0:0:
184,360,84624,5,8,1:0:0:0:
292,356,85236,2,0,B|348:356|360:312|360:312|400:336|452:288,1,180,4|4,0:0|0:0,0:0:0:0:
