osu file format v9

[General]
AudioFilename: Yuya Matsushita - Trust Me (Short Ver.).mp3
AudioLeadIn: 0
PreviewTime: 59556
Countdown: 0
SampleSet: Soft
StackLeniency: 0.7
Mode: 1
LetterboxInBreaks: 1

[Editor]
Bookmarks: 59530
DistanceSpacing: 1
BeatDivisor: 4
GridSize: 8

[Metadata]
Title:Trust Me (Short Ver.)
Artist:Yuya Matsushita
Creator:0OoMickeyoO0
Version:Taiko
Source:Durarara!!
Tags:DRRR!! Yasora-chan

[Difficulty]
HPDrainRate:5
CircleSize:5
OverallDifficulty:5
ApproachRate:5
SliderMultiplier:1.9
SliderTickRate:2

[Events]
//Background and Video events
0,0,"TaikoBG.jpg"
//Break Periods
//Storyboard Layer 0 (Background)
//Storyboard Layer 1 (Fail)
//Storyboard Layer 2 (Pass)
//Storyboard Layer 3 (Foreground)
//Storyboard Sound Samples
//Background Colour Transformations
3,100,163,162,255

[TimingPoints]
792,612.088752869166,4,1,0,100,1,0
30019,-100,4,2,0,100,0,0
59476,-100,4,1,0,100,0,0
59552,-100,4,1,0,100,0,1
79139,-100,4,1,0,100,0,0
83883,-100,4,2,0,100,0,0
113339,-100,4,1,0,100,0,0
113416,-100,4,1,0,100,0,1
152590,-100,4,1,0,100,0,0

[Colours]
Combo1 : 128,128,128
Combo2 : 225,100,0
Combo3 : 100,50,0

[HitObjects]
256,192,10589,1,4
256,192,10895,1,0
256,192,11201,1,8
256,192,11507,1,0
256,192,11660,1,0
256,192,11813,1,0
256,192,12119,1,0
256,192,12272,1,0
256,192,12425,1,8
256,192,12578,1,0
256,192,12731,1,0
256,192,13037,1,0
256,192,13343,1,0
256,192,13649,1,8
256,192,13955,1,0
256,192,14108,1,0
256,192,14261,1,0
256,192,14567,1,0
256,192,14721,1,0
256,192,14874,1,8
256,192,15027,1,0
256,192,15180,1,0
256,192,15486,1,0
256,192,15792,1,0
256,192,16098,1,8
256,192,16404,1,0
256,192,16557,1,0
256,192,16710,1,0
256,192,17016,1,0
256,192,17169,1,0
256,192,17322,1,8
256,192,17628,1,0
256,192,17781,1,8
256,192,17934,1,0
256,192,18240,1,8
256,192,18546,1,0
256,192,18852,1,8
256,192,19158,1,0
256,192,19464,1,8
256,192,19770,1,0
256,192,19923,1,0
256,192,20076,1,8
256,192,20229,1,8
256,192,20382,1,0
256,192,20688,1,0
256,192,20994,1,8
256,192,21300,1,0
256,192,21453,1,0
256,192,21607,1,0
256,192,21913,1,0
256,192,22066,1,0
256,192,22219,1,8
256,192,22372,1,0
256,192,22525,1,0
256,192,22831,1,0
256,192,23137,1,0
256,192,23443,1,8
256,192,23749,1,0
256,192,23902,1,8
256,192,24055,1,0
256,192,24361,1,0
256,192,24667,1,8
256,192,24973,1,0
256,192,25126,1,0
256,192,25279,1,0
256,192,25432,1,0
256,192,25585,1,0
256,192,25738,1,0
256,192,25891,1,8
256,192,26197,1,0
256,192,26503,1,0
256,192,26809,1,0
256,192,26962,1,0
256,192,27115,1,8
256,192,27421,1,0
256,192,27574,1,8
256,192,27727,1,0
256,192,28033,1,0
256,192,28186,1,0
256,192,28339,1,8
256,192,28646,1,0
256,192,28799,1,0
256,192,28952,1,0
256,192,29105,1,0
256,192,29258,1,0
256,192,29564,1,8
256,192,29870,1,8
256,192,30176,1,4
256,192,30482,1,0
256,192,30788,1,8
256,192,31094,1,0
256,192,31247,1,0
256,192,31553,1,0
256,192,31706,1,0
256,192,32012,1,8
256,192,32318,1,0
256,192,32624,1,0
256,192,32930,1,0
256,192,33083,1,0
256,192,33236,1,8
256,192,33542,1,0
256,192,33695,1,0
256,192,34001,1,0
256,192,34154,1,0
256,192,34460,1,8
256,192,34613,1,8
256,192,34766,1,8
256,192,34919,1,8
256,192,35072,1,0
256,192,35379,1,0
256,192,35532,1,0
256,192,35685,1,8
256,192,35991,1,0
256,192,36144,1,0
256,192,36450,1,0
256,192,36603,1,0
256,192,36909,1,8
256,192,37215,1,0
256,192,37521,1,8
256,192,37674,1,0
256,192,37827,1,0
256,192,37980,1,0
256,192,38133,1,8
256,192,38439,1,0
256,192,38592,1,8
256,192,38898,1,8
256,192,39051,1,0
256,192,39357,1,8
256,192,39510,1,0
256,192,39663,1,8
256,192,39816,1,8
256,192,39969,1,0
256,192,40275,1,0
256,192,40581,1,8
256,192,40887,1,0
256,192,41040,1,0
256,192,41346,1,0
256,192,41499,1,0
256,192,41805,1,8
256,192,42111,1,0
256,192,42265,1,8
256,192,42418,1,0
256,192,42724,1,0
256,192,42877,1,0
256,192,43030,1,8
256,192,43336,1,0
256,192,43489,1,8
256,192,43795,1,8
256,192,43948,1,0
256,192,44254,1,8
256,192,44560,1,8
256,192,44866,1,4
256,192,45172,1,0
256,192,45478,1,8
256,192,45631,1,0
256,192,45937,1,0
256,192,46243,1,0
256,192,46396,1,0
256,192,46549,1,0
256,192,46702,1,8
256,192,47008,1,8
256,192,47314,1,8
256,192,47467,1,0
256,192,47620,1,0
256,192,47773,1,0
256,192,47926,1,8
256,192,48079,1,0
256,192,48232,1,0
256,192,48385,1,8
256,192,48691,1,8
256,192,48844,1,0
256,192,49151,1,8
256,192,49304,1,0
256,192,49457,1,8
256,192,49610,1,8
256,192,49763,1,0
256,192,50069,1,0
256,192,50375,1,8
256,192,50681,1,0
256,192,50987,1,0
256,192,51293,1,0
256,192,51446,1,0
256,192,51599,1,8
256,192,51905,1,0
256,192,52211,1,0
256,192,52517,1,0
256,192,52670,1,0
256,192,52823,1,8
256,192,53129,1,0
256,192,53435,1,0
256,192,53588,1,0
256,192,53741,1,0
256,192,53894,1,0
256,192,54047,1,8
256,192,54200,1,0
256,192,54506,1,8
256,192,54659,1,0
256,192,54965,1,0
256,192,55118,1,0
256,192,55271,1,8
256,192,55577,1,0
256,192,55883,1,0
256,192,56190,1,0
256,192,56343,1,0
256,192,56496,1,8
256,192,56802,1,0
256,192,56955,1,0
256,192,57108,1,8
256,192,57261,1,0
256,192,57567,1,0
256,192,57720,1,8
256,192,58026,1,0
256,192,58179,1,8
256,192,58485,1,8
256,192,58638,1,0
256,192,58944,1,8
256,192,59097,1,0
256,192,59250,1,8
256,192,59403,1,8
256,192,59556,1,0
256,192,59862,1,0
256,192,60168,1,8
256,192,60474,1,0
256,192,60627,1,0
256,192,60780,1,0
256,192,61086,1,0
256,192,61239,1,0
256,192,61392,1,8
256,192,61545,1,0
256,192,61698,1,0
256,192,62004,1,0
256,192,62310,1,0
256,192,62616,1,8
256,192,62923,1,0
256,192,63076,1,0
256,192,63229,1,0
256,192,63535,1,0
256,192,63688,1,0
256,192,63841,1,8
256,192,63994,1,0
256,192,64147,1,0
256,192,64453,1,0
256,192,64759,1,0
256,192,65065,1,8
256,192,65371,1,0
256,192,65524,1,0
256,192,65677,1,0
256,192,65983,1,0
256,192,66136,1,8
256,192,66442,1,8
256,192,66595,1,0
256,192,66748,1,8
256,192,66901,1,0
256,192,67207,1,8
256,192,67513,1,0
256,192,67819,1,8
256,192,67972,1,8
256,192,68125,1,0
256,192,68431,1,8
256,192,68737,1,0
256,192,68890,1,8
256,192,69043,1,0
256,192,69196,1,8
256,192,69349,1,0
256,192,69655,1,0
256,192,69962,1,8
256,192,70268,1,0
256,192,70421,1,0
256,192,70574,1,0
256,192,70880,1,0
256,192,71033,1,0
256,192,71186,1,8
256,192,71339,1,0
256,192,71492,1,0
256,192,71798,1,0
256,192,72104,1,8
256,192,72410,1,8
256,192,73022,1,8
256,192,73328,1,0
256,192,73634,1,8
256,192,73940,1,8
256,192,74093,1,0
256,192,74246,1,0
256,192,74399,1,8
256,192,74552,1,0
256,192,74705,1,0
256,192,74858,1,8
256,192,75164,1,0
256,192,75470,1,0
256,192,75776,1,0
256,192,75929,1,0
256,192,76082,1,8
256,192,76388,1,0
256,192,76541,1,8
256,192,76695,1,0
256,192,76848,1,0
256,192,77001,1,0
256,192,77154,1,0
256,192,77307,1,8
256,192,77613,1,0
256,192,77766,1,8
256,192,77919,1,0
256,192,78072,1,8
256,192,78225,1,0
256,192,78378,1,0
256,192,78531,1,8
256,192,78837,1,8
256,192,78939,1,8
256,192,79041,1,8
256,192,79143,1,0
256,192,79755,1,8
256,192,80061,1,0
256,192,80214,1,0
256,192,80367,1,8
256,192,80673,1,0
256,192,80826,1,8
256,192,81132,1,8
256,192,81285,1,0
256,192,81591,1,4
256,192,81897,1,8
256,192,82203,1,4
256,192,82509,1,8
256,192,82815,1,4
256,192,83121,1,8
256,192,83427,1,4
256,192,84040,1,12
256,192,84346,1,0
256,192,84499,1,0
256,192,84652,1,8
256,192,84958,1,0
256,192,85111,1,0
256,192,85417,1,0
256,192,85723,1,0
256,192,85876,1,8
256,192,86182,1,0
256,192,86488,1,0
256,192,86794,1,0
256,192,86947,1,0
256,192,87100,1,8
256,192,87406,1,0
256,192,87559,1,0
256,192,87865,1,0
256,192,88171,1,0
256,192,88324,1,8
256,192,88477,1,0
256,192,88630,1,0
256,192,88783,1,8
256,192,88936,1,0
256,192,89242,1,0
256,192,89395,1,0
256,192,89548,1,8
256,192,89854,1,0
256,192,90007,1,8
256,192,90313,1,8
256,192,90620,1,0
256,192,90773,1,8
256,192,91079,1,0
256,192,91385,1,0
256,192,91538,1,0
256,192,91691,1,0
256,192,91844,1,0
256,192,91997,1,8
256,192,92150,1,0
256,192,92303,1,0
256,192,92456,1,8
256,192,92762,1,8
256,192,92915,1,0
256,192,93221,1,8
256,192,93374,1,0
256,192,93527,1,8
256,192,93680,1,8
256,192,93833,1,0
256,192,94139,1,0
256,192,94292,1,0
256,192,94445,1,8
256,192,94751,1,0
256,192,94904,1,0
256,192,95210,1,0
256,192,95363,1,0
256,192,95516,1,0
256,192,95669,1,8
256,192,95975,1,0
256,192,96281,1,0
256,192,96587,1,0
256,192,96740,1,0
256,192,96893,1,8
256,192,97199,1,0
256,192,97353,1,0
256,192,97659,1,0
256,192,97812,1,0
256,192,98118,1,8
256,192,98424,1,0
256,192,98577,1,8
256,192,98730,1,0
256,192,99036,1,0
256,192,99342,1,8
256,192,99495,1,0
256,192,99801,1,0
256,192,100107,1,0
256,192,100260,1,0
256,192,100413,1,0
256,192,100566,1,8
256,192,100872,1,8
256,192,101178,1,8
256,192,101331,1,0
256,192,101484,1,0
256,192,101637,1,0
256,192,101790,1,8
256,192,101943,1,0
256,192,102096,1,0
256,192,102249,1,8
256,192,102555,1,8
256,192,102708,1,0
256,192,103014,1,8
256,192,103167,1,0
256,192,103320,1,8
256,192,103473,1,8
256,192,103626,1,0
256,192,103932,1,0
256,192,104085,1,0
256,192,104238,1,8
256,192,104545,1,0
256,192,104851,1,0
256,192,105157,1,0
256,192,105310,1,0
256,192,105463,1,8
256,192,105769,1,0
256,192,105922,1,0
256,192,106075,1,0
256,192,106381,1,0
256,192,106687,1,8
256,192,106993,1,0
256,192,107299,1,0
256,192,107605,1,0
256,192,107758,1,0
256,192,107911,1,8
256,192,108064,1,0
256,192,108370,1,8
256,192,108523,1,0
256,192,108829,1,0
256,192,108982,1,0
256,192,109135,1,8
256,192,109441,1,0
256,192,109747,1,0
256,192,109900,1,0
256,192,110053,1,0
256,192,110206,1,0
256,192,110359,1,8
256,192,110665,1,0
256,192,110818,1,0
256,192,110971,1,0
256,192,111124,1,8
256,192,111431,1,8
256,192,111584,1,0
256,192,111890,1,0
256,192,112043,1,8
256,192,112349,1,8
256,192,112502,1,0
256,192,112808,1,0
256,192,112961,1,0
256,192,113114,1,8
256,192,113267,1,8
256,192,113420,1,0
256,192,113726,1,0
256,192,114032,1,8
256,192,114338,1,0
256,192,114491,1,0
256,192,114644,1,0
256,192,114950,1,0
256,192,115103,1,0
256,192,115256,1,8
256,192,115409,1,0
256,192,115562,1,0
256,192,115868,1,0
256,192,116174,1,0
256,192,116480,1,8
256,192,116786,1,0
256,192,116939,1,0
256,192,117092,1,0
256,192,117398,1,0
256,192,117551,1,0
256,192,117704,1,8
256,192,117857,1,0
256,192,118010,1,0
256,192,118317,1,0
256,192,118623,1,0
256,192,118929,1,8
256,192,119235,1,0
256,192,119388,1,0
256,192,119541,1,0
256,192,119847,1,0
256,192,120000,1,8
256,192,120306,1,8
256,192,120459,1,0
256,192,120612,1,0
256,192,120765,1,0
256,192,121071,1,12
256,192,121377,1,0
256,192,121683,1,12
256,192,121989,1,0
256,192,122295,1,12
256,192,122601,1,8
256,192,122754,1,8
256,192,122907,1,8
256,192,123060,1,8
256,192,123213,1,0
256,192,123519,1,0
256,192,123825,1,8
256,192,124131,1,0
256,192,124284,1,0
256,192,124437,1,8
256,192,124590,1,0
256,192,124743,1,0
256,192,124896,1,8
256,192,125203,1,8
256,192,125356,1,0
256,192,125662,1,0
256,192,125968,1,0
256,192,126274,1,8
256,192,126580,1,0
256,192,126733,1,0
256,192,126886,1,0
256,192,127039,1,8
256,192,127192,1,0
256,192,127498,1,8
256,192,127804,1,0
256,192,127957,1,0
256,192,128110,1,0
256,192,128263,1,8
256,192,128416,1,0
256,192,128722,1,8
256,192,129028,1,0
256,192,129334,1,0
256,192,129640,1,0
256,192,129793,1,0
256,192,129946,1,8
256,192,130252,1,0
256,192,130405,1,8
256,192,130558,1,0
256,192,130711,1,0
256,192,130864,1,0
256,192,131017,1,0
256,192,131170,1,8
256,192,131323,1,0
256,192,131476,1,0
256,192,131629,1,8
256,192,131782,1,0
256,192,131936,1,8
256,192,132089,1,0
256,192,132395,1,8
256,192,132548,1,0
256,192,132701,1,8
256,192,132803,1,8
256,192,132905,1,8
256,192,133007,1,0
256,192,133313,1,0
256,192,133619,1,8
256,192,133925,1,0
256,192,134078,1,0
256,192,134231,1,8
256,192,134537,1,0
256,192,134690,1,0
256,192,134843,1,8
256,192,134996,1,0
256,192,135149,1,0
256,192,135455,1,8
256,192,135761,1,0
256,192,136067,1,8
256,192,136373,1,0
256,192,136526,1,0
256,192,136679,1,8
256,192,136985,1,0
256,192,137138,1,8
256,192,137291,1,0
256,192,137444,1,0
256,192,137597,1,8
256,192,137903,1,8
256,192,138209,1,0
256,192,138515,1,8
256,192,138822,1,0
256,192,138975,1,8
256,192,139128,1,0
256,192,139434,1,8
256,192,139587,1,0
256,192,139740,1,8
256,192,140046,1,0
256,192,140199,1,8
256,192,140352,1,0
256,192,140658,1,12
256,192,140964,1,0
256,192,141270,1,12
256,192,141576,1,0
256,192,141882,1,12
256,192,142188,1,0
256,192,142341,1,0
256,192,142494,1,8
256,192,142647,1,8
256,192,142800,1,0
256,192,143106,1,0
256,192,143412,1,8
256,192,143718,1,0
256,192,143871,1,0
256,192,144024,1,8
256,192,144330,1,0
256,192,144483,1,0
256,192,144636,1,8
256,192,144789,1,8
256,192,144942,1,0
256,192,145248,1,8
256,192,145554,1,4
256,192,145861,1,4
256,192,146473,1,0
256,192,146779,1,0
256,192,147085,1,8
256,192,147391,1,0
256,192,147544,1,0
256,192,147697,1,0
256,192,147850,1,0
256,192,148003,1,0
256,192,148156,1,0
256,192,148309,1,8
256,192,148615,1,0
256,192,148921,1,0
256,192,149074,1,0
256,192,149227,1,0
256,192,149380,1,0
256,192,149533,1,8
256,192,149839,1,0
256,192,149992,1,8
256,192,150145,1,0
256,192,150451,1,0
256,192,150604,1,0
256,192,150757,1,8
256,192,151063,1,0
256,192,151216,1,8
256,192,151369,1,8
256,192,151522,1,8
256,192,151675,1,0
256,192,151981,1,12
256,192,152287,1,12
256,192,152594,1,4
