osu file format v9

[General]
AudioFilename: Yuya Matsushita - Trust Me (Short Ver.).mp3
AudioLeadIn: 0
PreviewTime: 59556
Countdown: 0
SampleSet: Normal
StackLeniency: 0.7
Mode: 0
LetterboxInBreaks: 1

[Editor]
Bookmarks: 59530
DistanceSpacing: 1
BeatDivisor: 4
GridSize: 8

[Metadata]
Title:Trust Me (Short Ver.)
Artist:Yuya Matsushita
Creator:0OoMickeyoO0
Version:Hard
Source:Durarara!!
Tags:DRRR!! Yasora-chan

[Difficulty]
HPDrainRate:5
CircleSize:4
OverallDifficulty:5
ApproachRate:7
SliderMultiplier:1.92
SliderTickRate:2

[Events]
//Background and Video events
0,0,"BG1.jpg"
//Break Periods
2,84240,92933
//Storyboard Layer 0 (Background)
//Storyboard Layer 1 (Fail)
//Storyboard Layer 2 (Pass)
//Storyboard Layer 3 (Foreground)
//Storyboard Sound Samples
//Background Colour Transformations
3,100,163,162,255

[TimingPoints]
792,612.088752869166,4,1,1,70,1,0
22062,-100,4,1,2,70,0,0
22368,-100,4,1,1,70,0,0
30248,-100,4,2,1,70,0,0
31166,-100,4,1,1,70,0,0
31778,-100,4,2,1,70,0,0
32544,-100,4,1,1,60,0,0
32697,-100,4,2,1,70,0,0
33615,-100,4,1,1,70,0,0
34227,-100,4,2,1,70,0,0
34992,-100,4,1,1,60,0,0
35161,-100,4,2,1,70,0,0
36063,-100,4,1,1,70,0,0
36675,-100,4,2,1,70,0,0
37440,-100,4,1,1,70,0,0
40042,-100,4,2,1,70,0,0
40960,-100,4,1,1,70,0,0
41572,-100,4,2,1,70,0,0
42337,-100,4,1,1,60,0,0
42490,-100,4,2,1,70,0,0
43408,-100,4,1,1,70,0,0
44020,-200,4,2,1,40,0,0
44785,-100,4,1,1,60,0,0
44938,-100,4,2,1,70,0,0
45857,-100,4,1,1,70,0,0
46469,-100,4,2,1,70,0,0
47234,-100,4,1,1,70,0,0
49835,-100,4,1,1,60,0,0
51136,-100,4,2,1,70,0,0
51518,-100,4,1,1,60,0,0
52360,-100,4,2,1,70,0,0
52743,-100,4,1,1,60,0,0
53508,-100,4,2,1,70,0,0
53967,-100,4,1,1,60,0,0
54808,-100,4,2,1,70,0,0
55191,-100,4,1,1,60,0,0
55956,-100,4,2,1,70,0,0
56415,-100,4,1,1,60,0,0
58863,-100,4,1,1,70,0,0
59552,-100,4,1,1,70,0,1
79139,-100,4,1,1,70,0,0
79292,-100,4,2,1,80,0,0
79674,-100,4,1,1,70,0,0
80516,-100,4,2,1,70,0,0
80899,-100,4,1,1,70,0,0
93906,-100,4,2,1,70,0,0
94824,-100,4,1,1,70,0,0
95436,-100,4,2,1,70,0,0
96201,-100,4,1,1,60,0,0
96354,-100,4,2,1,70,0,0
97272,-100,4,1,1,70,0,0
97884,-100,4,2,1,70,0,0
98649,-100,4,1,1,60,0,0
98802,-100,4,2,1,70,0,0
99720,-100,4,1,1,70,0,0
100332,-100,4,2,1,70,0,0
101098,-100,4,1,1,70,0,0
103699,-100,4,1,1,60,0,0
105000,-100,4,2,1,70,0,0
105382,-100,4,1,1,60,0,0
106224,-100,4,2,1,70,0,0
106606,-100,4,1,1,60,0,0
107448,-100,4,2,1,70,0,0
107831,-100,4,1,1,60,0,0
108672,-100,4,2,1,70,0,0
109055,-100,4,1,1,60,0,0
109820,-100,4,2,1,70,0,0
110279,-100,4,1,1,60,0,0
112651,-100,4,1,1,70,0,0
113416,-100,4,1,1,70,0,1
151824,-200,4,1,1,60,0,1
152130,-200,4,1,1,50,0,1
152590,-200,4,1,1,50,0,0

[Colours]
Combo1 : 128,128,128
Combo2 : 225,100,0
Combo3 : 100,50,0

[HitObjects]
312,80,10589,6,0,B|360:56|424:72,2,96,4|2|10
224,112,11507,1,0
224,112,11660,1,0
224,112,11813,2,0,B|176:144|104:128,1,96,2|0
80,120,12272,1,2
40,96,12425,1,8
12,188,12731,2,0,B|16:240|64:272,1,96,2|4
152,288,13343,6,0,B|192:320|200:376,2,96,2|10|0
120,256,14108,2,0,B|112:232|112:208,1,48,0|2
232,112,14567,2,0,B|240:136|240:160,1,48,0|2
104,88,15027,2,0,B|96:64|96:40,1,48,0|2
232,112,15486,6,0,B|272:144|328:136,1,96,4|2
416,112,16098,1,10
432,208,16404,1,0
432,208,16557,1,0
432,208,16710,1,2
392,296,17016,2,0,B|416:312|432:336,2,48,0|2|8
304,336,17628,1,2
304,336,17781,1,0
304,336,17934,6,2,B|216:336|216:336|176:296|120:296,1,192,6|10
208,48,19158,2,2,B|296:48|296:48|336:88|392:88,1,192,6|10
352,176,20076,2,0,B|376:184|400:184,2,48,0|8|4
284,244,20688,5,2
192,220,20994,1,10
160,132,21300,2,0,B|136:124|112:124,2,48,0|0|2
120,216,21913,1,0
136,260,22066,1,2
176,284,22219,1,8
224,280,22372,1,0
260,248,22525,2,0,B|296:212|348:220,1,96,2|4
416,288,23137,6,0,B|380:324|328:316,2,96,2|10|0
348,220,24055,2,0,B|384:184|436:192,2,96,2|0|10
416,288,24973,2,2,B|348:340|284:288|284:288|220:236|152:288,1,288,2|10
220,356,26197,1,0
152,288,26503,1,2
56,312,26809,2,0,B|40:328|32:352,2,48,0|2|8
56,216,27421,2,0,B|32:224|16:240,2,48,2|0|6
56,120,28033,6,0,B|32:120|8:128,2,48,2|0|10
56,24,28646,1,2
104,36,28799,1,0
136,72,28952,1,2
148,120,29105,1,0
136,168,29258,1,2
136,264,29564,5,10
256,320,29870,1,2
376,264,30176,1,4
376,168,30482,6,0,B|432:168|464:224,2,96,0|8|0
328,184,31247,2,0,B|272:184|232:136,1,96
192,144,31706,2,0,B|176:128|168:104,2,48,0|0|8
144,224,32318,2,0,B|120:216|104:192,2,48,0|0|0
224,272,32930,6,0,B|208:300|176:312,2,48,0|0|8
272,192,33542,1,0
272,192,33695,1,0
352,240,34001,2,0,B|376:248|400:248,2,48
368,192,34460,2,0,B|392:192|416:176,2,48,10|2|2
368,144,34919,2,0,B|392:136|408:120,1,48,2|0
272,192,35379,6,0,B|240:184|216:192,2,48,0|0|8
240,288,35991,1,0
240,288,36144,1,0
152,252,36450,1,0
124,216,36603,1,0
80,200,36756,1,0
32,208,36909,1,8
68,296,37215,1,0
152,352,37521,6,0,B|176:352|200:344,3,48,2|0|2|0
240,328,38133,2,0,B|280:296|336:304,1,96,10|0
330,303,38592,1,2
368,216,38898,1,0
368,216,39051,2,0,B|328:184|272:192,2,96,2|10|2
424,296,39969,6,0,B|464:264|464:208,1,96,4|0
464,120,40581,1,8
392,56,40887,2,0,B|368:48|344:48,1,48
232,152,41346,2,0,B|256:160|280:160,2,48
184,136,41805,2,0,B|144:112|88:112,1,96,8|0
44,116,42265,1,0
0,140,42418,1,0
72,208,42724,5,0
64,256,42877,1,0
72,304,43030,2,0,B|96:344|152:360,1,96,8|0
176,320,43489,2,0,B|224:344|272:320,1,96
288,280,43948,1,0
344,208,44254,6,0,B|392:208,2,48,2|2|0
344,112,45172,5,0
256,160,45478,1,8
256,160,45631,1,0
168,112,45937,2,0,B|144:160|168:208,1,96
192,240,46396,2,0,B|200:264|200:288,2,48,0|0|8
96,240,47008,1,0
56,216,47161,1,0
40,168,47314,6,0,B|40:144|48:120,3,48,6|0|2|0
64,80,47926,2,0,B|112:72|160:96,1,96,10|0
157,94,48385,1,2
224,160,48691,1,0
224,160,48844,2,0,B|264:192|316:176,2,96,2|10|2
284,84,49763,1,4
376,56,50069,6,0,B|424:72|448:120,1,96,0|8
440,216,50681,1,0
440,216,50987,1,0
384,296,51293,2,0,B|384:320|392:344,2,48,0|0|8
344,208,51905,2,0,B|296:208|256:240,1,96
224,328,52517,6,0,B|240:344|264:352,2,48,0|0|8
160,256,53129,1,0
72,288,53435,1,0
72,288,53588,1,0
72,288,53741,2,0,B|64:312|64:336,2,48,0|0|8
92,196,54353,1,0
184,360,54965,5,0
184,360,55118,1,0
184,360,55271,1,8
252,292,55577,2,0,B|304:280|344:312,1,96
384,336,56037,2,0,B|408:352|440:352,3,48,0|0|0|8
512,296,56802,1,0
512,296,56955,1,0
512,296,57108,6,0,B|488:240|488:240|448:232|424:192,1,144
416,144,57720,2,0,B|368:120|320:144|320:144|280:128,1,144,8|0
232,128,58332,2,0,B|192:144|192:144|144:120|96:144,1,144,0|0
88,192,58944,2,0,B|64:232|24:240|24:240|0:296,1,144,8|0
0,297,59556,5,4
88,336,59862,2,0,B|136:352|184:336,1,96,2|10
272,296,60474,1,0
272,296,60627,1,0
272,296,60780,2,0,B|320:280|368:296,1,96,2|0
408,312,61239,1,2
448,344,61392,1,8
512,272,61698,1,2
448,200,62004,6,0,B|448:148|412:112,1,96,4|2
320,120,62616,1,10
256,192,62923,2,0,B|208:192,2,48,0|0|2
120,120,63535,2,0,B|144:112|168:112,1,48,0|2
120,264,63994,2,0,B|144:272|168:272,1,48,0|2
32,240,64453,6,0,B|8:192|32:144,1,96,4|2
48,56,65065,1,10
120,120,65371,2,0,B|144:112|160:88,2,48,0|0|2
112,216,65983,2,0,B|136:216|160:200,2,48,0|2|8
56,296,66595,1,2
56,296,66748,1,0
56,296,66901,6,2,B|88:344|144:344|144:344|156:296|200:272,1,192,6|10
256,376,67819,1,0
316,274,68125,2,2,B|356:296|368:344|368:344|424:344|456:296,1,192,6|10
400,216,69043,2,0,B|376:216|352:200,2,48,0|8|4
496,200,69655,5,2
432,128,69962,1,10
336,136,70268,2,0,B|328:112|328:88,2,48,0|0|2
296,224,70880,2,0,B|280:240|256:248,1,48,0|2
104,248,71339,2,0,B|120:232|144:224,1,48,0|2
296,224,71798,6,0,B|344:224|384:256,2,96,4|2|10
216,48,73022,1,2
160,128,73328,1,0
200,216,73634,1,10
296,224,73940,6,2,B|284:320|168:352|96:280|104:200,1,288,2|10
200,216,75164,1,0
296,224,75470,2,0,B|344:240|368:288,1,96,2|0
366,285,75929,1,2
366,285,76082,1,8
464,264,76388,1,2
464,264,76541,1,0
464,264,76695,6,0,B|456:216|488:168,1,96,6|2
424,104,77307,1,10
392,196,77613,1,2
352,172,77766,1,0
328,128,77919,1,2
328,80,78072,1,0
352,36,78225,1,2
424,104,78531,1,10
392,196,78837,1,2
304,240,79143,5,4
208,232,79449,2,0,B|184:232|160:224,2,48,0|0|8
304,240,80061,1,0
248,320,80367,1,0
152,312,80673,1,0
152,312,80826,2,0,B|104:308,1,48,0|8
48,232,81285,2,0,B|40:176|80:144,1,96,0|4
256,192,81744,12,8,83427
256,192,84040,5,4
360,248,93833,5,4
272,288,94139,1,0
272,288,94292,1,0
272,288,94445,2,0,B|224:272|176:304,1,96,8|0
144,328,94904,1,0
56,288,95210,1,0
56,288,95363,1,0
104,200,95669,2,0,B|136:160|128:104,1,96,8|0
120,64,96128,1,0
96,24,96281,1,0
192,32,96587,6,0,B|240:24,2,48,0|0|8
224,120,97199,1,0
224,120,97353,2,0,B|200:168|232:216,1,96
272,224,97812,2,0,B|288:272|344:280,1,96,0|10
392,280,98271,1,2
440,264,98424,2,0,B|464:248|472:216,2,48,2|2|0
272,224,99036,6,0,B|224:232|192:272,1,96,0|8
144,256,99495,2,0,B|104:280|96:336,1,96
24,272,100107,1,0
24,272,100260,2,0,B|32:248|52:224|52:224|40:184,2,96,0|8|0
96,336,101178,6,0,B|144:340,3,48,6|0|2|0
192,344,101790,1,10
288,352,102096,2,0,B|352:352,1,48,0|2
248,272,102555,2,0,B|296:248,1,48,0|2
168,232,103014,2,0,B|192:192,1,48,10|0
128,224,103320,2,0,B|128:176,1,48,2|8
80,232,103626,1,4
172,328,103932,6,0,B|120:344|72:320,1,96,0|8
24,248,104545,1,0
24,248,104851,1,0
88,176,105157,1,0
88,176,105310,1,0
88,176,105463,1,8
104,80,105769,6,0,B|64:48|8:56,2,96
136,112,106534,1,0
160,152,106687,2,0,B|208:176|264:160,1,96,8|0
216,72,107299,2,0,B|264:48|320:72,1,96
344,104,107758,2,0,B|368:120|400:120,1,48,0|8
360,208,108217,1,0
360,208,108829,6,0,B|384:216|408:216,2,48,0|0|8
272,176,109441,2,0,B|224:160|176:168,1,96
132,184,109900,1,0
92,212,110053,1,0
64,252,110206,1,0
56,300,110359,1,8
144,336,110665,1,0
144,336,110818,1,0
144,336,110971,6,0,B|168:336|192:328,1,48
328,256,111431,2,0,B|304:256|280:264,1,48,0|8
192,136,111890,2,0,B|216:136|240:144,1,48
376,80,112349,2,0,B|352:80|328:72,1,48
192,136,112808,2,0,B|168:136|144:128,1,48,8|0
176,168,113114,2,0,B|152:176|128:176,1,48,0|8
176,204,113420,1,4
272,192,113726,5,2
272,192,114032,1,10
352,248,114338,2,0,B|376:256|400:256,2,48,0|0|2
256,272,114950,2,0,B|232:264|200:264,1,48,0|2
64,312,115409,2,0,B|88:320|120:320,1,48,0|2
256,272,115868,6,0,B|272:328|328:344,2,96,4|2|10
352,248,116786,1,0
352,248,116939,1,0
352,248,117092,1,2
400,160,117398,1,0
400,160,117551,1,2
400,160,117704,2,0,B|440:136,2,48,8|0|2
304,160,118317,6,0,B|276:164|256:172|256:172|236:164|208:160,1,96,4|2
120,192,118929,1,10
64,272,119235,1,0
64,272,119388,1,0
64,272,119541,1,2
152,312,119847,2,0,B|152:336|144:360,2,48,0|2|8
240,272,120459,1,2
240,272,120612,1,0
240,272,120765,6,2,B|300:240|360:272|360:272|384:208,1,192,6|10
272,112,121683,1,0
272,112,121989,2,2,B|212:144|152:112|152:112|128:176,1,192,6|10
96,264,122907,2,0,B|72:328,2,48,0|8|4
164,332,123519,5,2
240,272,123825,1,10
320,320,124131,1,0
320,320,124284,1,0
320,320,124437,2,0,B|368:320|416:304,1,96,2|0
460,288,124896,1,2
508,292,125050,1,8
480,200,125356,1,2
400,152,125662,6,0,B|360:128|344:72,2,96,4|2|10
216,208,126886,1,2
288,272,127192,1,0
384,248,127498,1,10
400,152,127804,6,2,B|488:184|508:276|448:356|352:344,1,288,2|10
384,248,129028,1,0
288,272,129334,1,2
192,248,129640,2,0,B|168:248|144:256,2,48,0|2|8
192,152,130252,1,2
192,152,130405,1,0
192,152,130558,6,0,B|144:152|96:168,1,96,6|2
16,216,131170,1,10
104,272,131476,1,2
104,272,131629,1,0
104,272,131782,2,0,B|152:272|200:288,1,96,6|2
280,328,132395,1,10
368,304,132701,1,2
368,304,132854,1,8
368,304,133007,6,0,B|416:288|464:304,2,96,4|2|10
288,336,133925,1,0
288,336,134078,1,0
288,336,134231,2,0,B|232:344|192:312,1,96,2|0
160,280,134690,1,2
152,232,134843,1,8
248,240,135149,1,2
320,176,135455,6,0,B|352:216|340:268,2,96,4|2|10
248,240,136373,1,0
200,248,136526,1,0
152,232,136679,1,2
120,144,136985,2,0,B|92:144|72:132,1,48,0|2
216,112,137444,2,0,B|240:112|264:124,1,48,0|2
352,156,137903,6,0,B|384:124|384:68,2,96,4|2|10
296,232,138822,1,0
296,232,138975,1,0
296,232,139128,1,2
208,184,139434,2,0,B|184:192|168:208,2,48,0|2|8
168,96,140046,1,2
168,96,140199,1,0
168,96,140352,6,2,B|216:96|216:96|256:72,1,96,6|0
352,104,140964,2,2,B|352:152|352:152|376:192,1,96,10|0
344,288,141576,2,2,B|296:288|296:288|256:312,1,96,6|0
160,280,142188,2,2,B|160:232|160:232|136:192,1,96,10|0
104,152,142647,1,8
56,136,142800,1,4
48,232,143106,5,2
48,232,143412,1,10
76,324,143718,2,0,B|88:344|108:360,2,48,0|0|2
160,280,144330,1,0
184,320,144483,1,2
228,336,144636,1,8
276,328,144789,1,0
308,292,144942,1,2
360,208,145248,6,0,B|408:208|448:244,2,96,4|2|10
264,208,146167,1,0
264,208,146320,1,0
264,208,146473,2,0,B|216:208|176:172,2,96,2|0|10
264,112,147391,6,2,B|356:120|392:208|356:296|264:304,1,288,2|10
176,304,148615,2,0,B|120:304|80:344,1,96,0|2
32,256,149227,1,0
72,224,149380,1,2
88,176,149533,1,8
88,80,149839,6,0,B|88:56|80:32,2,48,2|0|6
168,128,150451,2,0,B|184:112|192:88,2,48,2|0|10
216,208,151063,1,2
216,208,151216,1,0
216,208,151369,2,0,B|240:200|256:184,2,48,2|0|2
224,304,151981,6,0,B|248:304|272:296,2,48,2|2|4
