osu file format v9

[General]
AudioFilename: Yuya Matsushita - Trust Me (Short Ver.).mp3
AudioLeadIn: 0
PreviewTime: 59556
Countdown: 0
SampleSet: Normal
StackLeniency: 0.7
Mode: 0
LetterboxInBreaks: 1

[Editor]
DistanceSpacing: 1
BeatDivisor: 4
GridSize: 8

[Metadata]
Title:Trust Me (Short Ver.)
Artist:Yuya Matsushita
Creator:0OoMickeyoO0
Version:Easy
Source:Durarara!!
Tags:DRRR!! Yasora-chan

[Difficulty]
HPDrainRate:2
CircleSize:3
OverallDifficulty:2
ApproachRate:3
SliderMultiplier:0.91
SliderTickRate:2

[Events]
//Background and Video events
0,0,"BG2.jpg"
//Break Periods
2,84236,92389
//Storyboard Layer 0 (Background)
//Storyboard Layer 1 (Fail)
//Storyboard Layer 2 (Pass)
//Storyboard Layer 3 (Foreground)
//Storyboard Sound Samples
//Background Colour Transformations
3,100,163,162,255

[TimingPoints]
792,612.088752869166,4,1,1,70,1,0
11044,-100,4,1,2,70,0,0
11350,-100,4,1,1,70,0,0
18389,-100,4,1,2,70,0,0
18695,-100,4,1,1,70,0,0
19613,-100,4,1,2,70,0,0
19919,-100,4,1,1,70,0,0
30325,-100,4,2,1,70,0,0
32467,-100,4,1,1,60,0,0
32773,-100,4,2,1,70,0,0
34915,-100,4,1,1,60,0,0
35221,-100,4,2,1,70,0,0
37364,-100,4,1,1,60,0,0
40118,-100,4,2,1,70,0,0
42261,-100,4,1,1,60,0,0
42567,-100,4,2,1,70,0,0
44097,-100,4,2,1,40,0,0
44709,-100,4,1,1,60,0,0
45015,-100,4,2,1,70,0,0
47157,-100,4,1,1,70,0,0
49912,-100,4,1,1,60,0,0
59552,-100,4,1,1,70,0,1
74701,-100,4,1,2,70,0,1
75007,-100,4,1,1,70,0,1
79139,-100,4,1,1,70,0,0
84036,-100,4,1,1,60,0,0
93982,-100,4,2,1,70,0,0
96124,-100,4,1,1,60,0,0
96430,-100,4,2,1,70,0,0
98573,-100,4,1,1,60,0,0
98879,-100,4,2,1,70,0,0
101021,-100,4,1,1,70,0,0
103775,-100,4,1,1,60,0,0
111427,-100,4,1,2,60,0,0
111733,-100,4,1,1,60,0,0
112651,-100,4,1,2,60,0,0
112957,-100,4,1,1,60,0,0
113416,-100,4,1,1,70,0,1
121220,-100,4,1,2,70,0,1
121526,-100,4,1,1,70,0,1
122444,-100,4,1,2,70,0,1
122750,-100,4,1,1,70,0,1
128565,-100,4,1,2,70,0,1
128871,-100,4,1,1,70,0,1
151824,-100,4,1,1,60,0,1
152130,-100,4,1,1,50,0,1
152590,-100,4,1,1,50,0,0

[Colours]
Combo1 : 128,128,128
Combo2 : 225,100,0
Combo3 : 100,50,0

[HitObjects]
336,48,10585,6,0,B|376:136|336:224,1,182,4|0
288,304,12421,1,8
200,328,13033,2,0,B|156:344|112:328,1,91,4|8
68,248,14257,2,0,B|112:232|156:248,1,91,0|8
240,280,15482,6,0,B|284:296|328:280,1,91,4|8
416,264,16706,1,0
400,176,17318,1,8
312,192,17930,2,0,B|292:104|292:104|312:16,2,182,4|4|4
336,280,20990,5,8
392,208,21603,2,0,B|400:156|360:120,1,91,0|8
300,192,22827,1,4
212,192,23439,1,8
148,124,24051,2,0,B|112:156|120:208,1,91,0|8
136,296,25275,6,0,B|180:308|180:308|224:296,1,91,4|8
312,272,26499,2,0,B|356:260|356:260|400:272,1,91,0|8
488,296,27723,1,6
512,208,28335,1,10
488,120,28947,1,6
408,72,29560,1,10
320,80,30172,6,0,B|276:96|232:80,1,91,4|8
144,48,31396,2,0,B|120:44|96:52,2,45.5,0|0|8
128,136,32620,1,0
168,216,33232,1,8
80,248,33844,2,0,B|56:264|48:296,2,45.5,0|0|8
136,320,35068,1,0
224,352,35681,5,8
296,296,36293,2,0,B|296:272|288:248,2,45.5,0|0|8
376,340,37517,2,2,B|388:296|388:296|376:252,1,91,6|10
352,160,38741,2,2,B|308:172|308:172|264:160,1,91,2|10
308,80,39965,5,4
216,64,40577,1,8
128,88,41189,2,0,B|104:96|80:96,2,45.5,0|0|8
216,64,42414,5,0
200,152,43026,1,8
248,232,43638,1,0
336,248,44250,2,0,B|360:248|384:256,2,45.5,2|2|0
248,232,45474,6,0,B|240:216|236:188|236:188|240:160|248:144,1,91,8|0
328,188,46698,1,8
328,96,47310,2,2,B|296:64|296:64|252:56,1,91,6|10
160,56,48534,2,2,B|116:64|116:64|84:96,1,91,2|10
40,176,49759,1,4
80,256,50371,5,8
160,296,50983,1,0
240,256,51595,1,8
280,176,52207,1,0
344,112,52819,5,8
380,200,53431,1,0
360,288,54043,2,0,B|412:292|448:260,1,91,8|0
380,200,55267,2,0,B|328:196|292:228,1,91,8|0
272,312,56492,1,8
184,328,57104,5,0
96,304,57716,1,8
32,240,58328,1,0
16,152,58940,1,8
44,64,59552,5,4
104,132,60164,1,8
192,96,60776,2,0,B|236:80|280:96,1,91,0|8
332,172,62000,1,4
280,248,62612,1,8
368,256,63225,2,0,B|388:300|368:344,1,91,0|8
288,300,64449,6,0,B|268:256|288:212,2,91,4|8|0
368,256,66285,1,8
416,176,66897,2,0,B|440:136|440:136|440:80,1,91,4|8
352,112,68121,1,4
288,48,68733,2,0,B|264:88|264:88|264:144,1,91,8|4
264,224,69958,5,8
184,272,70570,2,0,B|144:296|144:352,1,91,0|8
232,344,71794,1,4
312,300,72406,1,8
392,344,73018,2,0,B|412:300|392:256,1,91,0|8
344,176,74242,6,0,B|300:176|256:156|256:156|212:176|168:176,1,182,4|0
80,192,76078,2,0,B|56:192|32:184,2,45.5,8|0|6
124,112,77303,1,10
168,192,77915,1,6
124,272,78527,2,0,B|124:296|136:320,2,45.5,10|0|4
168,192,79751,5,8
212,112,80363,2,2,B|236:108|256:100|256:100|276:108|299:112,1,91,2|10
256,192,81587,12,4,84036
88,280,93829,5,4
160,336,94441,2,0,B|232:320|256:248,1,136.5,8|0
264,200,95665,1,8
172,212,96277,5,0
208,128,96889,2,0,B|244:100|304:100|340:148,1,136.5,8|0
352,184,98114,1,8
432,224,98726,5,0
392,304,99338,2,0,B|328:344|264:304,1,136.5,8|0
224,280,100562,1,8
168,208,101174,5,6
80,224,101786,1,10
40,144,102398,1,2
104,80,103010,1,10
184,120,103622,1,4
168,208,104234,6,0,B|184:256|224:280,1,91,8|0
312,280,105459,2,0,B|352:256|368:208,1,91,8|0
456,192,106683,2,0,B|444:140|388:120,1,91,8|0
328,72,107907,2,0,B|280:64|240:96,1,91,8|0
192,168,109131,5,8
256,232,109743,1,0
200,304,110355,1,8
136,240,110967,2,0,B|92:244|92:244|48:248|8:280|0:336,2,182,0|0|4
228,236,114028,6,0,B|276:232|316:268,2,91,8|0|8
244,324,115864,1,4
160,296,116476,2,0,B|112:300|72:264,2,91,8|0|8
144,208,118313,5,4
224,160,118925,2,0,B|232:104|288:80,2,91,8|0|8
312,168,120761,2,0,B|400:216|392:328,2,182,4|4|4
224,160,123821,5,8
136,192,124433,2,0,B|96:216|48:200,2,91,0|8|4
88,116,126270,2,0,B|100:68|80:24,2,91,8|0|8
48,200,128106,6,0,B|56:304|152:344,1,182,4|0
232,308,129942,1,8
316,340,130554,2,2,B|359:323|391:279,1,91,6|10
440,208,131778,2,2,B|460:164|440:120,2,91,6|10|4
360,164,133615,5,8
312,240,134227,1,0
224,232,134839,2,0,B|192:232|172:212,2,45.5,8|0|4
232,144,136063,1,8
312,96,136675,1,0
400,104,137287,2,0,B|424:88|440:64,2,45.5,8|0|4
352,176,138511,5,8
376,264,139124,1,0
288,288,139736,1,8
264,200,140348,2,0,B|240:112,1,91,4|8
328,88,141572,2,0,B|352:176,1,91,4|8
264,200,142796,5,4
304,280,143408,1,8
356,204,144020,2,0,B|404:204|444:228,2,91,0|8|4
304,280,145857,1,8
216,256,146469,1,0
152,192,147081,1,8
108,112,147693,6,0,B|152:92|196:112,1,91,4|8
272,160,148917,2,0,B|316:180|360:160,1,91,0|8
440,120,150141,1,6
456,208,150753,1,10
408,288,151365,1,6
320,320,151977,2,0,B|296:328|272:328,2,45.5,2|2|4
