osu file format v12

[General]
AudioFilename: scrap.mp3
AudioLeadIn: 0
PreviewTime: 55819
Countdown: 1
SampleSet: Normal
StackLeniency: 0.7
Mode: 0
LetterboxInBreaks: 1
WidescreenStoryboard: 1

[Editor]
Bookmarks: 82819
DistanceSpacing: 1.25
BeatDivisor: 4
GridSize: 4

[Metadata]
Title:Scrap Syndrome
TitleUnicode:Scrap Syndrome
Artist:Yuuyu
ArtistUnicode:篠螺悠那
Creator:Snow Note
Version:Desperation AR10
Source:
Tags:7odoa
BeatmapID:335789
BeatmapSetID:133771

[Difficulty]
HPDrainRate:6
CircleSize:4
OverallDifficulty:8
ApproachRate:10
SliderMultiplier:2.2
SliderTickRate:2

[Events]
//Background and Video events
0,0,"scrap.jpg",0,0
//Break Periods
//Storyboard Layer 0 (Background)
//Storyboard Layer 1 (Fail)
//Storyboard Layer 2 (Pass)
//Storyboard Layer 3 (Foreground)
//Storyboard Sound Samples
//Background Colour Transformations
3,100,163,162,255

[TimingPoints]
919.873621095152,300,3,1,1,40,1,0
15694,-100,3,1,1,20,0,0
19669,-100,3,1,1,30,0,0
26719,-100,3,1,1,50,0,0
27019,-83.3333333333333,3,1,1,45,0,0
40744,-83.3333333333333,3,2,1,50,0,0
41419,-83.3333333333333,3,1,1,50,0,0
52669,-83.3333333333333,3,2,1,50,0,0
52744,-83.3333333333333,3,1,1,50,0,0
52969,-83.3333333333333,3,2,1,50,0,0
53344,-83.3333333333333,3,1,1,50,0,0
54094,-83.3333333333333,3,2,1,50,0,0
54394,-83.3333333333333,3,1,1,50,0,0
54544,-83.3333333333333,3,2,1,50,0,0
55819,-83.3333333333333,3,1,1,45,0,1
62119,-100,3,1,1,20,0,0
63019,-83.3333333333333,3,1,1,60,0,1
69619,-83.3333333333333,3,2,1,60,0,1
70219,-62.5,3,1,1,45,0,0
82819,-100,3,1,1,23,0,0
84619,-100,3,1,1,40,0,0
97069,-100,3,1,1,45,0,0
99019,-83.3333333333333,3,1,1,60,0,1
105319,-83.3333333333333,3,1,1,60,0,0
105544,-83.3333333333333,3,2,1,60,0,0
106219,-83.3333333333333,3,1,1,60,0,1
112594,-83.3333333333333,3,2,1,10,0,0

[Colours]
Combo1 : 255,255,255
Combo2 : 0,0,255
Combo3 : 0,255,255

[HitObjects]
136,232,919,1,0,0:0:0:0:
136,232,2419,6,0,L|72:224,1,55
124,364,2569,2,0,L|188:356,1,55,0|0,0:0|0:0,0:0:0:0:
280,336,2719,1,0,0:0:0:0:
220,32,3019,1,8,0:0:0:0:
220,32,4219,6,0,L|212:88,1,55
300,196,4369,2,0,L|292:141,1,55
256,312,4519,1,0,0:0:0:0:
492,192,6019,6,0,L|424:196,1,55,0|0,0:0|0:0,0:0:0:0:
332,124,6169,2,0,L|386:127,1,55,0|0,0:0|0:0,0:0:0:0:
224,232,6319,1,0,0:0:0:0:
276,16,6619,1,8,0:0:0:0:
428,48,7369,5,0,0:0:0:0:
268,188,7519,2,0,L|204:180,1,55,0|0,0:0|0:0,0:0:0:0:
428,48,7669,2,0,L|492:56,1,55,0|0,0:0|0:0,0:0:0:0:
332,124,7819,2,0,P|320:96|320:60,1,55,8|8,0:0|0:0,0:0:0:0:
416,232,7969,2,0,P|418:261|406:296,1,55,8|8,0:0|0:0,0:0:0:0:
288,352,8119,1,0,0:0:0:0:
12,264,9469,5,0,0:0:0:0:
12,264,9619,2,0,L|84:272,1,55
156,196,9769,2,0,L|148:124,1,55
44,56,9919,1,0,0:0:0:0:
328,16,10219,1,8,0:0:0:0:
328,16,11419,6,0,L|388:24,1,55
368,120,11569,2,0,L|428:128,1,55,0|0,0:0|0:0,0:0:0:0:
412,224,11719,1,0,0:0:0:0:
412,224,13219,6,0,P|440:224|472:232,1,55,0|0,0:0|0:0,0:0:0:0:
368,340,13369,2,0,P|354:315|344:284,1,55,0|0,0:0|0:0,0:0:0:0:
372,152,13519,1,0,0:0:0:0:
80,52,13819,1,8,0:0:0:0:
80,52,14569,5,0,0:0:0:0:
80,52,14719,2,0,L|164:40,1,55
256,128,14869,2,0,L|172:116,1,55,0|0,0:0|0:0,0:0:0:0:
304,52,15019,1,8,0:0:0:0:
348,48,15094,1,8,0:0:0:0:
392,44,15169,1,8,0:0:0:0:
436,40,15244,1,8,0:0:0:0:
480,40,15319,6,2,B|488:80|488:80|476:104|476:104|488:148,1,110,6|2,0:0|0:0,0:0:0:0:
256,192,15769,12,0,19594,0:0:0:0:
63,347,19819,6,0,L|-1:345,3,55,4|0|0|0,0:0|0:0|0:0|0:0,0:0:0:0:
146,319,20119,2,0,L|208:328,3,55
77,273,20419,2,0,L|12:271,3,55
160,239,20719,5,0,0:0:0:0:
174,234,20794,1,0,0:0:0:0:
190,233,20869,1,0,0:0:0:0:
206,230,20944,1,0,0:0:0:0:
222,228,21019,1,0,0:0:0:0:
238,225,21094,1,0,0:0:0:0:
254,221,21169,1,0,0:0:0:0:
269,220,21244,1,0,0:0:0:0:
285,217,21319,1,0,0:0:0:0:
300,214,21394,1,0,0:0:0:0:
316,212,21469,1,0,0:0:0:0:
331,210,21544,1,0,0:0:0:0:
348,206,21619,5,0,0:0:0:0:
363,184,21694,1,0,0:0:0:0:
372,157,21769,1,0,0:0:0:0:
374,130,21844,1,0,0:0:0:0:
372,102,21919,1,0,0:0:0:0:
360,76,21994,1,0,0:0:0:0:
345,53,22069,1,0,0:0:0:0:
325,34,22144,1,0,0:0:0:0:
299,22,22219,1,0,0:0:0:0:
271,17,22294,1,0,0:0:0:0:
243,21,22369,1,0,0:0:0:0:
217,30,22444,1,0,0:0:0:0:
193,44,22519,5,0,0:0:0:0:
154,47,22594,1,0,0:0:0:0:
117,59,22669,1,0,0:0:0:0:
86,82,22744,1,0,0:0:0:0:
65,115,22819,1,0,0:0:0:0:
53,151,22894,1,0,0:0:0:0:
52,186,22969,6,0,L|64:246,1,55,2|0,0:0|0:0,0:0:0:0:
28,276,23119,2,0,L|85:295,1,55,0|0,0:0|0:0,0:0:0:0:
88,344,23269,2,0,L|133:303,1,55
177,319,23419,2,0,L|164:259,1,55,0|0,0:0|0:0,0:0:0:0:
204,232,23569,2,0,L|146:212,1,55
137,167,23719,2,0,L|91:207,1,55,0|0,0:0|0:0,0:0:0:0:
176,320,23869,6,0,P|200:344|232:356,1,55
272,288,24019,2,0,P|304:279|331:257,1,55,0|0,0:0|0:0,0:0:0:0:
288,192,24169,2,0,P|296:159|291:125,1,55
212,124,24319,2,0,P|188:100|156:88,1,55,0|0,0:0|0:0,0:0:0:0:
120,160,24469,2,0,P|87:168|60:190,1,55
99,259,24619,2,0,P|90:291|95:325,1,55,0|0,0:0|0:0,0:0:0:0:
236,364,24769,6,0,L|296:368,1,55
396,364,24919,2,0,L|429:314,1,55,0|0,0:0|0:0,0:0:0:0:
472,224,25069,2,0,L|445:170,1,55
392,85,25219,2,0,L|332:81,1,55,0|0,0:0|0:0,0:0:0:0:
232,88,25369,2,0,L|198:137,1,55
151,226,25519,2,0,L|177:279,1,55,0|0,0:0|0:0,0:0:0:0:
320,360,25669,6,0,L|332:296,1,55
433,220,25819,2,0,L|384:178,1,55
369,52,25969,2,0,L|308:74,1,55
192,24,26119,2,0,L|180:87,1,55
78,163,26269,2,0,L|127:205,1,55
142,331,26419,2,0,L|203:309,1,55
256,196,26569,5,0,0:0:0:0:
256,196,26644,1,0,0:0:0:0:
256,196,26719,2,0,L|248:152,6,27.5,8|0|8|0|8|0|8,0:0|0:0|0:0|0:0|0:0|0:0|0:0,0:0:0:0:
168,120,27019,5,4,0:0:0:0:
284,288,27169,1,0,0:0:0:0:
284,288,27244,1,0,0:0:0:0:
284,288,27319,2,0,B|344:260|344:260|424:272,1,131.99999597168,8|0,0:0|0:0,0:0:0:0:
144,364,27619,1,0,0:0:0:0:
96,368,27694,1,0,0:0:0:0:
56,348,27769,1,8,0:0:0:0:
32,308,27844,1,0,0:0:0:0:
36,260,27919,1,0,0:0:0:0:
20,112,28069,5,0,0:0:0:0:
76,128,28144,1,0,0:0:0:0:
136,124,28219,1,8,0:0:0:0:
192,104,28294,1,0,0:0:0:0:
224,56,28369,1,0,0:0:0:0:
244,52,28444,1,0,0:0:0:0:
264,48,28519,2,0,L|332:40,1,65.9999979858399,0|0,0:0|0:0,0:0:0:0:
308,196,28669,2,0,P|300:172|300:128,1,65.9999979858399,8|0,0:0|0:0,0:0:0:0:
432,160,28819,6,0,P|456:208|436:284,1,131.99999597168
400,296,29044,1,0,0:0:0:0:
360,300,29119,1,8,0:0:0:0:
216,352,29269,1,0,0:0:0:0:
204,308,29344,1,0,0:0:0:0:
192,264,29419,1,0,0:0:0:0:
180,220,29494,1,0,0:0:0:0:
168,176,29569,1,8,0:0:0:0:
332,52,29719,5,0,0:0:0:0:
308,196,29869,1,0,0:0:0:0:
308,196,29944,1,0,0:0:0:0:
308,196,30019,1,8,0:0:0:0:
195,64,30169,1,0,0:0:0:0:
187,51,30244,1,0,0:0:0:0:
180,40,30319,2,0,L|252:32,1,65.9999979858399
168,176,30469,2,0,L|96:168,1,65.9999979858399,8|0,0:0|0:0,0:0:0:0:
40,80,30619,5,0,0:0:0:0:
308,196,30769,1,0,0:0:0:0:
348,188,30844,1,0,0:0:0:0:
388,176,30919,1,8,0:0:0:0:
504,296,31069,1,0,0:0:0:0:
480,336,31144,1,0,0:0:0:0:
436,356,31219,1,0,0:0:0:0:
388,360,31294,1,0,0:0:0:0:
344,344,31369,1,8,0:0:0:0:
97,317,31519,5,0,0:0:0:0:
140,336,31594,1,0,0:0:0:0:
195,338,31669,1,0,0:0:0:0:
237,314,31744,1,0,0:0:0:0:
264,276,31819,1,8,0:0:0:0:
120,156,31969,1,0,0:0:0:0:
100,160,32044,1,0,0:0:0:0:
80,164,32119,2,0,L|8:152,1,65.9999979858399,0|0,0:0|0:0,0:0:0:0:
168,56,32269,2,0,P|194:79|209:116,1,65.9999979858399,8|0,0:0|0:0,0:0:0:0:
168,232,32419,5,0,0:0:0:0:
60,64,32569,1,0,0:0:0:0:
60,64,32644,1,0,0:0:0:0:
60,64,32719,1,8,0:0:0:0:
16,292,32869,1,0,0:0:0:0:
168,232,33019,1,0,0:0:0:0:
208,236,33094,1,0,0:0:0:0:
248,244,33169,1,8,0:0:0:0:
288,252,33244,1,0,0:0:0:0:
328,256,33319,5,0,0:0:0:0:
448,176,33469,1,0,0:0:0:0:
256,100,33619,1,8,0:0:0:0:
272,352,33769,1,0,0:0:0:0:
272,352,33844,1,0,0:0:0:0:
272,352,33919,2,0,L|356:340,1,65.9999979858399
168,232,34069,2,0,P|160:264|164:304,1,65.9999979858399,8|0,0:0|0:0,0:0:0:0:
344,152,34219,5,0,0:0:0:0:
180,52,34369,1,0,0:0:0:0:
180,52,34444,1,0,0:0:0:0:
180,52,34519,1,8,0:0:0:0:
288,252,34669,1,0,0:0:0:0:
328,260,34744,1,0,0:0:0:0:
368,256,34819,1,0,0:0:0:0:
404,244,34894,1,0,0:0:0:0:
436,220,34969,1,8,0:0:0:0:
168,232,35119,5,0,0:0:0:0:
140,268,35194,1,0,0:0:0:0:
140,316,35269,1,0,0:0:0:0:
168,352,35344,1,0,0:0:0:0:
212,364,35419,1,8,0:0:0:0:
344,152,35569,1,0,0:0:0:0:
100,80,35719,2,0,L|36:92,1,65.9999979858399
168,232,35869,2,0,L|232:244,1,65.9999979858399,8|0,0:0|0:0,0:0:0:0:
272,96,36019,5,0,0:0:0:0:
80,184,36169,1,0,0:0:0:0:
80,184,36244,1,0,0:0:0:0:
80,184,36319,1,8,0:0:0:0:
312,308,36469,1,0,0:0:0:0:
176,32,36619,1,0,0:0:0:0:
168,352,36769,1,8,0:0:0:0:
176,32,36919,5,0,0:0:0:0:
256,196,37069,1,0,0:0:0:0:
296,200,37144,1,0,0:0:0:0:
336,204,37219,1,8,0:0:0:0:
456,144,37369,1,0,0:0:0:0:
304,276,37519,1,0,0:0:0:0:
256,271,37594,1,0,0:0:0:0:
208,266,37669,1,8,0:0:0:0:
159,261,37744,1,0,0:0:0:0:
111,256,37819,5,0,0:0:0:0:
184,136,37969,1,0,0:0:0:0:
184,136,38044,1,0,0:0:0:0:
184,136,38119,1,8,0:0:0:0:
256,352,38269,1,0,0:0:0:0:
112,256,38419,1,0,0:0:0:0:
336,204,38569,1,8,0:0:0:0:
156,336,38719,5,0,0:0:0:0:
256,136,38869,1,0,0:0:0:0:
356,336,39019,1,8,0:0:0:0:
88,168,39169,1,0,0:0:0:0:
88,168,39244,1,0,0:0:0:0:
88,168,39319,2,0,L|96:96,1,65.9999979858399
256,224,39469,2,0,L|192:252,1,65.9999979858399,8|0,0:0|0:0,0:0:0:0:
208,40,39619,5,0,0:0:0:0:
360,76,39769,1,0,0:0:0:0:
368,116,39844,1,0,0:0:0:0:
376,156,39919,1,8,0:0:0:0:
256,224,40069,1,0,0:0:0:0:
276,92,40219,1,0,0:0:0:0:
416,244,40369,1,8,0:0:0:0:
216,344,40519,1,0,0:0:0:0:
83,38,40819,5,2,0:0:0:0:
129,71,40894,1,2,0:0:0:0:
127,126,40969,1,2,0:0:0:0:
87,163,41044,1,2,0:0:0:0:
40,183,41119,1,0,0:0:0:0:
13,223,41194,1,0,0:0:0:0:
15,269,41269,1,0,0:0:0:0:
40,304,41344,1,0,0:0:0:0:
72,316,41419,6,0,L|220:336,1,131.99999597168,4|0,0:0|0:0,0:0:0:0:
320,188,41719,1,8,0:0:0:0:
136,232,41869,1,0,0:0:0:0:
312,320,42019,1,0,0:0:0:0:
364,316,42094,1,0,0:0:0:0:
416,308,42169,2,0,L|480:300,4,32.99999899292,8|0|0|0|4,0:0|0:0|0:0|0:0|0:0,0:0:0:0:
220,152,42469,5,0,0:0:0:0:
236,96,42544,1,0,0:0:0:0:
288,64,42619,2,0,L|360:56,1,65.9999979858399,8|0,0:0|0:0,0:0:0:0:
424,136,42769,2,0,L|352:144,1,65.9999979858399
96,56,42919,2,0,L|168:48,1,65.9999979858399,0|0,0:0|0:0,0:0:0:0:
256,240,43069,2,0,L|184:248,1,65.9999979858399,8|0,0:0|0:0,0:0:0:0:
20,196,43219,5,4,0:0:0:0:
0,244,43294,1,0,0:0:0:0:
8,296,43369,1,0,0:0:0:0:
48,332,43444,1,0,0:0:0:0:
100,336,43519,2,0,P|172:332|248:356,1,131.99999597168,8|0,0:0|0:0,0:0:0:0:
424,136,43819,1,0,0:0:0:0:
172,220,43969,2,0,L|116:224,4,32.99999899292,8|0|0|0|4,0:0|0:0|0:0|0:0|0:0,0:0:0:0:
368,304,44269,5,0,0:0:0:0:
396,300,44344,1,0,0:0:0:0:
420,296,44419,2,0,L|428:224,1,65.9999979858399,8|0,0:0|0:0,0:0:0:0:
328,156,44569,2,0,L|320:221,1,65.9999979858399
236,324,44719,1,0,0:0:0:0:
176,312,44794,1,0,0:0:0:0:
116,300,44869,1,8,0:0:0:0:
60,284,44944,1,0,0:0:0:0:
4,264,45019,5,4,0:0:0:0:
256,196,45169,1,0,0:0:0:0:
104,384,45319,1,8,0:0:0:0:
80,180,45469,1,0,0:0:0:0:
88,136,45544,1,0,0:0:0:0:
108,92,45619,1,0,0:0:0:0:
144,64,45694,1,0,0:0:0:0:
188,48,45769,2,0,L|240:40,4,32.99999899292,8|0|0|0|4,0:0|0:0|0:0|0:0|0:0,0:0:0:0:
405,275,46069,5,0,0:0:0:0:
405,275,46144,1,0,0:0:0:0:
405,275,46219,2,0,P|418:254|429:202,1,65.9999979858399,8|0,0:0|0:0,0:0:0:0:
256,196,46369,2,0,P|254:220|270:271,1,65.9999979858399
456,136,46519,2,0,P|445:114|405:78,1,65.9999979858399
240,340,46669,2,0,P|260:353|312:364,1,65.9999979858399,8|0,0:0|0:0,0:0:0:0:
368,160,46819,5,4,0:0:0:0:
216,116,46969,1,0,0:0:0:0:
228,64,47044,1,0,0:0:0:0:
240,12,47119,1,8,0:0:0:0:
256,196,47269,1,0,0:0:0:0:
200,216,47344,1,0,0:0:0:0:
140,216,47419,1,0,0:0:0:0:
84,192,47494,1,0,0:0:0:0:
48,144,47569,2,0,L|36:104,4,32.99999899292,8|0|0|0|4,0:0|0:0|0:0|0:0|0:0,0:0:0:0:
112,344,47869,5,0,0:0:0:0:
144,356,47944,1,0,0:0:0:0:
176,368,48019,2,0,L|248:356,1,65.9999979858399,8|0,0:0|0:0,0:0:0:0:
320,324,48169,2,0,L|392:312,1,65.9999979858399
456,264,48319,1,0,0:0:0:0:
484,212,48394,1,0,0:0:0:0:
460,156,48469,1,8,0:0:0:0:
400,152,48544,1,0,0:0:0:0:
360,196,48619,5,4,0:0:0:0:
193,274,48769,1,0,0:0:0:0:
224,92,48919,1,8,0:0:0:0:
360,276,49069,1,0,0:0:0:0:
124,226,49219,1,0,0:0:0:0:
298,62,49369,2,0,L|348:64,4,32.99999899292,8|0|0|0|4,0:0|0:0|0:0|0:0|0:0,0:0:0:0:
124,226,49669,5,0,0:0:0:0:
316,360,49819,1,8,0:0:0:0:
368,364,49894,1,0,0:0:0:0:
416,344,49969,1,0,0:0:0:0:
444,300,50044,1,0,0:0:0:0:
444,248,50119,2,0,P|440:224|424:184,1,65.9999979858399
256,236,50269,2,0,P|278:244|321:250,1,65.9999979858399,8|0,0:0|0:0,0:0:0:0:
344,88,50419,5,4,0:0:0:0:
252,320,50569,1,0,0:0:0:0:
500,284,50719,1,8,0:0:0:0:
253,46,50869,1,0,0:0:0:0:
352,276,51019,1,0,0:0:0:0:
501,75,51169,2,0,L|496:16,4,32.99999899292,8|0|0|0|4,0:0|0:0|0:0|0:0|0:0,0:0:0:0:
352,276,51469,5,0,0:0:0:0:
200,232,51619,1,8,0:0:0:0:
372,152,51769,1,0,0:0:0:0:
420,172,51844,1,0,0:0:0:0:
452,212,51919,1,0,0:0:0:0:
460,264,51994,1,0,0:0:0:0:
448,316,52069,2,0,L|424:348,3,32.99999899292,8|0|0|0,0:0|0:0|0:0|0:0,0:0:0:0:
384,360,52219,5,4,0:0:0:0:
352,364,52294,1,0,0:0:0:0:
320,372,52369,1,0,0:0:0:0:
200,232,52519,1,8,0:0:0:0:
284,84,52669,2,0,L|280:44,1,32.99999899292
276,32,52819,1,0,0:0:0:0:
104,104,52969,6,0,L|108:144,1,32.99999899292,0|0,0:0|0:0,0:0:0:0:
92,148,53119,2,0,L|96:188,1,32.99999899292,0|0,0:0|0:0,0:0:0:0:
80,192,53269,2,0,L|84:232,1,32.99999899292,0|0,0:0|0:0,0:0:0:0:
132,324,53419,1,8,0:0:0:0:
260,292,53569,1,0,0:0:0:0:
312,304,53644,1,0,0:0:0:0:
364,316,53719,2,0,P|400:316|440:292,1,65.9999979858399,0|8,0:0|0:0,0:0:0:0:
416,176,53869,2,0,P|389:200|376:245,1,65.9999979858399,0|8,0:0|0:0,0:0:0:0:
496,232,54019,5,0,0:0:0:0:
456,104,54169,2,0,L|452:56,1,32.99999899292
420,32,54319,2,0,L|422:64,1,32.99999899292,0|0,0:0|0:0,0:0:0:0:
256,192,54469,1,0,0:0:0:0:
56,104,54619,2,0,L|60:56,1,32.99999899292
92,32,54769,2,0,L|89:64,1,32.99999899292
160,220,54919,6,0,L|164:264,1,32.99999899292
328,261,55069,2,0,L|364:235,1,32.99999899292
279,94,55219,2,0,L|239:76,1,32.99999899292
232,289,55369,2,0,L|272:307,1,32.99999899292
352,163,55519,2,0,L|348:120,1,32.99999899292
183,122,55669,2,0,L|147:148,1,32.99999899292
56,192,55819,5,4,0:0:0:0:
52,232,55894,1,0,0:0:0:0:
48,272,55969,1,0,0:0:0:0:
44,312,56044,1,0,0:0:0:0:
40,352,56119,1,8,0:0:0:0:
172,168,56269,1,0,0:0:0:0:
168,208,56344,1,0,0:0:0:0:
164,248,56419,1,0,0:0:0:0:
160,288,56494,1,0,0:0:0:0:
156,328,56569,1,8,0:0:0:0:
284,144,56719,1,0,0:0:0:0:
280,184,56794,1,0,0:0:0:0:
276,224,56869,1,0,0:0:0:0:
272,264,56944,1,0,0:0:0:0:
268,304,57019,1,8,0:0:0:0:
396,120,57169,6,0,L|392:188,1,65.9999979858399,0|8,0:0|0:0,0:0:0:0:
444,340,57319,2,0,L|448:272,1,65.9999979858399,0|8,0:0|0:0,0:0:0:0:
340,56,57469,1,0,0:0:0:0:
340,56,57619,5,4,0:0:0:0:
300,52,57694,1,0,0:0:0:0:
260,48,57769,1,0,0:0:0:0:
220,44,57844,1,0,0:0:0:0:
180,40,57919,1,8,0:0:0:0:
44,144,58069,1,0,0:0:0:0:
84,140,58144,1,0,0:0:0:0:
124,136,58219,1,0,0:0:0:0:
164,132,58294,1,0,0:0:0:0:
204,128,58369,1,8,0:0:0:0:
376,192,58519,6,0,P|380:232|372:260,1,65.9999979858399,2|0,0:0|0:0,0:0:0:0:
168,360,58669,2,0,P|164:320|172:292,1,65.9999979858399,0|0,0:0|0:0,0:0:0:0:
296,192,58819,2,0,P|300:232|292:260,1,65.9999979858399,8|0,0:0|0:0,0:0:0:0:
88,360,58969,1,0,0:0:0:0:
51,312,59044,1,0,0:0:0:0:
72,256,59119,1,0,0:0:0:0:
35,208,59194,1,0,0:0:0:0:
56,152,59269,2,0,L|40:80,1,65.9999979858399,8|8,0:0|0:0,0:0:0:0:
137,14,59419,5,4,0:0:0:0:
171,32,59494,1,0,0:0:0:0:
209,39,59569,1,0,0:0:0:0:
248,39,59644,1,0,0:0:0:0:
286,28,59719,1,8,0:0:0:0:
490,134,59869,1,0,0:0:0:0:
457,154,59944,1,0,0:0:0:0:
432,183,60019,1,0,0:0:0:0:
413,217,60094,1,0,0:0:0:0:
403,256,60169,1,8,0:0:0:0:
209,379,60319,1,0,0:0:0:0:
208,341,60394,1,0,0:0:0:0:
195,305,60469,1,0,0:0:0:0:
175,271,60544,1,0,0:0:0:0:
147,243,60619,1,8,0:0:0:0:
36,336,60769,6,0,P|72:344|112:340,1,65.9999979858399,0|8,0:0|0:0,0:0:0:0:
72,152,60919,2,0,P|64:188|68:228,1,65.9999979858399,0|8,0:0|0:0,0:0:0:0:
288,188,61069,2,0,P|252:180|212:184,1,65.9999979858399,0|8,0:0|0:0,0:0:0:0:
252,372,61219,5,4,0:0:0:0:
292,360,61294,1,0,0:0:0:0:
328,348,61369,1,0,0:0:0:0:
364,336,61444,1,0,0:0:0:0:
404,344,61519,1,8,0:0:0:0:
476,232,61669,1,0,0:0:0:0:
440,216,61744,1,0,0:0:0:0:
440,176,61819,1,0,0:0:0:0:
440,136,61894,1,0,0:0:0:0:
404,120,61969,1,8,0:0:0:0:
256,192,62119,12,0,62869,0:0:0:0:
208,356,63019,5,4,0:0:0:0:
160,320,63094,1,0,0:0:0:0:
108,344,63169,1,0,0:0:0:0:
60,308,63244,1,0,0:0:0:0:
8,332,63319,1,8,0:0:0:0:
288,288,63469,1,0,0:0:0:0:
336,252,63544,1,0,0:0:0:0:
388,276,63619,1,0,0:0:0:0:
436,240,63694,1,0,0:0:0:0:
488,264,63769,1,8,0:0:0:0:
204,196,63919,1,0,0:0:0:0:
156,160,63994,1,0,0:0:0:0:
148,100,64069,1,0,0:0:0:0:
172,44,64144,1,0,0:0:0:0:
228,28,64219,1,8,0:0:0:0:
172,308,64369,6,0,P|145:286|119:241,1,65.9999979858399,0|8,0:0|0:0,0:0:0:0:
388,276,64519,2,0,P|382:309|356:354,1,65.9999979858399,0|8,0:0|0:0,0:0:0:0:
228,112,64669,2,0,P|260:99|312:99,1,65.9999979858399,0|8,0:0|0:0,0:0:0:0:
172,308,64819,5,4,0:0:0:0:
112,308,64894,1,0,0:0:0:0:
60,280,64969,1,0,0:0:0:0:
36,228,65044,1,0,0:0:0:0:
48,172,65119,1,8,0:0:0:0:
398,206,65269,1,0,0:0:0:0:
428,258,65344,1,0,0:0:0:0:
430,317,65419,1,0,0:0:0:0:
397,364,65494,1,0,0:0:0:0:
342,382,65569,1,8,0:0:0:0:
128,216,65719,6,0,L|136:144,1,65.9999979858399,2|0,0:0|0:0,0:0:0:0:
324,248,65869,2,0,L|316:320,1,65.9999979858399,0|0,0:0|0:0,0:0:0:0:
256,40,66019,2,0,L|328:48,1,65.9999979858399,8|0,0:0|0:0,0:0:0:0:
232,320,66169,1,0,0:0:0:0:
177,381,66244,1,0,0:0:0:0:
94,382,66319,1,0,0:0:0:0:
28,331,66394,1,0,0:0:0:0:
24,248,66469,2,0,L|36:168,1,65.9999979858399,8|8,0:0|0:0,0:0:0:0:
108,108,66619,5,4,0:0:0:0:
156,140,66694,1,0,0:0:0:0:
216,128,66769,1,0,0:0:0:0:
272,112,66844,1,0,0:0:0:0:
328,136,66919,1,8,0:0:0:0:
488,312,67069,1,0,0:0:0:0:
438,345,67144,1,0,0:0:0:0:
390,309,67219,1,0,0:0:0:0:
410,253,67294,1,0,0:0:0:0:
469,251,67369,1,8,0:0:0:0:
284,348,67519,1,0,0:0:0:0:
232,320,67594,1,0,0:0:0:0:
176,296,67669,1,0,0:0:0:0:
120,316,67744,1,0,0:0:0:0:
64,336,67819,1,8,0:0:0:0:
16,96,67969,6,0,L|20:12,1,65.9999979858399,0|8,0:0|0:0,0:0:0:0:
179,230,68119,2,0,L|176:296,1,65.9999979858399,0|8,0:0|0:0,0:0:0:0:
332,136,68269,2,0,L|336:52,1,65.9999979858399,0|8,0:0|0:0,0:0:0:0:
488,248,68419,5,4,0:0:0:0:
476,320,68494,1,0,0:0:0:0:
412,356,68569,1,0,0:0:0:0:
340,360,68644,1,0,0:0:0:0:
280,320,68719,1,8,0:0:0:0:
280,64,68869,1,0,0:0:0:0:
340,24,68944,1,0,0:0:0:0:
412,28,69019,1,0,0:0:0:0:
476,64,69094,1,0,0:0:0:0:
488,136,69169,1,8,0:0:0:0:
176,232,69319,1,0,0:0:0:0:
176,232,69469,1,0,0:0:0:0:
45,357,69619,5,0,0:0:0:0:
19,304,69694,1,0,0:0:0:0:
14,242,69769,1,0,0:0:0:0:
25,178,69844,1,0,0:0:0:0:
56,116,69919,1,2,0:0:0:0:
115,71,69994,1,2,0:0:0:0:
192,51,70069,1,2,0:0:0:0:
278,53,70144,1,2,0:0:0:0:
364,80,70219,6,0,B|420:128|420:128|420:256,2,176,4|0|8,0:0|0:0|0:0,0:0:0:0:
148,304,70669,2,0,B|92:256|92:256|92:128,2,176,0|0|8,0:0|0:0|0:0,0:0:0:0:
228,268,71044,1,8,0:0:0:0:
284,336,71119,5,0,0:0:0:0:
284,336,71194,1,0,0:0:0:0:
284,336,71269,2,0,P|328:344|372:336,1,88,0|8,0:0|0:0,0:0:0:0:
464,232,71419,2,0,P|420:240|376:232,1,88,0|8,0:0|0:0,0:0:0:0:
256,124,71569,1,0,0:0:0:0:
340,152,71644,1,0,0:0:0:0:
324,64,71719,2,0,P|404:32|484:64,2,176,8|8|0,0:0|0:0|0:0,0:0:0:0:
256,124,72094,6,0,P|176:156|96:124,1,176
28,68,72319,1,0,0:0:0:0:
12,156,72394,2,0,B|12:236|12:236|40:256|40:256|40:328,1,176
120,356,72619,2,0,L|300:356,2,176,8|8|0,0:0|0:0|0:0,0:0:0:0:
148,272,72994,1,0,0:0:0:0:
192,196,73069,6,0,P|204:152|200:104,1,88
128,60,73219,2,0,P|116:104|120:152,1,88,0|0,0:0|0:0,0:0:0:0:
393,145,73369,2,0,P|395:102|384:60,1,88,0|0,0:0|0:0,0:0:0:0:
310,110,73519,2,0,P|308:153|320:196,1,88
396,240,73669,1,8,0:0:0:0:
396,240,73744,1,0,0:0:0:0:
316,280,73819,6,0,P|376:328|464:296,2,176,4|0|8,0:0|0:0|0:0,0:0:0:0:
436,88,74269,1,0,0:0:0:0:
436,88,74344,1,0,0:0:0:0:
436,88,74419,2,0,L|452:188,1,88,8|0,0:0|0:0,0:0:0:0:
396,240,74569,1,0,0:0:0:0:
320,192,74644,2,0,L|220:184,1,88,8|8,0:0|0:0,0:0:0:0:
144,172,74794,1,0,0:0:0:0:
72,220,74869,6,0,P|27:196|29:77,1,176,4|0,0:0|0:0,0:0:0:0:
180,272,75094,1,0,0:0:0:0:
180,272,75169,2,0,B|148:332|148:332|40:320,1,176,2|0,0:0|0:0,0:0:0:0:
144,172,75394,1,0,0:0:0:0:
248,224,75469,2,0,P|263:266|252:316,1,88
324,364,75619,5,0,0:0:0:0:
352,280,75694,1,8,0:0:0:0:
352,280,75769,2,0,P|344:216|444:136,1,176,8|8,0:0|0:0,0:0:0:0:
284,64,75994,2,8,P|232:103|113:57,1,176,8|8,0:0|0:0,0:0:0:0:
131,231,76219,2,0,P|191:256|210:382,1,176,8|0,0:0|0:0,0:0:0:0:
132,364,76444,1,12,0:0:0:0:
60,272,76519,6,0,P|50:233|74:174,1,88
60,88,76669,2,0,P|128:112|216:60,2,176,0|0|8,0:0|0:0|0:0,0:0:0:0:
256,192,77119,1,2,0:0:0:0:
452,88,77269,1,0,0:0:0:0:
452,88,77344,1,0,0:0:0:0:
452,88,77419,6,0,L|468:184,1,88,8|8,0:0|0:0,0:0:0:0:
392,352,77569,2,0,L|376:256,1,88,8|8,0:0|0:0,0:0:0:0:
368,68,77719,1,4,0:0:0:0:
368,68,77869,6,0,L|384:164,1,88,8|8,0:0|0:0,0:0:0:0:
308,332,78019,2,0,L|292:236,1,88,8|8,0:0|0:0,0:0:0:0:
284,48,78169,1,4,0:0:0:0:
284,48,78319,6,0,L|300:144,1,88,8|8,0:0|0:0,0:0:0:0:
224,312,78469,2,0,L|208:216,1,88,8|8,0:0|0:0,0:0:0:0:
200,28,78619,1,4,0:0:0:0:
200,28,78769,6,0,P|158:23|116:59,1,88,8|0,0:0|0:0,0:0:0:0:
163,213,78919,2,0,P|187:179|178:124,1,88
19,88,79069,2,0,P|35:126|87:145,1,88,8|0,0:0|0:0,0:0:0:0:
298,134,79219,6,0,L|284:48,1,88,8|8,0:0|0:0,0:0:0:0:
209,225,79369,2,0,L|224:312,1,88,8|8,0:0|0:0,0:0:0:0:
382,154,79519,1,4,0:0:0:0:
382,154,79669,6,0,L|368:68,1,88,8|8,0:0|0:0,0:0:0:0:
293,245,79819,2,0,L|308:332,1,88,8|8,0:0|0:0,0:0:0:0:
466,174,79969,1,4,0:0:0:0:
466,174,80119,6,0,L|452:88,1,88,8|8,0:0|0:0,0:0:0:0:
377,265,80269,2,0,L|392:352,1,88,8|8,0:0|0:0,0:0:0:0:
472,284,80419,1,4,0:0:0:0:
308,60,80569,6,0,P|260:72|224:104,1,88,8|0,0:0|0:0,0:0:0:0:
115,212,80719,2,0,P|150:248|195:263,1,88,0|0,0:0|0:0,0:0:0:0:
344,303,80869,2,0,P|357:255|348:208,1,88,8|0,0:0|0:0,0:0:0:0:
160,120,81019,6,0,L|60:132,1,88,8|8,0:0|0:0,0:0:0:0:
1,283,81169,2,0,L|88:293,1,88,8|8,0:0|0:0,0:0:0:0:
247,109,81319,1,4,0:0:0:0:
247,109,81469,6,0,L|160:120,1,88,8|8,0:0|0:0,0:0:0:0:
88,293,81619,2,0,L|176:304,1,88,8|8,0:0|0:0,0:0:0:0:
335,97,81769,1,4,0:0:0:0:
335,97,81919,6,0,L|248:108,1,88,8|8,0:0|0:0,0:0:0:0:
176,304,82069,2,0,L|263:314,1,88,8|8,0:0|0:0,0:0:0:0:
423,85,82219,1,4,0:0:0:0:
423,85,82369,6,0,P|464:100|500:136,1,88,8|0,0:0|0:0,0:0:0:0:
500,244,82519,2,0,P|467:271|417:285,1,88,0|0,0:0|0:0,0:0:0:0:
324,228,82669,2,0,P|316:185|329:136,1,88,8|0,0:0|0:0,0:0:0:0:
500,244,82819,6,0,L|504:328,1,55,8|0,0:0|0:0,0:0:0:0:
372,376,83044,2,0,P|304:348|208:352,2,165,8|0|8,0:0|0:0|0:0,0:0:0:0:
324,228,83869,5,0,0:0:0:0:
216,248,84019,1,0,0:0:0:0:
216,248,84094,2,0,L|56:216,1,110
108,226,84319,2,0,P|76:276|92:336,1,110
188,360,84619,1,4,0:0:0:0:
96,92,86119,6,0,L|104:36,1,55,0|0,0:0|0:0,0:0:0:0:
192,184,86269,2,0,L|139:205,1,55,0|0,0:0|0:0,0:0:0:0:
220,64,86419,1,0,0:0:0:0:
496,296,86719,1,8,0:0:0:0:
496,296,87919,6,0,L|444:320,1,55
328,324,88069,2,0,L|276:348,1,55
152,344,88219,1,0,0:0:0:0:
152,344,89719,6,0,L|84:356,1,55
4,256,89869,2,0,L|72:268,1,55,0|0,0:0|0:0,0:0:0:0:
176,200,90019,1,0,0:0:0:0:
456,72,90319,1,8,0:0:0:0:
456,72,91069,5,0,0:0:0:0:
192,100,91219,2,0,P|172:100|124:116,1,55
320,284,91369,2,0,P|340:284|388:268,1,55
164,256,91519,2,0,P|164:276|180:324,1,55,8|8,0:0|0:0,0:0:0:0:
348,128,91669,2,0,P|348:108|332:60,1,55,8|8,0:0|0:0,0:0:0:0:
256,192,91819,1,0,0:0:0:0:
228,164,93169,5,0,0:0:0:0:
144,240,93319,2,0,P|116:236|88:220,1,55,0|0,0:0|0:0,0:0:0:0:
248,256,93469,2,0,P|264:278|273:309,1,55
232,384,93619,1,0,0:0:0:0:
280,0,93919,1,8,0:0:0:0:
280,0,95119,6,0,L|264:64,1,55
340,136,95269,2,0,L|324:200,1,55,0|0,0:0|0:0,0:0:0:0:
388,280,95419,1,0,0:0:0:0:
388,280,96919,6,0,P|360:296|320:296,1,55
224,192,97069,2,0,P|256:192|290:212,1,55
212,304,97219,1,0,0:0:0:0:
496,96,97519,1,8,0:0:0:0:
460,116,98269,5,0,0:0:0:0:
460,116,98419,2,0,L|444:56,1,55
340,88,98569,2,0,L|324:28,1,55
228,88,98719,2,0,L|212:148,1,55,8|8,0:0|0:0,0:0:0:0:
108,116,98869,2,0,L|92:176,1,55,8|8,0:0|0:0,0:0:0:0:
36,267,99019,5,4,0:0:0:0:
51,324,99094,1,0,0:0:0:0:
100,356,99169,1,0,0:0:0:0:
159,359,99244,1,0,0:0:0:0:
206,323,99319,1,8,0:0:0:0:
355,146,99469,1,0,0:0:0:0:
312,105,99544,1,0,0:0:0:0:
256,88,99619,1,0,0:0:0:0:
200,105,99694,1,0,0:0:0:0:
157,146,99769,1,8,0:0:0:0:
306,323,99919,1,0,0:0:0:0:
353,359,99994,1,0,0:0:0:0:
412,356,100069,1,0,0:0:0:0:
461,324,100144,1,0,0:0:0:0:
476,267,100219,1,8,0:0:0:0:
193,258,100369,6,0,L|206:323,1,65.9999979858399,0|8,0:0|0:0,0:0:0:0:
368,210,100519,2,0,L|356:146,1,65.9999979858399,0|8,0:0|0:0,0:0:0:0:
244,23,100669,2,0,L|257:88,1,65.9999979858399,0|8,0:0|0:0,0:0:0:0:
496,148,100819,5,4,0:0:0:0:
480,92,100894,1,0,0:0:0:0:
460,36,100969,1,0,0:0:0:0:
400,40,101044,1,0,0:0:0:0:
340,48,101119,1,8,0:0:0:0:
256,224,101269,1,0,0:0:0:0:
285,273,101344,1,0,0:0:0:0:
319,322,101419,1,0,0:0:0:0:
376,303,101494,1,0,0:0:0:0:
432,280,101569,1,8,0:0:0:0:
186,280,101719,6,0,P|207:307|242:327,1,65.9999979858399,2|0,0:0|0:0,0:0:0:0:
213,87,101869,2,0,P|180:92|145:112,1,65.9999979858399
368,208,102019,2,0,P|380:176|380:136,1,65.9999979858399,8|0,0:0|0:0,0:0:0:0:
72,36,102169,1,0,0:0:0:0:
64,116,102244,1,0,0:0:0:0:
56,196,102319,1,0,0:0:0:0:
48,276,102394,1,0,0:0:0:0:
40,356,102469,2,0,L|116:352,1,65.9999979858399,8|8,0:0|0:0,0:0:0:0:
226,362,102619,5,4,0:0:0:0:
268,320,102694,1,0,0:0:0:0:
274,260,102769,1,0,0:0:0:0:
244,208,102844,1,0,0:0:0:0:
186,192,102919,1,8,0:0:0:0:
156,24,103069,1,0,0:0:0:0:
171,81,103144,1,0,0:0:0:0:
220,116,103219,1,0,0:0:0:0:
280,116,103294,1,0,0:0:0:0:
323,74,103369,1,8,0:0:0:0:
484,128,103519,1,0,0:0:0:0:
427,112,103594,1,0,0:0:0:0:
372,137,103669,1,0,0:0:0:0:
342,189,103744,1,0,0:0:0:0:
357,247,103819,1,8,0:0:0:0:
104,260,103969,6,0,P|137:278|178:278,1,65.9999979858399,0|8,0:0|0:0,0:0:0:0:
72,164,104119,2,0,L|4:180,1,65.9999979858399,0|8,0:0|0:0,0:0:0:0:
188,192,104269,2,0,L|256:176,1,65.9999979858399,0|8,0:0|0:0,0:0:0:0:
294,94,104419,5,4,0:0:0:0:
264,42,104494,1,0,0:0:0:0:
205,25,104569,1,0,0:0:0:0:
146,34,104644,1,0,0:0:0:0:
105,77,104719,1,8,0:0:0:0:
321,273,104869,1,0,0:0:0:0:
381,273,104944,1,0,0:0:0:0:
426,231,105019,1,0,0:0:0:0:
447,175,105094,1,0,0:0:0:0:
431,118,105169,1,8,0:0:0:0:
152,208,105319,1,0,0:0:0:0:
231,380,105469,1,0,0:0:0:0:
294,94,105619,5,0,0:0:0:0:
258,62,105694,1,0,0:0:0:0:
212,46,105769,1,0,0:0:0:0:
160,39,105844,1,0,0:0:0:0:
105,49,105919,1,0,0:0:0:0:
53,80,105994,1,0,0:0:0:0:
20,133,106069,1,0,0:0:0:0:
12,197,106144,1,0,0:0:0:0:
30,263,106219,5,4,0:0:0:0:
64,280,106294,1,0,0:0:0:0:
100,300,106369,1,0,0:0:0:0:
134,317,106444,1,0,0:0:0:0:
168,336,106519,1,8,0:0:0:0:
324,228,106669,1,0,0:0:0:0:
290,209,106744,1,0,0:0:0:0:
256,192,106819,1,0,0:0:0:0:
220,172,106894,1,0,0:0:0:0:
186,155,106969,1,8,0:0:0:0:
344,48,107119,1,0,0:0:0:0:
378,67,107194,1,0,0:0:0:0:
412,84,107269,1,0,0:0:0:0:
448,104,107344,1,0,0:0:0:0:
482,121,107419,1,8,0:0:0:0:
428,304,107569,6,0,L|412:368,1,65.9999979858399,0|8,0:0|0:0,0:0:0:0:
324,228,107719,2,0,L|308:164,1,65.9999979858399,0|8,0:0|0:0,0:0:0:0:
232,312,107869,2,0,L|216:376,1,65.9999979858399,0|8,0:0|0:0,0:0:0:0:
136,224,108019,5,0,0:0:0:0:
129,184,108094,1,0,0:0:0:0:
100,155,108169,1,0,0:0:0:0:
62,141,108244,1,0,0:0:0:0:
22,145,108319,1,8,0:0:0:0:
135,76,108469,1,0,0:0:0:0:
174,71,108544,1,0,0:0:0:0:
213,64,108619,1,0,0:0:0:0:
252,59,108694,1,0,0:0:0:0:
291,52,108769,1,8,0:0:0:0:
468,264,108919,6,0,P|481:249|499:202,1,65.9999979858399,2|0,0:0|0:0,0:0:0:0:
350,250,109069,2,0,P|355:269|387:307,1,65.9999979858399,0|0,0:0|0:0,0:0:0:0:
410,143,109219,2,0,P|390:138|341:146,1,65.9999979858399,8|0,0:0|0:0,0:0:0:0:
256,240,109369,1,0,0:0:0:0:
212,280,109444,1,0,0:0:0:0:
156,300,109519,1,0,0:0:0:0:
96,300,109594,1,0,0:0:0:0:
40,280,109669,2,0,P|24:264|12:212,1,65.9999979858399,8|8,0:0|0:0,0:0:0:0:
29,139,109819,5,4,0:0:0:0:
68,144,109894,1,0,0:0:0:0:
107,151,109969,1,0,0:0:0:0:
146,156,110044,1,0,0:0:0:0:
185,163,110119,1,8,0:0:0:0:
320,80,110269,1,0,0:0:0:0:
281,75,110344,1,0,0:0:0:0:
242,68,110419,1,0,0:0:0:0:
203,63,110494,1,0,0:0:0:0:
164,56,110569,1,8,0:0:0:0:
164,328,110719,1,0,0:0:0:0:
203,321,110794,1,0,0:0:0:0:
242,316,110869,1,0,0:0:0:0:
281,309,110944,1,0,0:0:0:0:
320,304,111019,1,8,0:0:0:0:
428,132,111169,6,0,L|412:62,1,65.9999979858399,0|8,0:0|0:0,0:0:0:0:
320,304,111319,2,0,L|336:374,1,65.9999979858399,0|8,0:0|0:0,0:0:0:0:
328,188,111469,2,0,P|304:184|260:192,1,65.9999979858399,0|8,0:0|0:0,0:0:0:0:
400,256,111619,5,4,0:0:0:0:
424,248,111694,1,0,0:0:0:0:
448,240,111769,1,0,0:0:0:0:
472,232,111844,1,0,0:0:0:0:
496,224,111919,1,8,0:0:0:0:
168,192,112069,1,0,0:0:0:0:
144,184,112144,1,0,0:0:0:0:
120,176,112219,1,0,0:0:0:0:
96,168,112294,1,0,0:0:0:0:
72,160,112369,1,8,0:0:0:0:
336,44,112519,1,2,0:0:0:0:
256,192,112594,12,0,113719,0:0:0:0:
