osu file format v14

[General]
AudioFilename: scrap.mp3
AudioLeadIn: 0
PreviewTime: 55819
Countdown: 1
SampleSet: None
StackLeniency: 0.7
Mode: 0
LetterboxInBreaks: 1
WidescreenStoryboard: 1

[Editor]
Bookmarks: 82819
DistanceSpacing: 0.5
BeatDivisor: 4
GridSize: 4
TimelineZoom: 3.999998

[Metadata]
Title:Scrap Syndrome
TitleUnicode:Scrap Syndrome
Artist:Yuuyu
ArtistUnicode:篠螺悠那
Creator:Snow Note
Version:Another
Source:
Tags:7odoa
BeatmapID:734184
BeatmapSetID:133771

[Difficulty]
HPDrainRate:5
CircleSize:4
OverallDifficulty:8
ApproachRate:9
SliderMultiplier:2
SliderTickRate:2

[Events]
//Background and Video events
0,0,"scrap.jpg",0,0
//Break Periods
//Storyboard Layer 0 (Background)
//Storyboard Layer 1 (Fail)
//Storyboard Layer 2 (Pass)
//Storyboard Layer 3 (Foreground)
//Storyboard Sound Samples

[TimingPoints]
919.873621095152,300,3,1,1,40,1,0
15694,-100,3,1,1,20,0,0
19669,-100,3,1,1,30,0,0
26719,-100,3,1,1,50,0,0
27019,-83.3333333333333,3,1,1,45,0,0
40744,-83.3333333333333,3,2,1,50,0,0
41419,-83.3333333333333,3,1,1,50,0,0
52669,-83.3333333333333,3,2,1,50,0,0
52744,-83.3333333333333,3,1,1,50,0,0
52969,-83.3333333333333,3,2,1,50,0,0
53344,-83.3333333333333,3,1,1,50,0,0
54094,-83.3333333333333,3,2,1,50,0,0
54394,-83.3333333333333,3,1,1,50,0,0
54544,-83.3333333333333,3,2,1,50,0,0
55819,-83.3333333333333,3,1,1,45,0,1
62119,-100,3,1,1,20,0,0
63019,-83.3333333333333,3,1,1,60,0,1
69619,-83.3333333333333,3,2,1,60,0,1
70219,-62.5,3,1,1,45,0,0
82819,-100,3,1,1,23,0,0
84619,-100,3,1,1,40,0,0
97069,-100,3,1,1,45,0,0
99019,-83.3333333333333,3,1,1,60,0,1
105319,-83.3333333333333,3,1,1,60,0,0
105544,-83.3333333333333,3,2,1,60,0,0
106219,-83.3333333333333,3,1,1,60,0,1
112594,-83.3333333333333,3,2,1,10,0,0

[Colours]
Combo1 : 255,255,255
Combo2 : 0,0,255
Combo3 : 0,255,255

[HitObjects]
72,292,919,5,0,0:0:0:0:
72,292,2419,6,0,L|80:360,1,50,0|0,0:0|0:0,0:0:0:0:
144,240,2569,2,0,L|138:190,1,50,0|0,0:0|0:0,0:0:0:0:
68,120,2719,1,0,0:0:0:0:
352,60,3019,1,8,0:0:0:0:
352,60,4219,6,0,L|308:100,1,50,0|0,0:0|0:0,0:0:0:0:
392,152,4369,2,0,L|348:192,1,50,0|0,0:0|0:0,0:0:0:0:
436,236,4519,1,0,0:0:0:0:
436,236,6019,6,0,L|428:172,1,50,0|0,0:0|0:0,0:0:0:0:
344,272,6169,2,0,L|350:321,1,50,0|0,0:0|0:0,0:0:0:0:
424,376,6319,1,0,0:0:0:0:
136,296,6619,1,8,0:0:0:0:
136,296,7369,1,0,0:0:0:0:
36,184,7519,5,0,0:0:0:0:
76,188,7594,1,0,0:0:0:0:
116,192,7669,1,0,0:0:0:0:
156,196,7744,1,0,0:0:0:0:
196,200,7819,6,0,L|200:132,1,50,8|8,0:0|0:0,0:0:0:0:
256,292,7969,2,0,L|253:341,1,50,8|8,0:0|0:0,0:0:0:0:
352,232,8119,1,0,0:0:0:0:
256,84,9469,5,0,0:0:0:0:
172,140,9619,2,0,L|104:136,1,50,0|0,0:0|0:0,0:0:0:0:
240,208,9769,2,0,L|308:204,1,50,0|0,0:0|0:0,0:0:0:0:
368,192,9919,1,0,0:0:0:0:
112,32,10219,1,8,0:0:0:0:
112,32,11419,6,0,L|124:96,1,50,0|0,0:0|0:0,0:0:0:0:
76,156,11569,2,0,L|88:220,1,50,0|0,0:0|0:0,0:0:0:0:
44,280,11719,1,0,0:0:0:0:
44,280,13219,6,0,L|32:212,1,50,0|0,0:0|0:0,0:0:0:0:
160,236,13369,2,0,L|151:285,1,50,0|0,0:0|0:0,0:0:0:0:
128,364,13519,1,0,0:0:0:0:
424,312,13819,1,8,0:0:0:0:
476,44,14569,5,0,0:0:0:0:
368,148,14719,1,0,0:0:0:0:
324,144,14794,1,0,0:0:0:0:
280,140,14869,1,0,0:0:0:0:
236,136,14944,1,0,0:0:0:0:
192,132,15019,6,0,L|196:76,1,50,8|8,0:0|0:0,0:0:0:0:
100,176,15169,2,0,L|103:225,1,50,8|8,0:0|0:0,0:0:0:0:
8,120,15319,5,6,0:0:0:0:
8,120,15469,1,2,0:0:0:0:
256,192,15844,12,0,19594,0:0:0:0:
332,356,19819,6,0,L|394:347,3,50,4|0|0|0,0:0|0:0|0:0|0:0,0:0:0:0:
258,303,20119,2,0,L|195:294,3,50,0|0|0|0,0:0|0:0|0:0|0:0,0:0:0:0:
280,216,20419,2,0,L|271:153,3,50,0|0|0|0,0:0|0:0|0:0|0:0,0:0:0:0:
368,208,20719,5,0,0:0:0:0:
368,208,20869,2,0,L|432:200,27,50,0|0|0|0|0|0|0|0|0|0|0|0|0|0|0|0|0|0|0|0|0|0|0|0|0|0|0|0,0:0|0:0|0:0|0:0|0:0|0:0|0:0|0:0|0:0|0:0|0:0|0:0|0:0|0:0|0:0|0:0|0:0|0:0|0:0|0:0|0:0|0:0|0:0|0:0|0:0|0:0|0:0|0:0,0:0:0:0:
468,208,22969,5,2,0:0:0:0:
488,185,23044,1,0,0:0:0:0:
501,159,23119,1,0,0:0:0:0:
507,129,23194,1,0,0:0:0:0:
504,100,23269,1,0,0:0:0:0:
493,72,23344,1,0,0:0:0:0:
476,48,23419,1,0,0:0:0:0:
452,29,23494,1,0,0:0:0:0:
424,18,23569,1,0,0:0:0:0:
395,15,23644,1,0,0:0:0:0:
365,20,23719,1,0,0:0:0:0:
338,33,23794,1,0,0:0:0:0:
324,56,23869,6,0,L|340:120,3,50,0|0|0|0,0:0|0:0|0:0|0:0,0:0:0:0:
280,160,24169,2,0,L|246:216,3,50,0|0|0|0,0:0|0:0|0:0|0:0,0:0:0:0:
176,204,24469,2,0,L|111:219,3,50,0|0|0|0,0:0|0:0|0:0|0:0,0:0:0:0:
56,180,24769,5,0,0:0:0:0:
36,203,24844,1,0,0:0:0:0:
23,229,24919,1,0,0:0:0:0:
17,259,24994,1,0,0:0:0:0:
20,288,25069,1,0,0:0:0:0:
31,316,25144,1,0,0:0:0:0:
48,340,25219,1,0,0:0:0:0:
72,359,25294,1,0,0:0:0:0:
100,370,25369,1,0,0:0:0:0:
129,373,25444,1,0,0:0:0:0:
159,368,25519,1,0,0:0:0:0:
186,355,25594,1,0,0:0:0:0:
208,332,25669,6,0,L|264:344,3,50,0|0|0|0,0:0|0:0|0:0|0:0,0:0:0:0:
336,320,25969,2,0,L|392:332,3,50,0|0|0|0,0:0|0:0|0:0|0:0,0:0:0:0:
460,300,26269,2,0,L|516:312,3,50,0|0|0|0,0:0|0:0|0:0|0:0,0:0:0:0:
496,228,26569,2,0,L|488:164,1,50,0|0,0:0|0:0,0:0:0:0:
504,80,26719,5,8,0:0:0:0:
442,98,26794,1,8,0:0:0:0:
380,117,26869,1,8,0:0:0:0:
319,136,26944,1,8,0:0:0:0:
256,152,27019,6,0,L|128:128,1,119.999996337891,4|0,0:0|0:0,0:0:0:0:
72,28,27319,1,8,0:0:0:0:
148,248,27469,2,0,P|148:328|116:360,1,119.999996337891,0|0,0:0|0:0,0:0:0:0:
28,280,27769,1,8,0:0:0:0:
256,232,27919,6,0,L|384:256,1,119.999996337891,0|0,0:0|0:0,0:0:0:0:
492,280,28219,1,8,0:0:0:0:
404,360,28369,1,0,0:0:0:0:
432,168,28519,2,0,L|368:172,1,59.9999981689454,0|0,0:0|0:0,0:0:0:0:
396,88,28669,2,0,L|332:92,1,59.9999981689454,8|0,0:0|0:0,0:0:0:0:
436,12,28819,6,0,P|480:52|476:120,1,119.999996337891,0|0,0:0|0:0,0:0:0:0:
408,256,29119,1,8,0:0:0:0:
256,192,29269,2,0,L|268:56,1,119.999996337891,0|0,0:0|0:0,0:0:0:0:
132,16,29569,1,8,0:0:0:0:
4,192,29719,6,0,P|56:240|112:240,1,119.999996337891,0|0,0:0|0:0,0:0:0:0:
256,192,30019,1,8,0:0:0:0:
120,112,30169,1,0,0:0:0:0:
60,340,30319,1,0,0:0:0:0:
100,332,30394,1,0,0:0:0:0:
140,324,30469,1,8,0:0:0:0:
180,316,30544,1,0,0:0:0:0:
220,308,30619,6,0,L|356:324,1,119.999996337891,0|0,0:0|0:0,0:0:0:0:
468,340,30919,1,8,0:0:0:0:
504,160,31069,2,0,L|368:176,1,119.999996337891,0|0,0:0|0:0,0:0:0:0:
256,192,31369,1,8,0:0:0:0:
172,36,31519,6,0,L|308:20,1,119.999996337891,0|0,0:0|0:0,0:0:0:0:
256,192,31819,2,0,L|120:208,1,119.999996337891,8|0,0:0|0:0,0:0:0:0:
328,128,32119,2,0,L|440:116,1,59.9999981689454,0|0,0:0|0:0,0:0:0:0:
464,208,32269,2,0,L|352:220,1,59.9999981689454,8|0,0:0|0:0,0:0:0:0:
328,128,32419,6,0,P|344:56|392:28,1,119.999996337891,0|0,0:0|0:0,0:0:0:0:
508,52,32719,1,8,0:0:0:0:
512,324,32869,2,0,P|462:378|406:378,1,119.999996337891,0|0,0:0|0:0,0:0:0:0:
318,299,33169,1,8,0:0:0:0:
432,172,33319,6,0,L|424:308,1,119.999996337891,0|0,0:0|0:0,0:0:0:0:
256,380,33619,1,8,0:0:0:0:
88,291,33769,2,0,L|84:223,1,59.9999981689454,0|0,0:0|0:0,0:0:0:0:
136,168,33919,5,0,0:0:0:0:
140,116,33994,1,0,0:0:0:0:
116,68,34069,1,8,0:0:0:0:
68,48,34144,1,0,0:0:0:0:
16,64,34219,6,0,P|12:116|40:196,1,119.999996337891,0|0,0:0|0:0,0:0:0:0:
188,268,34519,1,8,0:0:0:0:
344,168,34669,2,0,L|208:148,1,119.999996337891,0|0,0:0|0:0,0:0:0:0:
384,44,34969,1,8,0:0:0:0:
460,224,35119,6,0,L|448:352,1,119.999996337891,0|0,0:0|0:0,0:0:0:0:
296,384,35419,1,8,0:0:0:0:
168,296,35569,1,0,0:0:0:0:
337,227,35719,2,0,L|344:168,1,59.9999981689454,0|0,0:0|0:0,0:0:0:0:
425,147,35869,2,0,L|432:88,1,59.9999981689454,8|0,0:0|0:0,0:0:0:0:
372,32,36019,6,0,L|244:16,1,119.999996337891,0|0,0:0|0:0,0:0:0:0:
104,68,36319,1,8,0:0:0:0:
40,212,36469,2,0,P|100:232|164:212,1,119.999996337891,0|0,0:0|0:0,0:0:0:0:
280,124,36769,1,8,0:0:0:0:
256,336,36919,6,0,P|208:368|148:352,1,119.999996337891,0|0,0:0|0:0,0:0:0:0:
332,188,37219,1,8,0:0:0:0:
372,368,37369,1,0,0:0:0:0:
172,256,37519,1,0,0:0:0:0:
184,208,37594,1,0,0:0:0:0:
196,160,37669,1,8,0:0:0:0:
208,112,37744,1,0,0:0:0:0:
220,64,37819,6,0,L|352:48,1,119.999996337891,0|0,0:0|0:0,0:0:0:0:
136,24,38119,1,8,0:0:0:0:
272,192,38269,2,0,L|404:176,1,119.999996337891,0|0,0:0|0:0,0:0:0:0:
80,152,38569,1,8,0:0:0:0:
164,360,38719,6,0,P|204:364|272:328,1,119.999996337891,0|0,0:0|0:0,0:0:0:0:
52,256,39019,2,0,P|28:288|25:365,1,119.999996337891,8|0,0:0|0:0,0:0:0:0:
204,212,39319,2,0,L|212:136,1,59.9999981689454,0|0,0:0|0:0,0:0:0:0:
128,92,39469,2,0,L|120:168,1,59.9999981689454,8|0,0:0|0:0,0:0:0:0:
204,212,39619,6,0,L|340:200,1,119.999996337891,0|0,0:0|0:0,0:0:0:0:
336,20,39919,2,0,L|200:32,1,119.999996337891,8|0,0:0|0:0,0:0:0:0:
464,272,40219,1,0,0:0:0:0:
404,84,40369,1,8,0:0:0:0:
340,316,40519,1,0,0:0:0:0:
88,24,40819,5,2,0:0:0:0:
56,51,40894,1,2,0:0:0:0:
32,85,40969,1,2,0:0:0:0:
15,124,41044,1,2,0:0:0:0:
9,165,41119,1,0,0:0:0:0:
11,207,41194,1,0,0:0:0:0:
23,247,41269,1,0,0:0:0:0:
44,283,41344,1,0,0:0:0:0:
73,314,41419,6,0,P|128:326|200:300,1,119.999996337891,4|0,0:0|0:0,0:0:0:0:
296,140,41719,1,8,0:0:0:0:
133,9,41869,2,0,P|121:64|148:136,1,119.999996337891,0|0,0:0|0:0,0:0:0:0:
281,252,42169,2,0,L|316:248,3,29.9999990844727,8|0|0|0,0:0|0:0|0:0|0:0,0:0:0:0:
344,244,42319,6,0,P|360:300|329:363,1,119.999996337891,4|0,0:0|0:0,0:0:0:0:
184,232,42619,1,8,0:0:0:0:
280,52,42769,1,0,0:0:0:0:
432,200,42919,2,0,L|440:272,1,59.9999981689454,0|0,0:0|0:0,0:0:0:0:
350,303,43069,2,0,L|344:244,1,59.9999981689454,8|0,0:0|0:0,0:0:0:0:
464,180,43219,6,0,L|484:348,1,119.999996337891,4|0,0:0|0:0,0:0:0:0:
256,376,43519,1,8,0:0:0:0:
204,256,43669,2,0,L|224:88,1,119.999996337891,0|0,0:0|0:0,0:0:0:0:
316,20,43969,2,0,L|364:24,3,29.9999990844727,8|0|0|0,0:0|0:0|0:0|0:0,0:0:0:0:
380,28,44119,6,0,P|392:84|376:148,1,119.999996337891,4|0,0:0|0:0,0:0:0:0:
160,68,44419,1,8,0:0:0:0:
24,152,44569,1,0,0:0:0:0:
44,308,44719,1,0,0:0:0:0:
67,349,44794,1,0,0:0:0:0:
110,369,44869,1,8,0:0:0:0:
157,362,44944,1,0,0:0:0:0:
194,332,45019,6,0,L|208:201,1,119.999996337891,4|0,0:0|0:0,0:0:0:0:
128,64,45319,1,8,0:0:0:0:
88,231,45469,2,0,L|212:211,1,119.999996337891,0|0,0:0|0:0,0:0:0:0:
332,92,45769,2,0,L|340:48,3,29.9999990844727,8|0|0|0,0:0|0:0|0:0|0:0,0:0:0:0:
337,62,45919,6,0,P|384:44|468:68,1,119.999996337891,4|0,0:0|0:0,0:0:0:0:
496,192,46219,1,8,0:0:0:0:
360,244,46369,1,0,0:0:0:0:
224,292,46519,1,0,0:0:0:0:
232,244,46594,1,0,0:0:0:0:
240,196,46669,1,8,0:0:0:0:
248,148,46744,1,0,0:0:0:0:
256,100,46819,6,0,L|136:80,1,119.999996337891,4|0,0:0|0:0,0:0:0:0:
16,216,47119,1,8,0:0:0:0:
260,364,47269,2,0,L|380:384,1,119.999996337891,0|0,0:0|0:0,0:0:0:0:
468,228,47569,2,0,L|472:183,3,29.9999990844727,8|0|0|0,0:0|0:0|0:0|0:0,0:0:0:0:
470,198,47719,6,0,L|350:178,1,119.999996337891,4|0,0:0|0:0,0:0:0:0:
152,140,48019,1,8,0:0:0:0:
296,28,48169,1,0,0:0:0:0:
356,256,48319,1,0,0:0:0:0:
344,306,48394,1,0,0:0:0:0:
309,348,48469,1,8,0:0:0:0:
260,364,48544,1,0,0:0:0:0:
206,351,48619,6,0,L|72:364,1,119.999996337891,4|0,0:0|0:0,0:0:0:0:
8,164,48919,1,8,0:0:0:0:
148,272,49069,2,0,L|267:260,1,119.999996337891,0|0,0:0|0:0,0:0:0:0:
328,64,49369,2,0,L|316:16,3,29.9999990844727,8|0|0|0,0:0|0:0|0:0|0:0,0:0:0:0:
320,34,49519,6,0,L|192:16,1,119.999996337891,4|0,0:0|0:0,0:0:0:0:
96,180,49819,1,8,0:0:0:0:
256,108,49969,1,0,0:0:0:0:
364,220,50119,1,0,0:0:0:0:
392,216,50194,1,0,0:0:0:0:
420,212,50269,1,8,0:0:0:0:
448,208,50344,1,0,0:0:0:0:
476,204,50419,6,0,L|464:336,1,119.999996337891,4|0,0:0|0:0,0:0:0:0:
316,376,50719,1,8,0:0:0:0:
364,220,50869,2,0,L|353:100,1,119.999996337891,0|0,0:0|0:0,0:0:0:0:
220,16,51169,2,0,L|184:16,3,29.9999990844727,8|0|0|0,0:0|0:0|0:0|0:0,0:0:0:0:
184,16,51319,6,0,L|194:135,1,119.999996337891,4|0,0:0|0:0,0:0:0:0:
256,280,51619,1,8,0:0:0:0:
132,376,51769,1,0,0:0:0:0:
32,256,51919,1,0,0:0:0:0:
36,208,51994,1,0,0:0:0:0:
40,160,52069,1,8,0:0:0:0:
44,112,52144,1,0,0:0:0:0:
48,64,52219,6,0,L|168:48,1,119.999996337891,4|0,0:0|0:0,0:0:0:0:
344,100,52519,1,8,0:0:0:0:
200,192,52669,6,0,L|156:184,1,29.9999990844727,0|0,0:0|0:0,0:0:0:0:
256,72,52819,1,0,0:0:0:0:
312,192,52969,2,0,L|356:184,1,29.9999990844727,0|0,0:0|0:0,0:0:0:0:
184,272,53119,2,0,L|140:264,1,29.9999990844727,0|0,0:0|0:0,0:0:0:0:
328,272,53269,2,0,L|372:264,1,29.9999990844727,0|0,0:0|0:0,0:0:0:0:
160,356,53419,6,0,L|32:332,1,119.999996337891,8|0,0:0|0:0,0:0:0:0:
12,204,53719,1,0,0:0:0:0:
24,156,53794,1,8,0:0:0:0:
36,108,53869,1,0,0:0:0:0:
48,60,53944,1,8,0:0:0:0:
60,12,54019,1,0,0:0:0:0:
108,152,54169,6,0,L|116:200,1,29.9999990844727,0|0,0:0|0:0,0:0:0:0:
192,72,54319,2,0,L|184:24,1,29.9999990844727,0|0,0:0|0:0,0:0:0:0:
256,192,54469,1,0,0:0:0:0:
320,312,54619,2,0,L|328:360,1,29.9999990844727,0|0,0:0|0:0,0:0:0:0:
404,232,54769,2,0,L|396:184,1,29.9999990844727,0|0,0:0|0:0,0:0:0:0:
208,256,54919,6,0,L|216:296,1,29.9999990844727,0|0,0:0|0:0,0:0:0:0:
224,118,55069,2,0,L|185:105,1,29.9999990844727,0|0,0:0|0:0,0:0:0:0:
335,201,55219,2,0,L|366:174,1,29.9999990844727,0|0,0:0|0:0,0:0:0:0:
176,182,55369,6,0,L|145:209,1,29.9999990844727,0|0,0:0|0:0,0:0:0:0:
304,128,55519,2,0,L|296:87,1,29.9999990844727,0|0,0:0|0:0,0:0:0:0:
287,265,55669,2,0,L|326:278,1,29.9999990844727,0|0,0:0|0:0,0:0:0:0:
500,192,55819,5,4,0:0:0:0:
496,168,55894,1,0,0:0:0:0:
492,144,55969,1,0,0:0:0:0:
488,120,56044,1,0,0:0:0:0:
484,96,56119,1,8,0:0:0:0:
376,144,56269,1,0,0:0:0:0:
372,120,56344,1,0,0:0:0:0:
368,96,56419,1,0,0:0:0:0:
364,72,56494,1,0,0:0:0:0:
360,48,56569,1,8,0:0:0:0:
252,100,56719,1,0,0:0:0:0:
248,76,56794,1,0,0:0:0:0:
244,52,56869,1,0,0:0:0:0:
240,28,56944,1,0,0:0:0:0:
236,4,57019,1,8,0:0:0:0:
32,64,57169,6,0,L|92:84,1,59.9999981689454,0|8,0:0|0:0,0:0:0:0:
172,140,57319,2,0,L|112:160,1,59.9999981689454,0|8,0:0|0:0,0:0:0:0:
16,212,57469,2,0,L|76:232,1,59.9999981689454,0|0,0:0|0:0,0:0:0:0:
148,268,57619,5,4,0:0:0:0:
144,292,57694,1,0,0:0:0:0:
140,316,57769,1,0,0:0:0:0:
136,340,57844,1,0,0:0:0:0:
132,364,57919,1,8,0:0:0:0:
276,236,58069,1,0,0:0:0:0:
272,260,58144,1,0,0:0:0:0:
268,284,58219,1,0,0:0:0:0:
264,308,58294,1,0,0:0:0:0:
260,332,58369,1,8,0:0:0:0:
452,376,58519,5,2,0:0:0:0:
482,357,58594,1,0,0:0:0:0:
501,326,58669,1,0,0:0:0:0:
504,290,58744,1,0,0:0:0:0:
491,256,58819,2,0,L|432:236,1,59.9999981689454,8|0,0:0|0:0,0:0:0:0:
328,264,58969,1,0,0:0:0:0:
324,228,59044,1,0,0:0:0:0:
320,192,59119,1,0,0:0:0:0:
316,156,59194,1,0,0:0:0:0:
312,120,59269,2,0,L|304:40,1,59.9999981689454,8|8,0:0|0:0,0:0:0:0:
232,16,59419,5,4,0:0:0:0:
206,19,59494,1,0,0:0:0:0:
181,23,59569,1,0,0:0:0:0:
156,27,59644,1,0,0:0:0:0:
131,30,59719,1,8,0:0:0:0:
16,136,59869,1,0,0:0:0:0:
42,139,59944,1,0,0:0:0:0:
67,143,60019,1,0,0:0:0:0:
92,147,60094,1,0,0:0:0:0:
117,150,60169,1,8,0:0:0:0:
224,264,60319,1,0,0:0:0:0:
198,267,60394,1,0,0:0:0:0:
173,271,60469,1,0,0:0:0:0:
148,275,60544,1,0,0:0:0:0:
123,278,60619,1,8,0:0:0:0:
284,364,60769,6,0,L|296:296,1,59.9999981689454,0|8,0:0|0:0,0:0:0:0:
376,344,60919,2,0,L|388:276,1,59.9999981689454,0|8,0:0|0:0,0:0:0:0:
472,332,61069,2,0,L|484:264,1,59.9999981689454,0|8,0:0|0:0,0:0:0:0:
492,196,61219,5,4,0:0:0:0:
466,199,61294,1,0,0:0:0:0:
441,203,61369,1,0,0:0:0:0:
416,207,61444,1,0,0:0:0:0:
391,210,61519,1,8,0:0:0:0:
256,88,61669,1,0,0:0:0:0:
282,91,61744,1,0,0:0:0:0:
307,95,61819,1,0,0:0:0:0:
332,99,61894,1,0,0:0:0:0:
357,102,61969,1,8,0:0:0:0:
500,4,62119,1,0,0:0:0:0:
256,192,62194,12,0,62869,0:0:0:0:
322,192,63019,5,4,0:0:0:0:
341,228,63094,1,0,0:0:0:0:
342,271,63169,1,0,0:0:0:0:
323,308,63244,1,0,0:0:0:0:
289,333,63319,1,8,0:0:0:0:
222,134,63469,1,0,0:0:0:0:
245,99,63544,1,0,0:0:0:0:
281,77,63619,1,0,0:0:0:0:
322,75,63694,1,0,0:0:0:0:
361,92,63769,1,8,0:0:0:0:
222,249,63919,1,0,0:0:0:0:
181,247,63994,1,0,0:0:0:0:
143,227,64069,1,0,0:0:0:0:
121,192,64144,1,0,0:0:0:0:
116,150,64219,1,8,0:0:0:0:
456,20,64369,6,0,L|476:96,1,59.9999981689454,0|8,0:0|0:0,0:0:0:0:
444,152,64519,2,0,L|464:228,1,59.9999981689454,0|8,0:0|0:0,0:0:0:0:
424,280,64669,2,0,L|444:356,1,59.9999981689454,0|8,0:0|0:0,0:0:0:0:
344,376,64819,5,4,0:0:0:0:
304,372,64894,1,0,0:0:0:0:
264,368,64969,1,0,0:0:0:0:
224,364,65044,1,0,0:0:0:0:
184,360,65119,1,8,0:0:0:0:
21,263,65269,1,0,0:0:0:0:
61,259,65344,1,0,0:0:0:0:
101,255,65419,1,0,0:0:0:0:
141,251,65494,1,0,0:0:0:0:
181,247,65569,1,8,0:0:0:0:
276,32,65719,5,2,0:0:0:0:
229,11,65794,1,0,0:0:0:0:
180,14,65869,1,0,0:0:0:0:
136,40,65944,1,0,0:0:0:0:
109,82,66019,2,0,L|40:76,1,59.9999981689454,8|0,0:0|0:0,0:0:0:0:
24,188,66169,1,0,0:0:0:0:
72,183,66244,1,0,0:0:0:0:
120,178,66319,1,0,0:0:0:0:
168,173,66394,1,0,0:0:0:0:
216,168,66469,2,0,L|300:160,1,59.9999981689454,8|8,0:0|0:0,0:0:0:0:
348,180,66619,5,4,0:0:0:0:
385,160,66694,1,0,0:0:0:0:
407,124,66769,1,0,0:0:0:0:
410,82,66844,1,0,0:0:0:0:
390,44,66919,1,8,0:0:0:0:
232,120,67069,1,0,0:0:0:0:
244,156,67144,1,0,0:0:0:0:
256,192,67219,1,0,0:0:0:0:
268,228,67294,1,0,0:0:0:0:
280,264,67369,1,8,0:0:0:0:
122,340,67519,1,0,0:0:0:0:
102,302,67594,1,0,0:0:0:0:
105,260,67669,1,0,0:0:0:0:
127,224,67744,1,0,0:0:0:0:
164,204,67819,1,8,0:0:0:0:
360,356,67969,6,0,L|428:336,1,59.9999981689454,0|8,0:0|0:0,0:0:0:0:
396,252,68119,2,0,L|464:232,1,59.9999981689454,0|8,0:0|0:0,0:0:0:0:
428,148,68269,2,0,L|496:128,1,59.9999981689454,0|8,0:0|0:0,0:0:0:0:
460,44,68419,5,4,0:0:0:0:
418,40,68494,1,0,0:0:0:0:
376,37,68569,1,0,0:0:0:0:
334,33,68644,1,0,0:0:0:0:
292,30,68719,1,8,0:0:0:0:
48,96,68869,1,0,0:0:0:0:
90,92,68944,1,0,0:0:0:0:
132,89,69019,1,0,0:0:0:0:
174,85,69094,1,0,0:0:0:0:
216,82,69169,1,8,0:0:0:0:
312,212,69319,5,0,0:0:0:0:
256,356,69469,1,0,0:0:0:0:
72,360,69619,5,0,0:0:0:0:
54,338,69694,1,0,0:0:0:0:
44,311,69769,1,0,0:0:0:0:
39,280,69844,1,0,0:0:0:0:
39,246,69919,1,2,0:0:0:0:
42,209,69994,1,2,0:0:0:0:
56,171,70069,1,2,0:0:0:0:
79,134,70144,1,2,0:0:0:0:
112,108,70219,6,0,B|192:80|192:80|256:128,2,160,4|0|8,0:0|0:0|0:0,0:0:0:0:
196,312,70669,2,0,B|256:357|256:357|336:329,2,160,0|0|8,0:0|0:0|0:0,0:0:0:0:
112,108,71119,6,0,L|104:28,1,80,0|0,0:0|0:0,0:0:0:0:
200,64,71269,1,0,0:0:0:0:
200,64,71344,2,0,P|208:144|140:204,1,160,8|8,0:0|0:0,0:0:0:0:
68,196,71569,1,0,0:0:0:0:
232,256,71719,6,0,L|324:236,1,80,8|0,0:0|0:0,0:0:0:0:
396,212,71869,2,0,L|368:376,2,160,8|0|0,0:0|0:0|0:0,0:0:0:0:
316,56,72319,1,0,0:0:0:0:
316,56,72394,2,0,B|248:44|248:44|227:64|227:64|167:54,1,160,0|0,0:0|0:0,0:0:0:0:
272,128,72619,2,0,B|352:144|352:144|416:88,2,160,8|8|0,0:0|0:0|0:0,0:0:0:0:
60,104,73069,6,0,P|52:144|24:184,1,80,0|0,0:0|0:0,0:0:0:0:
104,228,73219,2,0,P|117:266|112:315,1,80,0|0,0:0|0:0,0:0:0:0:
204,300,73369,2,0,P|234:326|255:371,1,80,0|0,0:0|0:0,0:0:0:0:
333,323,73519,2,0,P|372:330|412:359,1,80,0|0,0:0|0:0,0:0:0:0:
428,268,73669,1,8,0:0:0:0:
428,268,73744,1,0,0:0:0:0:
428,268,73819,6,0,P|456:200|412:120,2,160,4|0|8,0:0|0:0|0:0,0:0:0:0:
204,300,74269,1,0,0:0:0:0:
204,300,74344,1,0,0:0:0:0:
204,300,74419,2,0,L|108:284,1,80,8|0,0:0|0:0,0:0:0:0:
83,209,74569,1,0,0:0:0:0:
159,165,74644,2,0,L|255:181,2,80,8|8|0,0:0|0:0|0:0,0:0:0:0:
88,112,74869,6,0,P|112:67|217:61,1,160,4|0,0:0|0:0,0:0:0:0:
284,108,75094,1,0,0:0:0:0:
284,108,75169,2,0,P|360:80|336:16,1,160,2|0,0:0|0:0,0:0:0:0:
256,192,75394,1,0,0:0:0:0:
256,192,75469,2,0,L|260:280,1,80,0|0,0:0|0:0,0:0:0:0:
308,348,75619,5,0,0:0:0:0:
308,348,75694,1,8,0:0:0:0:
308,348,75769,2,0,P|347:297|463:299,1,160,8|8,0:0|0:0,0:0:0:0:
464,200,75994,2,0,P|400:191|344:89,1,160,8|8,0:0|0:0,0:0:0:0:
260,136,76219,2,0,P|284:195|223:294,1,160,8|0,0:0|0:0,0:0:0:0:
188,328,76444,1,12,0:0:0:0:
108,312,76519,6,0,L|20:296,1,80,0|0,0:0|0:0,0:0:0:0:
64,224,76669,2,0,B|72:164|72:164|48:140|48:140|56:68,2,160,0|0|8,0:0|0:0|0:0,0:0:0:0:
256,192,77119,1,2,0:0:0:0:
448,160,77269,1,0,0:0:0:0:
448,160,77344,1,0,0:0:0:0:
448,160,77419,6,0,L|368:176,1,80,8|8,0:0|0:0,0:0:0:0:
420,248,77569,2,0,L|340:264,1,80,8|8,0:0|0:0,0:0:0:0:
388,340,77719,1,4,0:0:0:0:
187,374,77869,6,0,L|213:296,1,80,8|8,0:0|0:0,0:0:0:0:
125,306,78019,2,0,L|151:228,1,80,8|8,0:0|0:0,0:0:0:0:
61,232,78169,1,4,0:0:0:0:
132,41,78319,6,0,L|186:103,1,80,8|8,0:0|0:0,0:0:0:0:
222,21,78469,2,0,L|276:83,1,80,8|8,0:0|0:0,0:0:0:0:
318,3,78619,1,4,0:0:0:0:
348,176,78769,5,8,0:0:0:0:
228,284,78919,1,0,0:0:0:0:
196,128,79069,1,8,0:0:0:0:
380,104,79219,6,0,L|468:92,1,80,8|8,0:0|0:0,0:0:0:0:
424,176,79369,2,0,L|512:164,1,80,8|8,0:0|0:0,0:0:0:0:
468,244,79519,1,4,0:0:0:0:
256,352,79669,6,0,L|344:364,1,80,8|8,0:0|0:0,0:0:0:0:
300,280,79819,2,0,L|388:292,1,80,8|8,0:0|0:0,0:0:0:0:
344,212,79969,1,4,0:0:0:0:
128,120,80119,6,0,L|216:108,1,80,8|8,0:0|0:0,0:0:0:0:
172,192,80269,2,0,L|260:180,1,80,8|8,0:0|0:0,0:0:0:0:
216,260,80419,1,4,0:0:0:0:
36,348,80569,5,8,0:0:0:0:
52,188,80719,1,0,0:0:0:0:
64,28,80869,1,8,0:0:0:0:
224,44,81019,6,0,L|316:32,1,80,8|8,0:0|0:0,0:0:0:0:
348,56,81169,2,0,L|440:44,1,80,8|8,0:0|0:0,0:0:0:0:
472,64,81319,1,4,0:0:0:0:
380,184,81469,6,0,L|288:172,1,80,8|8,0:0|0:0,0:0:0:0:
256,196,81619,2,0,L|164:184,1,80,8|8,0:0|0:0,0:0:0:0:
132,204,81769,1,4,0:0:0:0:
52,340,81919,6,0,L|131:329,1,80,8|8,0:0|0:0,0:0:0:0:
176,352,82068,2,0,L|255:341,1,80,8|8,0:0|0:0,0:0:0:0:
300,360,82219,1,4,0:0:0:0:
484,308,82369,5,8,0:0:0:0:
480,276,82444,1,0,0:0:0:0:
476,244,82519,1,0,0:0:0:0:
472,212,82594,1,0,0:0:0:0:
468,180,82669,1,8,0:0:0:0:
464,148,82744,1,0,0:0:0:0:
460,112,82819,6,0,P|400:76|312:92,2,150,8|8|0,0:0|0:0|0:0,0:0:0:0:
60,96,83869,1,0,0:0:0:0:
140,152,84019,1,0,0:0:0:0:
140,152,84094,2,0,L|136:276,1,100,0|0,0:0|0:0,0:0:0:0:
96,224,84319,2,0,L|100:348,1,100,0|0,0:0|0:0,0:0:0:0:
184,372,84619,1,4,0:0:0:0:
376,108,86119,5,0,0:0:0:0:
340,100,86194,1,0,0:0:0:0:
304,92,86269,1,0,0:0:0:0:
268,84,86344,1,0,0:0:0:0:
232,76,86419,1,0,0:0:0:0:
476,56,86719,1,8,0:0:0:0:
476,56,87919,6,0,L|456:108,1,50,0|0,0:0|0:0,0:0:0:0:
488,180,88069,2,0,L|470:226,1,50,0|0,0:0|0:0,0:0:0:0:
496,300,88219,1,0,0:0:0:0:
496,300,89719,5,0,0:0:0:0:
460,308,89794,1,0,0:0:0:0:
424,316,89869,1,0,0:0:0:0:
388,324,89944,1,0,0:0:0:0:
352,332,90019,1,0,0:0:0:0:
48,192,90319,1,8,0:0:0:0:
48,192,91069,1,0,0:0:0:0:
300,148,91219,6,0,L|296:88,1,50,0|0,0:0|0:0,0:0:0:0:
212,236,91369,2,0,L|216:296,1,50,0|0,0:0|0:0,0:0:0:0:
212,148,91519,2,0,L|152:152,1,50,8|8,0:0|0:0,0:0:0:0:
300,236,91669,2,0,L|360:232,1,50,8|8,0:0|0:0,0:0:0:0:
464,192,91819,1,0,0:0:0:0:
464,192,93169,5,0,0:0:0:0:
356,256,93319,1,0,0:0:0:0:
344,224,93394,1,0,0:0:0:0:
332,192,93469,1,0,0:0:0:0:
320,160,93544,1,0,0:0:0:0:
308,128,93619,1,0,0:0:0:0:
64,236,93919,1,8,0:0:0:0:
64,236,95119,6,0,L|56:296,1,50,0|0,0:0|0:0,0:0:0:0:
148,224,95269,2,0,L|140:284,1,50,0|0,0:0|0:0,0:0:0:0:
228,208,95419,1,0,0:0:0:0:
228,208,96919,5,0,0:0:0:0:
236,240,96994,1,0,0:0:0:0:
244,276,97069,1,0,0:0:0:0:
276,264,97144,1,0,0:0:0:0:
308,252,97219,1,0,0:0:0:0:
156,24,97519,1,8,0:0:0:0:
156,24,98269,5,0,0:0:0:0:
108,192,98419,6,0,L|112:248,1,50,0|0,0:0|0:0,0:0:0:0:
228,160,98569,2,0,L|224:110,1,50,0|0,0:0|0:0,0:0:0:0:
108,92,98719,6,0,L|52:96,1,50,8|8,0:0|0:0,0:0:0:0:
236,264,98869,2,0,L|292:260,1,50,8|8,0:0|0:0,0:0:0:0:
344,192,99019,5,4,0:0:0:0:
336,152,99094,1,0,0:0:0:0:
328,112,99169,1,0,0:0:0:0:
320,72,99244,1,0,0:0:0:0:
312,32,99319,1,8,0:0:0:0:
440,60,99469,1,0,0:0:0:0:
448,100,99544,1,0,0:0:0:0:
456,140,99619,1,0,0:0:0:0:
464,180,99694,1,0,0:0:0:0:
472,220,99769,1,8,0:0:0:0:
420,340,99919,1,0,0:0:0:0:
380,332,99994,1,0,0:0:0:0:
340,324,100069,1,0,0:0:0:0:
304,344,100144,1,0,0:0:0:0:
268,364,100219,1,8,0:0:0:0:
88,364,100369,6,0,L|20:344,1,59.9999981689454,0|8,0:0|0:0,0:0:0:0:
176,296,100519,2,0,L|244:276,1,59.9999981689454,0|8,0:0|0:0,0:0:0:0:
80,236,100669,2,0,L|12:216,1,59.9999981689454,0|8,0:0|0:0,0:0:0:0:
148,116,100819,5,4,0:0:0:0:
179,88,100894,1,0,0:0:0:0:
220,79,100969,1,0,0:0:0:0:
261,91,101044,1,0,0:0:0:0:
290,123,101119,1,8,0:0:0:0:
364,268,101269,1,0,0:0:0:0:
333,296,101344,1,0,0:0:0:0:
292,305,101419,1,0,0:0:0:0:
251,293,101494,1,0,0:0:0:0:
222,261,101569,1,8,0:0:0:0:
332,32,101719,5,2,0:0:0:0:
383,28,101794,1,0,0:0:0:0:
428,47,101869,1,0,0:0:0:0:
460,87,101944,1,0,0:0:0:0:
471,136,102019,2,0,L|464:208,1,59.9999981689454,8|0,0:0|0:0,0:0:0:0:
414,281,102169,1,0,0:0:0:0:
366,276,102244,1,0,0:0:0:0:
318,271,102319,1,0,0:0:0:0:
270,266,102394,1,0,0:0:0:0:
222,261,102469,2,0,L|138:253,1,59.9999981689454,8|8,0:0|0:0,0:0:0:0:
120,328,102619,5,4,0:0:0:0:
168,333,102694,1,0,0:0:0:0:
216,338,102769,1,0,0:0:0:0:
264,343,102844,1,0,0:0:0:0:
312,348,102919,1,8,0:0:0:0:
352,200,103069,1,0,0:0:0:0:
304,195,103144,1,0,0:0:0:0:
256,190,103219,1,0,0:0:0:0:
208,185,103294,1,0,0:0:0:0:
160,180,103369,1,8,0:0:0:0:
200,36,103519,1,0,0:0:0:0:
248,41,103594,1,0,0:0:0:0:
296,46,103669,1,0,0:0:0:0:
344,51,103744,1,0,0:0:0:0:
392,56,103819,1,8,0:0:0:0:
472,260,103969,6,0,L|476:344,1,59.9999981689454,0|8,0:0|0:0,0:0:0:0:
416,192,104119,2,0,L|413:132,1,59.9999981689454,0|8,0:0|0:0,0:0:0:0:
396,300,104269,2,0,L|400:384,1,59.9999981689454,0|8,0:0|0:0,0:0:0:0:
320,240,104419,5,4,0:0:0:0:
278,227,104494,1,0,0:0:0:0:
237,237,104569,1,0,0:0:0:0:
206,266,104644,1,0,0:0:0:0:
193,305,104719,1,8,0:0:0:0:
96,376,104869,1,0,0:0:0:0:
53,366,104944,1,0,0:0:0:0:
22,336,105019,1,0,0:0:0:0:
10,296,105094,1,0,0:0:0:0:
18,255,105169,1,8,0:0:0:0:
64,128,105319,5,0,0:0:0:0:
256,36,105469,1,0,0:0:0:0:
206,266,105619,1,0,0:0:0:0:
205,261,105694,1,0,0:0:0:0:
203,255,105769,1,0,0:0:0:0:
201,249,105844,1,0,0:0:0:0:
199,243,105919,1,0,0:0:0:0:
197,237,105994,1,0,0:0:0:0:
195,231,106069,1,0,0:0:0:0:
193,225,106144,1,0,0:0:0:0:
192,216,106219,5,4,0:0:0:0:
216,208,106294,1,0,0:0:0:0:
240,200,106369,1,0,0:0:0:0:
260,192,106444,1,0,0:0:0:0:
280,184,106519,1,8,0:0:0:0:
280,280,106669,1,0,0:0:0:0:
304,272,106744,1,0,0:0:0:0:
328,264,106819,1,0,0:0:0:0:
348,256,106894,1,0,0:0:0:0:
368,248,106969,1,8,0:0:0:0:
364,344,107119,1,0,0:0:0:0:
388,336,107194,1,0,0:0:0:0:
412,328,107269,1,0,0:0:0:0:
432,320,107344,1,0,0:0:0:0:
452,312,107419,1,8,0:0:0:0:
484,200,107569,6,0,L|472:132,1,59.9999981689454,0|8,0:0|0:0,0:0:0:0:
396,156,107719,2,0,L|384:88,1,59.9999981689454,0|8,0:0|0:0,0:0:0:0:
308,108,107869,2,0,L|296:40,1,59.9999981689454,0|8,0:0|0:0,0:0:0:0:
212,72,108019,5,0,0:0:0:0:
188,64,108094,1,0,0:0:0:0:
164,56,108169,1,0,0:0:0:0:
144,48,108244,1,0,0:0:0:0:
124,40,108319,1,8,0:0:0:0:
128,136,108469,1,0,0:0:0:0:
104,128,108544,1,0,0:0:0:0:
80,120,108619,1,0,0:0:0:0:
60,112,108694,1,0,0:0:0:0:
40,104,108769,1,8,0:0:0:0:
12,240,108919,5,2,0:0:0:0:
31,270,108994,1,0,0:0:0:0:
62,289,109069,1,0,0:0:0:0:
98,292,109144,1,0,0:0:0:0:
132,279,109219,2,0,L|144:340,1,59.9999981689454,8|0,0:0|0:0,0:0:0:0:
216,380,109369,1,0,0:0:0:0:
252,376,109444,1,0,0:0:0:0:
288,372,109519,1,0,0:0:0:0:
324,368,109594,1,0,0:0:0:0:
360,364,109669,2,0,L|440:356,1,59.9999981689454,8|8,0:0|0:0,0:0:0:0:
444,276,109819,5,4,0:0:0:0:
421,278,109894,1,0,0:0:0:0:
396,281,109969,1,0,0:0:0:0:
375,282,110044,1,0,0:0:0:0:
354,283,110119,1,8,0:0:0:0:
452,188,110269,1,0,0:0:0:0:
429,190,110344,1,0,0:0:0:0:
404,193,110419,1,0,0:0:0:0:
383,194,110494,1,0,0:0:0:0:
362,195,110569,1,8,0:0:0:0:
468,96,110719,1,0,0:0:0:0:
445,98,110794,1,0,0:0:0:0:
420,101,110869,1,0,0:0:0:0:
399,102,110944,1,0,0:0:0:0:
378,103,111019,1,8,0:0:0:0:
268,104,111169,6,0,L|260:180,1,59.9999981689454,0|8,0:0|0:0,0:0:0:0:
188,264,111319,2,0,L|194:204,1,59.9999981689454,0|8,0:0|0:0,0:0:0:0:
128,84,111469,2,0,L|120:160,1,59.9999981689454,0|8,0:0|0:0,0:0:0:0:
44,212,111619,5,4,0:0:0:0:
48,228,111694,1,0,0:0:0:0:
52,244,111769,1,0,0:0:0:0:
56,260,111844,1,0,0:0:0:0:
60,276,111919,1,8,0:0:0:0:
204,328,112069,1,0,0:0:0:0:
200,312,112144,1,0,0:0:0:0:
196,296,112219,1,0,0:0:0:0:
192,280,112294,1,0,0:0:0:0:
188,264,112369,1,8,0:0:0:0:
336,192,112519,1,2,0:0:0:0:
256,192,112594,12,0,113719,0:0:0:0:
