osu file format v14

[General]
AudioFilename: SeeU - Deep Sea Girl.mp3
AudioLeadIn: 0
PreviewTime: 42932
Countdown: 0
SampleSet: Soft
StackLeniency: 0.7
Mode: 0
LetterboxInBreaks: 0
WidescreenStoryboard: 0

[Editor]
Bookmarks: 889,15341,29356,36363,42932,60889,63954,78407,85414,91983,109940,123954
DistanceSpacing: 1
BeatDivisor: 4
GridSize: 4
TimelineZoom: 1

[Metadata]
Title:Deep Sea Girl
TitleUnicode:심해소녀
Artist:Yuuyu
ArtistUnicode:ゆうゆP
Creator:Sonnyc
Version:Hard
Source:
Tags:vocaloid 深海少女 Shinkai Shoujo SeeU 시유 HabiHolic
BeatmapID:354270
BeatmapSetID:142177

[Difficulty]
HPDrainRate:6
CircleSize:4
OverallDifficulty:6.5
ApproachRate:7
SliderMultiplier:1.8
SliderTickRate:2

[Events]
//Background and Video events
0,0,"bg.jpg",0,0
//Break Periods
2,29556,35463
2,61088,63054
2,78607,84514
//Storyboard Layer 0 (Background)
//Storyboard Layer 1 (Fail)
//Storyboard Layer 2 (Pass)
//Storyboard Layer 3 (Foreground)
//Storyboard Sound Samples

[TimingPoints]
1327,437.956204379562,4,2,1,50,1,0
14684,-100,4,2,2,40,0,0
14903,-100,4,2,1,50,0,0
15341,-100,4,2,1,60,0,0
43370,-100,4,2,1,70,0,1
60889,-100,4,2,1,60,0,0
92421,-100,4,2,1,70,0,1
109940,-100,4,2,1,60,0,0

[Colours]
Combo1 : 255,128,64
Combo2 : 128,255,128
Combo3 : 0,255,255
Combo4 : 255,0,128

[HitObjects]
140,88,889,6,0,L|116:180,1,90
88,272,1327,1,2,0:0:0:0:
172,328,1545,1,0,0:0:0:0:
256,272,1764,1,8,0:0:0:0:
340,328,1983,1,0,0:0:0:0:
424,272,2202,2,0,P|460:236|444:112,1,180,2|8,0:0|0:0,0:0:0:0:
352,88,2859,1,0,0:0:0:0:
376,184,3078,6,0,P|312:180|276:148,1,90,2|0,0:0|0:0,0:0:0:0:
253,71,3516,2,0,P|231:82|196:136,1,90,8|0,0:0|0:0,0:0:0:0:
218,235,3954,2,0,P|144:224|96:128,1,180,2|8,0:0|0:0,0:0:0:0:
100,36,4611,5,0,0:0:0:0:
100,36,4830,2,0,B|148:40|176:76|176:76|208:36|256:40,1,180,2|8,0:0|0:0,0:0:0:0:
352,64,5487,1,0,0:0:0:0:
330,162,5706,2,0,P|280:152|248:132,1,90,2|0,0:0|0:0,0:0:0:0:
164,188,6144,2,0,P|180:237|178:274,1,90,8|0,0:0|0:0,0:0:0:0:
268,316,6582,2,0,P|304:279|338:263,1,90,2|0,0:0|0:0,0:0:0:0:
436,236,7020,2,0,P|416:172|480:88,1,180,8|2,0:0|0:0,0:0:0:0:
512,288,7896,6,0,P|472:320|420:320,1,90,8|0,0:0|0:0,0:0:0:0:
348,272,8334,1,2,0:0:0:0:
292,356,8553,1,0,0:0:0:0:
248,268,8772,2,0,P|264:212|308:180,1,90,8|0,0:0|0:0,0:0:0:0:
372,140,9210,2,0,P|316:96|215:117,1,180,2|8,0:0|0:0,0:0:0:0:
160,204,9867,1,0,0:0:0:0:
60,180,10086,6,0,P|72:152|116:112,1,90,2|0,0:0|0:0,0:0:0:0:
160,204,10524,2,0,P|150:231|106:271,1,90,8|0,0:0|0:0,0:0:0:0:
8,264,10962,2,0,P|32:340|132:368,1,180,2|8,0:0|0:0,0:0:0:0:
216,336,11618,6,0,L|220:292,2,45,0|0|2,0:0|0:0|0:0,0:0:0:0:
308,380,12056,1,0,0:0:0:0:
448,236,12494,6,0,L|496:216,2,45,0|0|2,0:0|0:0|0:0,0:0:0:0:
352,268,12932,1,0,0:0:0:0:
372,168,13151,1,8,0:0:0:0:
276,200,13370,1,0,0:0:0:0:
296,100,13589,2,0,P|208:120|172:216,1,180,2|8,0:0|0:0,0:0:0:0:
172,296,14246,1,0,0:0:0:0:
84,248,14465,2,0,P|72:188|116:72,1,180,2|2,0:0|0:3,0:0:0:0:
208,52,15122,5,0,0:0:0:0:
296,100,15341,2,0,P|340:116|388:112,1,90,4|0,0:0|0:0,0:0:0:0:
468,168,15779,2,0,P|428:204|384:216,1,90,8|0,0:0|0:0,0:0:0:0:
292,208,16217,1,2,0:0:0:0:
144,344,16655,6,0,B|88:272|88:272|88:184,1,180,8|2,0:0|0:0,0:0:0:0:
88,80,17312,1,0,0:0:0:0:
164,12,17531,2,0,P|184:44|188:100,1,90,8|0,0:0|0:0,0:0:0:0:
170,195,17969,2,0,B|219:198|252:163|252:163|286:128|333:132,1,180,2|8,0:0|0:0,0:0:0:0:
424,176,18626,5,0,0:0:0:0:
424,176,18845,2,0,P|424:88|344:32,1,180,2|8,0:0|0:0,0:0:0:0:
256,28,19502,1,0,0:0:0:0:
155,34,19721,2,0,P|112:56|84:100,1,90,2|0,0:0|0:0,0:0:0:0:
12,156,20159,2,0,P|52:182|104:184,1,90,8|0,0:0|0:0,0:0:0:0:
192,216,20597,2,0,P|194:167|170:121,2,90,2|0|8,0:0|0:0|0:0,0:0:0:0:
116,284,21254,1,0,0:0:0:0:
212,316,21472,1,2,0:0:0:0:
212,316,21910,2,0,B|256:324|256:324|300:316,1,90,8|4,0:0|0:0,0:0:0:0:
396,284,22348,6,0,P|368:248|360:200,1,90,2|0,0:0|0:0,0:0:0:0:
408,116,22786,1,8,0:0:0:0:
460,204,23005,1,0,0:0:0:0:
359,205,23224,2,0,P|320:164|332:48,1,180,2|8,0:0|0:0,0:0:0:0:
408,116,23881,1,0,0:0:0:0:
359,205,24100,6,0,B|336:244|336:244|300:272,1,90,2|0,0:0|0:0,0:0:0:0:
256,180,24538,2,0,B|220:207|220:207|197:246,2,90,8|0|2,0:0|0:0|0:0,0:0:0:0:
388,336,25414,1,8,0:0:0:0:
296,292,25633,6,0,L|280:248,2,45,0|0|2,0:0|0:0|0:0,0:0:0:0:
224,364,26071,1,0,0:0:0:0:
132,320,26290,1,8,0:0:0:0:
204,248,26509,1,0,0:0:0:0:
136,172,26728,6,0,P|96:200|72:252,1,90,2|0,0:0|0:0,0:0:0:0:
16,152,27166,2,0,P|4:104|12:56,1,90,8|0,0:0|0:0,0:0:0:0:
100,20,27604,6,0,B|164:24|188:104|252:108,1,180,2|8,0:0|0:0,0:0:0:0:
352,100,28261,1,0,0:0:0:0:
420,24,28480,2,0,P|456:104|412:184,1,180,2|8,0:0|0:0,0:0:0:0:
320,212,29137,5,0,0:0:0:0:
396,280,29356,1,4,0:0:0:0:
176,330,36363,6,0,P|280:362|336:330,1,180,4|8,0:0|0:0,0:0:0:0:
372,234,37020,1,0,0:0:0:0:
340,138,37239,2,0,L|304:50,1,90,2|0,0:0|0:0,0:0:0:0:
206,54,37677,2,0,L|171:137,1,90,8|0,0:0|0:0,0:0:0:0:
76,106,38115,6,0,P|88:198|164:238,1,180,4|8,0:0|0:0,0:0:0:0:
256,248,38772,1,0,0:0:0:0:
353,237,38991,2,0,P|423:197|435:105,1,180,2|8,0:0|0:0,0:0:0:0:
356,42,39648,5,0,0:0:0:0:
340,142,39867,2,0,B|296:142|256:114|256:114|216:142|172:142,1,180,4|8,0:0|0:0,0:0:0:0:
172,242,40524,2,0,B|216:242|256:270|256:270|296:242|340:242,1,180,4|0,0:0|0:0,0:0:0:0:
356,342,41181,1,8,0:0:0:0:
256,360,41399,6,0,P|144:356|168:96,1,450,4|0,0:0|0:0,0:0:0:0:
368,76,42932,5,0,0:0:0:0:
368,76,43151,1,0,0:0:0:0:
460,120,43370,2,0,P|424:164|364:180,1,90,6|0,0:0|0:0,0:0:0:0:
292,184,43808,2,0,P|308:236|352:272,1,90,8|0,0:0|0:0,0:0:0:0:
432,272,44246,2,0,P|392:344|276:344,1,180,2|8,0:0|0:0,0:0:0:0:
216,304,44903,1,0,0:0:0:0:
152,224,45122,6,0,P|120:264|116:324,1,90,2|0,0:0|0:0,0:0:0:0:
28,356,45560,2,0,P|12:312|32:240,1,90,8|0,0:0|0:0,0:0:0:0:
60,176,45998,2,0,P|108:132|216:144,1,180,2|8,0:0|0:0,0:0:0:0:
300,200,46655,1,0,0:0:0:0:
244,284,46874,6,0,P|316:300|400:212,1,180,4|8,0:0|0:0,0:0:0:0:
380,136,47531,1,0,0:0:0:0:
474,175,47750,2,0,P|492:212|492:268,1,90,2|0,0:0|0:0,0:0:0:0:
413,322,48188,2,0,P|395:285|394:237,1,90,8|0,0:0|0:0,0:0:0:0:
380,136,48626,5,4,0:0:0:0:
461,74,48845,1,0,0:0:0:0:
474,175,49064,1,8,0:0:0:0:
394,236,49283,1,0,0:0:0:0:
300,199,49502,2,0,P|280:128|344:40,1,180,4|8,0:0|0:0,0:0:0:0:
380,136,50159,1,0,0:0:0:0:
394,236,50378,6,0,P|368:276|312:300,1,90,6|0,0:0|0:0,0:0:0:0:
300,199,50816,2,0,P|262:219|236:258,1,90,8|0,0:0|0:0,0:0:0:0:
252,360,51254,2,0,P|180:344|136:232,1,180,2|8,0:0|0:0,0:0:0:0:
140,152,51910,1,0,0:0:0:0:
204,72,52129,6,0,P|232:108|240:168,1,90,2|0,0:0|0:0,0:0:0:0:
140,152,52567,2,0,P|112:116|104:56,2,90,8|0|4,0:0|0:0|0:0,0:0:0:0:
336,208,53443,6,0,L|424:228,1,90,8|0,0:0|0:0,0:0:0:0:
500,296,53881,2,0,P|524:244|476:140,1,180,2|8,0:0|0:0,0:0:0:0:
280,80,54757,2,0,P|240:100|212:144,1,90,2|0,0:0|0:0,0:0:0:0:
192,236,55195,2,0,P|148:216|120:176,1,90,8|0,0:0|0:0,0:0:0:0:
129,82,55633,5,2,0:0:0:0:
28,72,55852,1,0,0:0:0:0:
22,173,56071,1,8,0:0:0:0:
123,183,56290,1,0,0:0:0:0:
214,136,56509,6,0,P|224:192|217:224,1,90,4|0,0:0|0:0,0:0:0:0:
136,288,56947,2,0,P|168:316|216:328,1,90,8|0,0:0|0:0,0:0:0:0:
316,328,57385,6,0,B|364:308|364:256|364:256|364:168,1,180,4|8,0:0|0:0,0:0:0:0:
312,80,58042,2,0,B|264:100|264:152|264:152|264:240,1,180,4|0,0:0|0:0,0:0:0:0:
316,328,58699,1,8,0:0:0:0:
416,348,58918,1,0,0:0:0:0:
504,296,59137,5,0,0:0:0:0:
504,296,59356,2,0,P|484:216|408:152,1,180,2|0,0:0|0:0,0:0:0:0:
312,132,60013,2,0,B|236:104|212:176|136:148,2,180,2|8|4,0:0|0:0|0:0,0:0:0:0:
205,56,63954,5,2,0:0:0:0:
307,56,64173,1,0,0:0:0:0:
368,136,64392,2,0,P|368:140|332:220,1,90,4|0,0:0|0:0,0:0:0:0:
256,152,64830,1,8,0:0:0:0:
177,217,65049,1,0,0:0:0:0:
256,281,65268,1,2,0:0:0:0:
177,217,65487,2,0,P|143:294|143:298,1,90,0|8,0:0|0:0,0:0:0:0:
368,298,66144,6,0,P|368:294|335:217,1,90,2|0,0:0|0:0,0:0:0:0:
256,152,66582,1,8,0:0:0:0:
352,116,66801,1,0,0:0:0:0:
272,52,67020,2,0,P|180:84|160:184,1,180,2|8,0:0|0:0,0:0:0:0:
208,244,67677,5,0,0:0:0:0:
256,152,67896,2,0,P|304:204|272:324,1,180,2|8,0:0|0:0,0:0:0:0:
196,345,68553,1,0,0:0:0:0:
208,244,68772,2,0,P|176:256|108:248,1,90,2|0,0:0|0:0,0:0:0:0:
66,167,69210,2,0,P|98:155|166:163,1,90,8|4,0:0|0:0,0:0:0:0:
256,152,69648,5,2,0:0:0:0:
309,238,69867,1,0,0:0:0:0:
358,149,70086,1,8,0:0:0:0:
305,62,70305,1,0,0:0:0:0:
203,65,70524,1,2,0:0:0:0:
309,238,70962,6,0,P|332:248|416:232,1,90,8|4,0:0|0:0,0:0:0:0:
358,149,71399,1,2,0:0:0:0:
256,152,71618,1,0,0:0:0:0:
305,62,71837,2,0,P|356:48|420:68,1,90,8|0,0:0|0:0,0:0:0:0:
458,131,72275,1,2,0:0:0:0:
358,149,72494,1,0,0:0:0:0:
424,226,72713,2,0,P|469:233|523:210,1,90,8|0,0:0|0:0,0:0:0:0:
458,131,73151,6,0,P|358:149|323:215,1,180,2|8,0:0|0:0,0:0:0:0:
256,288,73808,1,0,0:0:0:0:
188,212,74027,2,0,P|154:149|54:131,1,180,2|8,0:0|0:0,0:0:0:0:
88,226,74684,5,0,0:0:0:0:
88,226,74903,2,0,L|192:56,1,180,2|8,0:0|0:0,0:0:0:0:
256,144,75560,1,0,0:0:0:0:
330,72,75779,6,0,L|377:149,1,90,2|0,0:0|0:0,0:0:0:0:
424,225,76217,2,0,L|377:149,1,90,8|0,0:0|0:0,0:0:0:0:
479,132,76655,6,0,P|531:222|499:304,1,180,4|8,0:0|0:0,0:0:0:0:
418,325,77312,1,0,0:0:0:0:
424,226,77531,2,0,B|356:226|325:288|325:288|268:288,1,180,2|8,0:0|0:0,0:0:0:0:
168,288,78188,5,0,0:0:0:0:
219,200,78407,1,4,0:0:0:0:
168,72,85414,6,0,B|256:52|256:52|344:72,1,180,4|8,0:0|0:0,0:0:0:0:
364,172,86071,1,0,0:0:0:0:
307,256,86290,2,0,B|320:300|320:300|348:336|400:340,2,135,2|0|0,0:0|0:0|0:0,0:0:0:0:
205,256,87166,2,0,B|192:300|192:300|164:336|112:340,2,135,2|0|0,0:0|0:0|0:0,0:0:0:0:
148,172,88042,2,0,P|104:136|-12:164,1,180,2|8,0:0|0:0,0:0:0:0:
64,232,88699,5,0,0:0:0:0:
148,172,88918,2,0,B|191:167|228:135|228:135|271:159|315:154,1,180,4|8,0:0|0:0,0:0:0:0:
324,253,89575,2,0,B|280:257|243:289|243:289|200:265|156:270,1,180,4|0,0:0|0:0,0:0:0:0:
151,371,90232,1,8,0:0:0:0:
253,378,90451,6,0,P|363:362|312:106,1,450,4|0,0:0|0:0,0:0:0:0:
120,168,91983,5,0,0:0:0:0:
120,168,92202,1,0,0:0:0:0:
24,204,92421,2,0,P|20:148|30:116,1,90,6|0,0:0|0:0,0:0:0:0:
120,64,92859,2,0,P|173:80|198:101,1,90,8|0,0:0|0:0,0:0:0:0:
216,203,93297,2,0,B|272:192|296:136|296:136|364:116,1,180,2|8,0:0|0:0,0:0:0:0:
464,96,93954,1,0,0:0:0:0:
488,196,94173,6,0,P|492:248|480:300,1,90,2|0,0:0|0:0,0:0:0:0:
405,348,94611,1,8,0:0:0:0:
391,247,94830,1,0,0:0:0:0:
311,310,95049,1,2,0:0:0:0:
124,232,95487,6,0,L|100:144,1,90,8|0,0:0|0:0,0:0:0:0:
68,48,95925,2,0,P|104:43|199:169,1,180,4|8,0:0|0:0,0:0:0:0:
256,220,96582,1,0,0:0:0:0:
345,269,96801,2,0,P|387:257|425:230,1,90,2|0,0:0|0:0,0:0:0:0:
423,129,97239,2,0,P|380:140|342:167,1,90,8|0,0:0|0:0,0:0:0:0:
256,220,97677,6,0,B|179:270|179:270|145:239|94:248,1,180,4|8,0:0|0:0,0:0:0:0:
32,327,98334,2,0,P|53:340|116:348,1,90,0|4,0:0|0:0,0:0:0:0:
316,304,98991,6,0,P|344:276|356:208,1,90,2|0,0:0|0:0,0:0:0:0:
256,220,99429,1,6,0:0:0:0:
213,128,99648,2,0,P|261:116|299:126,1,90,0|8,0:0|0:0,0:0:0:0:
400,136,100086,1,0,0:0:0:0:
358,228,100305,1,2,0:0:0:0:
459,219,100524,2,0,P|486:190|501:138,1,90,0|8,0:0|0:0,0:0:0:0:
456,51,100962,1,0,0:0:0:0:
354,46,101181,5,2,0:0:0:0:
400,136,101399,2,0,P|372:144|312:137,1,90,0|8,0:0|0:0,0:0:0:0:
253,54,101837,1,0,0:0:0:0:
211,147,102056,1,4,0:0:0:0:
14,95,102494,6,0,P|1:144|15:184,1,90,8|0,0:0|0:0,0:0:0:0:
36,280,102932,2,0,B|81:266|104:224|104:224|208:252,1,180,0|8,0:0|0:0,0:0:0:0:
288,276,103589,2,0,P|264:320|216:344,1,90
320,156,104246,6,0,P|376:188|404:236,1,90,8|0,0:0|0:0,0:0:0:0:
424,304,104684,1,2,0:0:0:0:
491,228,104903,1,0,0:0:0:0:
459,132,105122,1,8,0:0:0:0:
377,72,105341,1,0,0:0:0:0:
320,156,105560,5,4,0:0:0:0:
256,236,105779,1,0,0:0:0:0:
159,263,105998,1,8,0:0:0:0:
85,194,106217,1,0,0:0:0:0:
183,165,106436,6,0,P|92:92|16:120,1,180,2|8,0:0|0:0,0:0:0:0:
85,194,107093,2,0,P|176:267|252:239,1,180,2|0,0:0|0:0,0:0:0:0:
285,169,107750,1,8,0:0:0:0:
331,260,107969,1,0,0:0:0:0:
230,255,108188,1,0,0:0:0:0:
285,169,108407,6,0,B|355:138|408:193|408:193|422:149,1,180,2|0,0:0|0:0,0:0:0:0:
444,50,109064,2,0,P|514:103|505:209,1,180,2|8,0:0|0:0,0:0:0:0:
456,272,109721,1,0,0:0:0:0:
372,328,109940,6,0,B|284:328|284:328|252:292|200:292,1,180,4|8,0:0|0:0,0:0:0:0:
100,292,110597,2,0,B|100:256|128:204|188:192|188:192|236:184,1,180,4|0,0:0|0:0,0:0:0:0:
324,168,111254,2,0,P|320:220|292:264,1,90,8|0,0:0|0:0,0:0:0:0:
223,186,111691,6,0,P|200:128|88:84,1,180,4|8,0:0|0:0,0:0:0:0:
24,152,112348,2,0,B|52:236|112:200|136:288,1,180,4|0,0:0|0:0,0:0:0:0:
196,368,113005,2,0,P|248:328|264:304,1,90,8|0,0:0|0:0,0:0:0:0:
272,208,113443,6,0,B|332:216|356:268|356:268|396:280|428:264,1,180,4|8,0:0|0:0,0:0:0:0:
488,184,114100,2,0,P|524:252|480:352,1,180,4|0,0:0|0:0,0:0:0:0:
392,360,114757,1,8,0:0:0:0:
426,264,114976,1,0,0:0:0:0:
324,284,115195,6,0,B|288:320|292:372|292:372|244:380|200:360,1,180,4|8,0:0|0:0,0:0:0:0:
120,316,115852,1,4,0:0:0:0:
111,214,116071,2,0,L|128:171,2,45
27,271,116509,1,8,0:0:0:0:
120,316,116728,5,0,0:0:0:0:
202,257,116947,2,0,B|266:192|266:192|298:160|304:113,1,180,2|8,0:0|0:0,0:0:0:0:
208,112,117604,2,0,B|213:158|245:190|245:190|310:255,1,180,0|0,0:0|0:0,0:0:0:0:
392,316,118261,1,8,0:0:0:0:
388,212,118480,1,0,0:0:0:0:
392,316,118699,5,2,0:0:0:0:
476,260,118918,1,0,0:0:0:0:
388,212,119137,1,8,0:0:0:0:
472,156,119356,1,0,0:0:0:0:
384,108,119575,2,0,P|332:124|296:160,1,90,4|0,0:0|0:0,0:0:0:0:
292,248,120013,1,2,0:0:0:0:
388,212,120232,1,0,0:0:0:0:
305,146,120451,6,0,B|268:116|268:116|224:104,1,90,0|0,1:0|1:0,0:0:0:0:
132,144,120889,2,0,B|124:191|124:191|135:236,1,90,0|0,1:0|1:0,0:0:0:0:
217,294,121326,2,0,B|262:277|262:277|292:248,1,90,0|0,1:0|1:0,0:0:0:0:
305,146,121764,1,0,1:0:0:0:
216,196,121983,1,0,1:0:0:0:
220,96,122202,6,0,P|288:48|392:100,1,180,4|8,0:0|0:0,0:0:0:0:
436,156,122859,2,0,B|460:212|460:212|456:272|456:272|480:328,1,180,4|2,0:0|0:0,0:0:0:0:
380,352,123516,2,0,L|336:364,3,45,8|0|2|0,0:0|0:0|0:0|0:0,0:0:0:0:
288,348,123954,5,4,0:0:0:0:
256,192,124064,12,4,127458,0:0:0:0:
