osu file format v12

[General]
AudioFilename: virtual
AudioLeadIn: 0
PreviewTime: 0
Countdown: 0
SampleSet: Soft
StackLeniency: 0.4
Mode: 3
LetterboxInBreaks: 0
SpecialStyle: 0

[Editor]
DistanceSpacing: 0.5
BeatDivisor: 4
GridSize: 8

[Metadata]
Title:Imperishable Night 2006
TitleUnicode:Imperishable Night 2006
Artist:Yuuna Sasara feat. Tai no Kobone
ArtistUnicode:篠螺悠那 feat. 鯛の小骨
Creator:xxbidiao
Version:7K Normal
Source:Touhou
Tags:BMS
BeatmapID:257173
BeatmapSetID:92190

[Difficulty]
HPDrainRate:7
CircleSize:7
OverallDifficulty:9
ApproachRate:7
SliderMultiplier:0.4
SliderTickRate:1

[Events]
//Background and Video events
0,0,"imperi_title.jpg",0,0
Video,-2207,"350dw.avi"
//Break Periods
//Storyboard Layer 0 (Background)
//Storyboard Layer 1 (Fail)
//Storyboard Layer 2 (Pass)
//Storyboard Layer 3 (Foreground)
//Storyboard Sound Samples
Sample,745,0,"se_gtr_1.wav",70
Sample,745,0,"sn_roll_1.wav",70
Sample,1118,0,"claprev.wav",70
Sample,1490,0,"hit_1.wav",70
Sample,1490,0,"bgm1_1.wav",70
Sample,1490,0,"cym.wav",70
Sample,1583,0,"hit_2.wav",70
Sample,1770,0,"hit_1.wav",70
Sample,1770,0,"cym.wav",70
Sample,1863,0,"hit_2.wav",70
Sample,2049,0,"hit_1.wav",70
Sample,2049,0,"cym.wav",70
Sample,2142,0,"hit_2.wav",70
Sample,2236,0,"amen_1.wav",70
Sample,2981,0,"hit_1.wav",70
Sample,2981,0,"cym.wav",70
Sample,3074,0,"hit_2.wav",70
Sample,3260,0,"cym.wav",70
Sample,3260,0,"hit_1.wav",70
Sample,3354,0,"hit_2.wav",70
Sample,3540,0,"hit_1.wav",70
Sample,3540,0,"cym.wav",70
Sample,3633,0,"hit_2.wav",70
Sample,3726,0,"amen_1.wav",70
Sample,4472,0,"cym.wav",70
Sample,4472,0,"bgm1_1.wav",70
Sample,4472,0,"hit_1.wav",70
Sample,4565,0,"hit_2.wav",70
Sample,4751,0,"hit_1.wav",70
Sample,4751,0,"cym.wav",70
Sample,4844,0,"hit_2.wav",70
Sample,5031,0,"cym.wav",70
Sample,5031,0,"hit_1.wav",70
Sample,5124,0,"hit_2.wav",70
Sample,5217,0,"amen_1.wav",70
Sample,5962,0,"cym.wav",70
Sample,5962,0,"hit_1.wav",70
Sample,6055,0,"hit_2.wav",70
Sample,6242,0,"cym.wav",70
Sample,6242,0,"hit_1.wav",70
Sample,6335,0,"hit_2.wav",70
Sample,6521,0,"hit_1.wav",70
Sample,6521,0,"cym.wav",70
Sample,6614,0,"hit_2.wav",70
Sample,6708,0,"amen_1.wav",70
Sample,6708,0,"cym.wav",70
Sample,6801,0,"hit_1.wav",70
Sample,6894,0,"cym.wav",70
Sample,6894,0,"hit_3.wav",70
Sample,6987,0,"hit_1.wav",70
Sample,7080,0,"cym.wav",70
Sample,7080,0,"hit_13.wav",70
Sample,7267,0,"hit_14.wav",70
Sample,7453,0,"cym.wav",70
Sample,7453,0,"bgm1_2.wav",70
Sample,7453,0,"hit_1.wav",70
Sample,7546,0,"hit_2.wav",70
Sample,7732,0,"cym.wav",70
Sample,7732,0,"hit_1.wav",70
Sample,7826,0,"hit_2.wav",70
Sample,8012,0,"cym.wav",70
Sample,8012,0,"hit_1.wav",70
Sample,8105,0,"hit_2.wav",70
Sample,8944,0,"hit_1.wav",70
Sample,8944,0,"cym.wav",70
Sample,9037,0,"hit_2.wav",70
Sample,9223,0,"hit_1.wav",70
Sample,9223,0,"cym.wav",70
Sample,9316,0,"hit_2.wav",70
Sample,9503,0,"hit_1.wav",70
Sample,9503,0,"cym.wav",70
Sample,9596,0,"hit_2.wav",70
Sample,10434,0,"hit_1.wav",70
Sample,10434,0,"bgm1_2.wav",70
Sample,10434,0,"cym.wav",70
Sample,10527,0,"hit_2.wav",70
Sample,10714,0,"hit_1.wav",70
Sample,10714,0,"cym.wav",70
Sample,10807,0,"hit_2.wav",70
Sample,10993,0,"hit_1.wav",70
Sample,10993,0,"cym.wav",70
Sample,11086,0,"hit_2.wav",70
Sample,11925,0,"hit_1.wav",70
Sample,11925,0,"cym.wav",70
Sample,11925,0,"cym_revrs.wav",70
Sample,12018,0,"hit_2.wav",70
Sample,12204,0,"cym.wav",70
Sample,12204,0,"hit_1.wav",70
Sample,12298,0,"hit_2.wav",70
Sample,12484,0,"hit_1.wav",70
Sample,12484,0,"cym.wav",70
Sample,12577,0,"hit_2.wav",70
Sample,12670,0,"amen_1.wav",70
Sample,12670,0,"cym.wav",70
Sample,12763,0,"hit_1.wav",70
Sample,12857,0,"hit_3.wav",70
Sample,12857,0,"cym.wav",70
Sample,12950,0,"hit_1.wav",70
Sample,13043,0,"cym.wav",70
Sample,13043,0,"hit_13.wav",70
Sample,13229,0,"hit_14.wav",70
Sample,13416,0,"hit_1.wav",70
Sample,13416,0,"bgm1_2.wav",70
Sample,13416,0,"amen_2.wav",70
Sample,13416,0,"cym.wav",70
Sample,13416,0,"se1.wav",70
Sample,13509,0,"hit_2.wav",70
Sample,13695,0,"hit_1.wav",70
Sample,13788,0,"hit_2.wav",70
Sample,13975,0,"hit_1.wav",70
Sample,14068,0,"hit_2.wav",70
Sample,14254,0,"hit_1.wav",70
Sample,14347,0,"hit_3.wav",70
Sample,14440,0,"hit_1.wav",70
Sample,14534,0,"hit_2.wav",70
Sample,14720,0,"hit_4.wav",70
Sample,14906,0,"amen_2.wav",70
Sample,14906,0,"hit_1.wav",70
Sample,15000,0,"hit_2.wav",70
Sample,15186,0,"hit_1.wav",70
Sample,15279,0,"hit_2.wav",70
Sample,15465,0,"hit_1.wav",70
Sample,15559,0,"hit_2.wav",70
Sample,15745,0,"hit_1.wav",70
Sample,15838,0,"hit_3.wav",70
Sample,15931,0,"hit_5.wav",70
Sample,16024,0,"hit_6.wav",70
Sample,16211,0,"hit_7.wav",70
Sample,16397,0,"bgm1_2.wav",70
Sample,16397,0,"amen_2.wav",70
Sample,16397,0,"hit_1.wav",70
Sample,16490,0,"hit_2.wav",70
Sample,16677,0,"hit_1.wav",70
Sample,16770,0,"hit_2.wav",70
Sample,16956,0,"hit_1.wav",70
Sample,17049,0,"hit_2.wav",70
Sample,17236,0,"hit_1.wav",70
Sample,17329,0,"hit_3.wav",70
Sample,17422,0,"hit_1.wav",70
Sample,17515,0,"hit_2.wav",70
Sample,17701,0,"hit_4.wav",70
Sample,17888,0,"amen_2.wav",70
Sample,17888,0,"hit_1.wav",70
Sample,17981,0,"hit_2.wav",70
Sample,18167,0,"hit_1.wav",70
Sample,18260,0,"hit_2.wav",70
Sample,18447,0,"hit_1.wav",70
Sample,18540,0,"hit_2.wav",70
Sample,18633,0,"hit_4.wav",70
Sample,18819,0,"hit_4.wav",70
Sample,19006,0,"hit_8.wav",70
Sample,19099,0,"kick.wav",70
Sample,19192,0,"hit_9.wav",70
Sample,19285,0,"kick.wav",70
Sample,19378,0,"hit_1.wav",70
Sample,19378,0,"bgm1_2.wav",70
Sample,19378,0,"snare_roll.wav",70
Sample,19378,0,"amen_2.wav",70
Sample,19472,0,"snare_roll.wav",70
Sample,19472,0,"hit_2.wav",70
Sample,19565,0,"snare_roll.wav",70
Sample,19658,0,"hit_1.wav",70
Sample,19658,0,"snare_roll.wav",70
Sample,19751,0,"snare_roll.wav",70
Sample,19751,0,"hit_2.wav",70
Sample,19844,0,"snare_roll.wav",70
Sample,19937,0,"snare_roll.wav",70
Sample,19937,0,"hit_1.wav",70
Sample,20031,0,"hit_2.wav",70
Sample,20031,0,"snare_roll.wav",70
Sample,20124,0,"snare_roll.wav",70
Sample,20217,0,"hit_1.wav",70
Sample,20217,0,"snare_roll.wav",70
Sample,20310,0,"snare_roll.wav",70
Sample,20310,0,"hit_3.wav",70
Sample,20403,0,"snare_roll.wav",70
Sample,20403,0,"hit_1.wav",70
Sample,20496,0,"snare_roll.wav",70
Sample,20496,0,"hit_2.wav",70
Sample,20590,0,"snare_roll.wav",70
Sample,20683,0,"snare_roll.wav",70
Sample,20683,0,"hit_4.wav",70
Sample,20776,0,"snare_roll.wav",70
Sample,20869,0,"hit_1.wav",70
Sample,20869,0,"snare_roll.wav",70
Sample,20869,0,"amen_2.wav",70
Sample,20962,0,"snare_roll.wav",70
Sample,20962,0,"hit_2.wav",70
Sample,21055,0,"snare_roll.wav",70
Sample,21149,0,"hit_1.wav",70
Sample,21149,0,"snare_roll.wav",70
Sample,21242,0,"snare_roll.wav",70
Sample,21242,0,"hit_2.wav",70
Sample,21335,0,"snare_roll.wav",70
Sample,21428,0,"hit_1.wav",70
Sample,21428,0,"snare_roll.wav",70
Sample,21521,0,"snare_roll.wav",70
Sample,21521,0,"hit_2.wav",70
Sample,21614,0,"snare_roll.wav",70
Sample,21708,0,"hit_1.wav",70
Sample,21708,0,"snare_roll.wav",70
Sample,21801,0,"snare_roll.wav",70
Sample,21801,0,"hit_3.wav",70
Sample,21894,0,"hit_5.wav",70
Sample,21894,0,"snare_roll.wav",70
Sample,21987,0,"snare_roll.wav",70
Sample,21987,0,"hit_6.wav",70
Sample,22080,0,"snare_roll.wav",70
Sample,22173,0,"hit_7.wav",70
Sample,22173,0,"snare_roll.wav",70
Sample,22267,0,"snare_roll.wav",70
Sample,22360,0,"snare_roll.wav",70
Sample,22360,0,"hit_1.wav",70
Sample,22360,0,"amen_2.wav",70
Sample,22360,0,"bgm1_4.wav",70
Sample,22453,0,"hit_2.wav",70
Sample,22453,0,"snare_roll.wav",70
Sample,22546,0,"snare_roll.wav",70
Sample,22639,0,"snare_roll.wav",70
Sample,22639,0,"hit_1.wav",70
Sample,22732,0,"hit_2.wav",70
Sample,22732,0,"snare_roll.wav",70
Sample,22826,0,"snare_roll.wav",70
Sample,22919,0,"snare_roll.wav",70
Sample,22919,0,"hit_1.wav",70
Sample,23012,0,"hit_2.wav",70
Sample,23012,0,"snare_roll.wav",70
Sample,23105,0,"snare_roll.wav",70
Sample,23198,0,"snare_roll.wav",70
Sample,23198,0,"hit_1.wav",70
Sample,23291,0,"hit_3.wav",70
Sample,23291,0,"snare_roll.wav",70
Sample,23385,0,"snare_roll.wav",70
Sample,23385,0,"hit_1.wav",70
Sample,23478,0,"hit_2.wav",70
Sample,23478,0,"snare_roll.wav",70
Sample,23571,0,"snare_roll.wav",70
Sample,23664,0,"snare_roll.wav",70
Sample,23664,0,"hit_4.wav",70
Sample,23757,0,"snare_roll.wav",70
Sample,23850,0,"cym.wav",70
Sample,23850,0,"sn_roll_2.wav",70
Sample,23850,0,"amen_2.wav",70
Sample,24968,0,"claprev.wav",70
Sample,25341,0,"kick.wav",70
Sample,25341,0,"cym.wav",70
Sample,25341,0,"hh_1.wav",70
Sample,25341,0,"bgm2_1.wav",70
Sample,25341,0,"hit_10.wav",70
Sample,25341,0,"amen_2.wav",70
Sample,25341,0,"deep.wav",70
Sample,25341,0,"se2.wav",70
Sample,25434,0,"hh_2.wav",70
Sample,25527,0,"hh_3.wav",70
Sample,25714,0,"kick.wav",70
Sample,25714,0,"hh_1.wav",70
Sample,25807,0,"hh_2.wav",70
Sample,25900,0,"hh_3.wav",70
Sample,25993,0,"hh_2.wav",70
Sample,26086,0,"hh_1.wav",70
Sample,26086,0,"kick.wav",70
Sample,26180,0,"hh_2.wav",70
Sample,26273,0,"hh_3.wav",70
Sample,26319,0,"syn_5.wav",70
Sample,26366,0,"syn_5.wav",70
Sample,26413,0,"syn_5.wav",70
Sample,26459,0,"kick.wav",70
Sample,26459,0,"hh_1.wav",70
Sample,26552,0,"hh_1.wav",70
Sample,26645,0,"hh_3.wav",70
Sample,26739,0,"hh_2.wav",70
Sample,26739,0,"syn_7.wav",70
Sample,26832,0,"hh_1.wav",70
Sample,26832,0,"kick.wav",70
Sample,26832,0,"amen_2.wav",70
Sample,26925,0,"hh_2.wav",70
Sample,27018,0,"hh_3.wav",70
Sample,27204,0,"hh_1.wav",70
Sample,27204,0,"kick.wav",70
Sample,27298,0,"hh_2.wav",70
Sample,27391,0,"hh_3.wav",70
Sample,27577,0,"kick.wav",70
Sample,27577,0,"hh_1.wav",70
Sample,27670,0,"syn_7.wav",70
Sample,27670,0,"hh_1.wav",70
Sample,27763,0,"hh_3.wav",70
Sample,27857,0,"syn_7.wav",70
Sample,27857,0,"hh_2.wav",70
Sample,27950,0,"kick.wav",70
Sample,27950,0,"hh_1.wav",70
Sample,28043,0,"hh_2.wav",70
Sample,28136,0,"hh_3.wav",70
Sample,28229,0,"syn_12.wav",70
Sample,28229,0,"hh_2.wav",70
Sample,28322,0,"amen_2.wav",70
Sample,28322,0,"kick.wav",70
Sample,28322,0,"hh_1.wav",70
Sample,28416,0,"hh_2.wav",70
Sample,28509,0,"hh_3.wav",70
Sample,28695,0,"kick.wav",70
Sample,28695,0,"hh_1.wav",70
Sample,28695,0,"hh_1.wav",70
Sample,28788,0,"hh_2.wav",70
Sample,28881,0,"hh_3.wav",70
Sample,28975,0,"hh_2.wav",70
Sample,29068,0,"kick.wav",70
Sample,29068,0,"hh_1.wav",70
Sample,29068,0,"hh_1.wav",70
Sample,29161,0,"hh_2.wav",70
Sample,29254,0,"hh_3.wav",70
Sample,29301,0,"syn_5.wav",70
Sample,29347,0,"syn_5.wav",70
Sample,29394,0,"syn_5.wav",70
Sample,29440,0,"hh_1.wav",70
Sample,29440,0,"kick.wav",70
Sample,29534,0,"hh_1.wav",70
Sample,29627,0,"hh_3.wav",70
Sample,29720,0,"syn_7.wav",70
Sample,29720,0,"hh_2.wav",70
Sample,29813,0,"kick.wav",70
Sample,29813,0,"amen_2.wav",70
Sample,29813,0,"hh_1.wav",70
Sample,29813,0,"hh_1.wav",70
Sample,29906,0,"hh_2.wav",70
Sample,30000,0,"hh_3.wav",70
Sample,30186,0,"hh_1.wav",70
Sample,30186,0,"hh_1.wav",70
Sample,30186,0,"kick.wav",70
Sample,30279,0,"hh_2.wav",70
Sample,30372,0,"hh_3.wav",70
Sample,30559,0,"hh_1.wav",70
Sample,30559,0,"kick.wav",70
Sample,30559,0,"hh_1.wav",70
Sample,30652,0,"hh_1.wav",70
Sample,30652,0,"syn_7.wav",70
Sample,30652,0,"hh_1.wav",70
Sample,30745,0,"hh_3.wav",70
Sample,30838,0,"syn_7.wav",70
Sample,30838,0,"hh_2.wav",70
Sample,30931,0,"kick.wav",70
Sample,30931,0,"hh_1.wav",70
Sample,30931,0,"hh_1.wav",70
Sample,31024,0,"hh_2.wav",70
Sample,31118,0,"hh_3.wav",70
Sample,31118,0,"kick.wav",70
Sample,31211,0,"syn_12.wav",70
Sample,31211,0,"hh_2.wav",70
Sample,31304,0,"cym.wav",70
Sample,31304,0,"bgm2_2.wav",70
Sample,31304,0,"hh_1.wav",70
Sample,31304,0,"kick.wav",70
Sample,31304,0,"amen_2.wav",70
Sample,31397,0,"hh_2.wav",70
Sample,31490,0,"hh_3.wav",70
Sample,31677,0,"hh_1.wav",70
Sample,31677,0,"kick.wav",70
Sample,31770,0,"hh_2.wav",70
Sample,31863,0,"hh_3.wav",70
Sample,31956,0,"hh_2.wav",70
Sample,32049,0,"hh_1.wav",70
Sample,32049,0,"kick.wav",70
Sample,32142,0,"hh_2.wav",70
Sample,32236,0,"hh_3.wav",70
Sample,32282,0,"syn_5.wav",70
Sample,32329,0,"syn_5.wav",70
Sample,32375,0,"syn_5.wav",70
Sample,32422,0,"kick.wav",70
Sample,32422,0,"hh_1.wav",70
Sample,32515,0,"hh_1.wav",70
Sample,32608,0,"hh_3.wav",70
Sample,32701,0,"hh_2.wav",70
Sample,32701,0,"syn_7.wav",70
Sample,32795,0,"hh_1.wav",70
Sample,32795,0,"kick.wav",70
Sample,32795,0,"amen_2.wav",70
Sample,32888,0,"hh_2.wav",70
Sample,32981,0,"hh_3.wav",70
Sample,33167,0,"kick.wav",70
Sample,33167,0,"hh_1.wav",70
Sample,33260,0,"hh_2.wav",70
Sample,33354,0,"hh_3.wav",70
Sample,33540,0,"hh_1.wav",70
Sample,33540,0,"kick.wav",70
Sample,33633,0,"syn_7.wav",70
Sample,33633,0,"hh_1.wav",70
Sample,33726,0,"hh_3.wav",70
Sample,33819,0,"hh_2.wav",70
Sample,33819,0,"syn_7.wav",70
Sample,33913,0,"hh_1.wav",70
Sample,33913,0,"kick.wav",70
Sample,34006,0,"hh_2.wav",70
Sample,34099,0,"hh_3.wav",70
Sample,34192,0,"hh_2.wav",70
Sample,34192,0,"syn_12.wav",70
Sample,34285,0,"amen_2.wav",70
Sample,34285,0,"hh_1.wav",70
Sample,34285,0,"kick.wav",70
Sample,34378,0,"hh_2.wav",70
Sample,34472,0,"hh_3.wav",70
Sample,34658,0,"hh_1.wav",70
Sample,34658,0,"kick.wav",70
Sample,34751,0,"hh_2.wav",70
Sample,34844,0,"hh_3.wav",70
Sample,34937,0,"hh_2.wav",70
Sample,35031,0,"hh_1.wav",70
Sample,35031,0,"kick.wav",70
Sample,35124,0,"hh_2.wav",70
Sample,35217,0,"hh_3.wav",70
Sample,35263,0,"syn_5.wav",70
Sample,35310,0,"syn_5.wav",70
Sample,35357,0,"syn_5.wav",70
Sample,35403,0,"hh_1.wav",70
Sample,35403,0,"kick.wav",70
Sample,35496,0,"hh_1.wav",70
Sample,35590,0,"hh_3.wav",70
Sample,35683,0,"syn_7.wav",70
Sample,35683,0,"hh_2.wav",70
Sample,35776,0,"amen_2.wav",70
Sample,35776,0,"hh_1.wav",70
Sample,35776,0,"kick.wav",70
Sample,35869,0,"hh_2.wav",70
Sample,35962,0,"hh_3.wav",70
Sample,36149,0,"hh_1.wav",70
Sample,36149,0,"kick.wav",70
Sample,36242,0,"hh_2.wav",70
Sample,36335,0,"hh_3.wav",70
Sample,36521,0,"cym.wav",70
Sample,36521,0,"snare_roll.wav",70
Sample,36521,0,"hh_1.wav",70
Sample,36583,0,"snare_roll.wav",70
Sample,36614,0,"hh_1.wav",70
Sample,36614,0,"syn_19.wav",70
Sample,36645,0,"snare_roll.wav",70
Sample,36708,0,"snare_roll.wav",70
Sample,36708,0,"hh_3.wav",70
Sample,36801,0,"snare_roll.wav",70
Sample,36801,0,"hh_2.wav",70
Sample,36801,0,"syn_19.wav",70
Sample,36894,0,"snare_roll.wav",70
Sample,36894,0,"hh_1.wav",70
Sample,36987,0,"snare_roll.wav",70
Sample,36987,0,"hh_2.wav",70
Sample,37080,0,"hh_3.wav",70
Sample,37080,0,"snare_roll.wav",70
Sample,37173,0,"hh_2.wav",70
Sample,37173,0,"syn_24.wav",70
Sample,37173,0,"snare_roll.wav",70
Sample,37267,0,"cym.wav",70
Sample,37267,0,"amen_2.wav",70
Sample,37267,0,"hh_1.wav",70
Sample,37267,0,"bgm2_1.wav",70
Sample,37360,0,"hh_2.wav",70
Sample,37453,0,"hh_3.wav",70
Sample,37639,0,"sn_clap_1.wav",70
Sample,37639,0,"hh_1.wav",70
Sample,37732,0,"hh_2.wav",70
Sample,37826,0,"hh_3.wav",70
Sample,37919,0,"sn_clap_2.wav",70
Sample,37919,0,"hh_2.wav",70
Sample,38012,0,"hh_1.wav",70
Sample,38105,0,"hh_2.wav",70
Sample,38198,0,"hh_3.wav",70
Sample,38245,0,"syn_17.wav",70
Sample,38291,0,"syn_17.wav",70
Sample,38338,0,"syn_17.wav",70
Sample,38385,0,"hh_1.wav",70
Sample,38385,0,"sn_clap_1.wav",70
Sample,38478,0,"hh_1.wav",70
Sample,38571,0,"hh_3.wav",70
Sample,38664,0,"hh_2.wav",70
Sample,38664,0,"syn_19.wav",70
Sample,38757,0,"amen_2.wav",70
Sample,38757,0,"hh_1.wav",70
Sample,38850,0,"hh_2.wav",70
Sample,38944,0,"hh_3.wav",70
Sample,39130,0,"sn_clap_1.wav",70
Sample,39130,0,"hh_1.wav",70
Sample,39223,0,"hh_2.wav",70
Sample,39316,0,"hh_3.wav",70
Sample,39409,0,"sn_clap_2.wav",70
Sample,39503,0,"hh_1.wav",70
Sample,39596,0,"hh_1.wav",70
Sample,39596,0,"syn_19.wav",70
Sample,39596,0,"sn_clap_2.wav",70
Sample,39689,0,"hh_3.wav",70
Sample,39782,0,"syn_19.wav",70
Sample,39782,0,"hh_2.wav",70
Sample,39875,0,"hh_1.wav",70
Sample,39875,0,"sn_clap_1.wav",70
Sample,39968,0,"hh_2.wav",70
Sample,40062,0,"hh_3.wav",70
Sample,40155,0,"syn_24.wav",70
Sample,40155,0,"hh_2.wav",70
Sample,40248,0,"amen_2.wav",70
Sample,40248,0,"hh_1.wav",70
Sample,40341,0,"hh_2.wav",70
Sample,40434,0,"hh_3.wav",70
Sample,40621,0,"sn_clap_1.wav",70
Sample,40621,0,"hh_1.wav",70
Sample,40714,0,"hh_2.wav",70
Sample,40807,0,"hh_3.wav",70
Sample,40900,0,"hh_2.wav",70
Sample,40993,0,"hh_1.wav",70
Sample,41086,0,"sn_clap_2.wav",70
Sample,41086,0,"hh_2.wav",70
Sample,41180,0,"hh_3.wav",70
Sample,41226,0,"syn_17.wav",70
Sample,41273,0,"syn_17.wav",70
Sample,41319,0,"syn_17.wav",70
Sample,41366,0,"sn_clap_1.wav",70
Sample,41366,0,"hh_1.wav",70
Sample,41459,0,"hh_1.wav",70
Sample,41552,0,"hh_3.wav",70
Sample,41645,0,"hh_2.wav",70
Sample,41645,0,"syn_19.wav",70
Sample,41739,0,"hh_1.wav",70
Sample,41739,0,"amen_2.wav",70
Sample,41832,0,"hh_2.wav",70
Sample,41925,0,"bgm1_1.wav",70
Sample,41925,0,"hh_3.wav",70
Sample,42111,0,"sn_clap_1.wav",70
Sample,42111,0,"hh_1.wav",70
Sample,42204,0,"hh_2.wav",70
Sample,42298,0,"hh_3.wav",70
Sample,42391,0,"sn_clap_2.wav",70
Sample,42484,0,"hh_1.wav",70
Sample,42577,0,"hh_1.wav",70
Sample,42577,0,"sn_clap_2.wav",70
Sample,42577,0,"syn_19.wav",70
Sample,42670,0,"hh_3.wav",70
Sample,42763,0,"syn_19.wav",70
Sample,42763,0,"hh_2.wav",70
Sample,42857,0,"hh_1.wav",70
Sample,42857,0,"sn_clap_1.wav",70
Sample,42950,0,"hh_2.wav",70
Sample,43043,0,"hh_3.wav",70
Sample,43136,0,"syn_24.wav",70
Sample,43136,0,"sn_clap_2.wav",70
Sample,43136,0,"hh_2.wav",70
Sample,43229,0,"bgm2_3.wav",70
Sample,43229,0,"amen_2.wav",70
Sample,43229,0,"cym.wav",70
Sample,43229,0,"hh_1.wav",70
Sample,43322,0,"hh_2.wav",70
Sample,43416,0,"hh_3.wav",70
Sample,43602,0,"sn_clap_1.wav",70
Sample,43602,0,"hh_1.wav",70
Sample,43695,0,"hh_2.wav",70
Sample,43788,0,"hh_3.wav",70
Sample,43881,0,"sn_clap_2.wav",70
Sample,43881,0,"hh_2.wav",70
Sample,43975,0,"hh_1.wav",70
Sample,44068,0,"hh_2.wav",70
Sample,44161,0,"hh_3.wav",70
Sample,44208,0,"syn_17.wav",70
Sample,44254,0,"syn_17.wav",70
Sample,44301,0,"syn_17.wav",70
Sample,44347,0,"sn_clap_1.wav",70
Sample,44347,0,"hh_1.wav",70
Sample,44440,0,"hh_1.wav",70
Sample,44534,0,"hh_3.wav",70
Sample,44627,0,"syn_19.wav",70
Sample,44627,0,"hh_2.wav",70
Sample,44720,0,"amen_2.wav",70
Sample,44720,0,"hh_1.wav",70
Sample,44813,0,"hh_2.wav",70
Sample,44906,0,"hh_3.wav",70
Sample,45093,0,"sn_clap_1.wav",70
Sample,45093,0,"hh_1.wav",70
Sample,45186,0,"hh_2.wav",70
Sample,45279,0,"hh_3.wav",70
Sample,45372,0,"sn_clap_2.wav",70
Sample,45465,0,"hh_1.wav",70
Sample,45559,0,"syn_19.wav",70
Sample,45559,0,"sn_clap_2.wav",70
Sample,45559,0,"hh_1.wav",70
Sample,45652,0,"hh_3.wav",70
Sample,45745,0,"hh_2.wav",70
Sample,45745,0,"syn_19.wav",70
Sample,45838,0,"sn_clap_1.wav",70
Sample,45838,0,"hh_1.wav",70
Sample,45931,0,"hh_2.wav",70
Sample,46024,0,"hh_3.wav",70
Sample,46118,0,"hh_2.wav",70
Sample,46118,0,"syn_24.wav",70
Sample,46211,0,"cym.wav",70
Sample,46211,0,"cym_revrs.wav",70
Sample,46211,0,"amen_2.wav",70
Sample,46211,0,"hh_1.wav",70
Sample,46304,0,"snare_roll.wav",70
Sample,46304,0,"hh_2.wav",70
Sample,46397,0,"hh_3.wav",70
Sample,46397,0,"snare_roll.wav",70
Sample,46490,0,"snare_roll.wav",70
Sample,46583,0,"snare_roll.wav",70
Sample,46583,0,"hh_1.wav",70
Sample,46677,0,"snare_roll.wav",70
Sample,46677,0,"hh_2.wav",70
Sample,46770,0,"hh_3.wav",70
Sample,46770,0,"snare_roll.wav",70
Sample,46863,0,"hh_2.wav",70
Sample,46863,0,"snare_roll.wav",70
Sample,46956,0,"snare_roll.wav",70
Sample,46956,0,"hh_1.wav",70
Sample,47049,0,"hh_2.wav",70
Sample,47049,0,"sn_clap_2.wav",70
Sample,47049,0,"snare_roll.wav",70
Sample,47142,0,"hh_3.wav",70
Sample,47142,0,"snare_roll.wav",70
Sample,47189,0,"syn_17.wav",70
Sample,47236,0,"snare_roll.wav",70
Sample,47236,0,"syn_17.wav",70
Sample,47282,0,"syn_17.wav",70
Sample,47329,0,"sn_clap_1.wav",70
Sample,47329,0,"hh_1.wav",70
Sample,47329,0,"snare_roll.wav",70
Sample,47422,0,"snare_roll.wav",70
Sample,47422,0,"hh_1.wav",70
Sample,47515,0,"snare_roll.wav",70
Sample,47515,0,"hh_3.wav",70
Sample,47608,0,"hh_2.wav",70
Sample,47608,0,"syn_19.wav",70
Sample,47608,0,"snare_roll.wav",70
Sample,47701,0,"hh_1.wav",70
Sample,47701,0,"amen_2.wav",70
Sample,47701,0,"kick.wav",70
Sample,47701,0,"syn_24.wav",70
Sample,47701,0,"cym.wav",70
Sample,47795,0,"kick.wav",70
Sample,47795,0,"hh_2.wav",70
Sample,47795,0,"syn_13.wav",70
Sample,47888,0,"hh_1.wav",70
Sample,47888,0,"hh_3.wav",70
Sample,47981,0,"cym.wav",70
Sample,47981,0,"syn_24.wav",70
Sample,47981,0,"kick.wav",70
Sample,48074,0,"syn_13.wav",70
Sample,48074,0,"hh_1.wav",70
Sample,48074,0,"kick.wav",70
Sample,48167,0,"hh_2.wav",70
Sample,48167,0,"hh_3.wav",70
Sample,48260,0,"kick.wav",70
Sample,48260,0,"hh_1.wav",70
Sample,48260,0,"syn_24.wav",70
Sample,48260,0,"cym.wav",70
Sample,48354,0,"kick.wav",70
Sample,48354,0,"syn_13.wav",70
Sample,48447,0,"se_gtr_1.wav",70
Sample,48819,0,"cym.wav",70
Sample,48819,0,"hh_1.wav",70
Sample,48913,0,"hh_2.wav",70
Sample,49006,0,"hh_3.wav",70
Sample,49099,0,"hh_2.wav",70
Sample,49184,0,"gtr_melo.wav",70
Sample,49192,0,"bgm3.wav",70
Sample,49192,0,"hh_1.wav",70
Sample,49192,0,"back_gtr_1.wav",70
Sample,49192,0,"se1.wav",70
Sample,49285,0,"hh_2.wav",70
Sample,49378,0,"back_gtr_1.wav",70
Sample,49378,0,"hh_3.wav",70
Sample,49565,0,"back_gtr_2.wav",70
Sample,49565,0,"hh_1.wav",70
Sample,49658,0,"hh_2.wav",70
Sample,49751,0,"hh_3.wav",70
Sample,49751,0,"back_gtr_1.wav",70
Sample,49844,0,"hh_2.wav",70
Sample,49937,0,"back_gtr_1.wav",70
Sample,49937,0,"hh_1.wav",70
Sample,50031,0,"hh_2.wav",70
Sample,50124,0,"hh_3.wav",70
Sample,50124,0,"back_gtr_2.wav",70
Sample,50310,0,"hh_1.wav",70
Sample,50310,0,"back_gtr_1.wav",70
Sample,50403,0,"hh_1.wav",70
Sample,50496,0,"back_gtr_1.wav",70
Sample,50496,0,"hh_3.wav",70
Sample,50590,0,"hh_2.wav",70
Sample,50683,0,"back_gtr_6.wav",70
Sample,50683,0,"hh_1.wav",70
Sample,50776,0,"hh_2.wav",70
Sample,50869,0,"hh_3.wav",70
Sample,50869,0,"back_gtr_6.wav",70
Sample,51055,0,"back_gtr_7.wav",70
Sample,51055,0,"hh_1.wav",70
Sample,51149,0,"hh_2.wav",70
Sample,51242,0,"hh_3.wav",70
Sample,51242,0,"back_gtr_6.wav",70
Sample,51428,0,"back_gtr_6.wav",70
Sample,51428,0,"hh_1.wav",70
Sample,51521,0,"hh_1.wav",70
Sample,51614,0,"hh_3.wav",70
Sample,51614,0,"back_gtr_7.wav",70
Sample,51708,0,"hh_2.wav",70
Sample,51801,0,"back_gtr_6.wav",70
Sample,51801,0,"hh_1.wav",70
Sample,51894,0,"hh_2.wav",70
Sample,51987,0,"hh_3.wav",70
Sample,51987,0,"back_gtr_6.wav",70
Sample,52080,0,"hh_2.wav",70
Sample,52173,0,"back_gtr_8.wav",70
Sample,52173,0,"hh_1.wav",70
Sample,52267,0,"hh_2.wav",70
Sample,52360,0,"hh_3.wav",70
Sample,52360,0,"back_gtr_8.wav",70
Sample,52546,0,"back_gtr_9.wav",70
Sample,52546,0,"hh_1.wav",70
Sample,52639,0,"hh_2.wav",70
Sample,52732,0,"hh_3.wav",70
Sample,52732,0,"back_gtr_8.wav",70
Sample,52826,0,"hh_2.wav",70
Sample,52919,0,"back_gtr_6.wav",70
Sample,52919,0,"hh_1.wav",70
Sample,53012,0,"hh_2.wav",70
Sample,53105,0,"hh_3.wav",70
Sample,53105,0,"back_gtr_6.wav",70
Sample,53291,0,"back_gtr_7.wav",70
Sample,53291,0,"hh_1.wav",70
Sample,53385,0,"hh_1.wav",70
Sample,53478,0,"hh_3.wav",70
Sample,53478,0,"back_gtr_6.wav",70
Sample,53571,0,"hh_2.wav",70
Sample,53664,0,"back_gtr_1.wav",70
Sample,53664,0,"hh_1.wav",70
Sample,53757,0,"hh_2.wav",70
Sample,53850,0,"hh_3.wav",70
Sample,53850,0,"back_gtr_1.wav",70
Sample,54037,0,"back_gtr_2.wav",70
Sample,54037,0,"hh_1.wav",70
Sample,54130,0,"hh_2.wav",70
Sample,54223,0,"hh_3.wav",70
Sample,54223,0,"back_gtr_1.wav",70
Sample,54409,0,"back_gtr_6.wav",70
Sample,54409,0,"hh_1.wav",70
Sample,54503,0,"hh_1.wav",70
Sample,54596,0,"hh_3.wav",70
Sample,54596,0,"back_gtr_7.wav",70
Sample,54689,0,"hh_2.wav",70
Sample,54782,0,"back_gtr_6.wav",70
Sample,54782,0,"hh_1.wav",70
Sample,54875,0,"hh_2.wav",70
Sample,54968,0,"hh_3.wav",70
Sample,54968,0,"back_gtr_6.wav",70
Sample,55062,0,"hh_2.wav",70
Sample,55155,0,"back_gtr_8.wav",70
Sample,55155,0,"hh_1.wav",70
Sample,55248,0,"hh_2.wav",70
Sample,55341,0,"hh_3.wav",70
Sample,55341,0,"back_gtr_8.wav",70
Sample,55527,0,"back_gtr_9.wav",70
Sample,55527,0,"hh_1.wav",70
Sample,55621,0,"hh_2.wav",70
Sample,55714,0,"hh_3.wav",70
Sample,55714,0,"back_gtr_8.wav",70
Sample,55807,0,"hh_2.wav",70
Sample,55900,0,"back_gtr_8.wav",70
Sample,55900,0,"hh_1.wav",70
Sample,55993,0,"hh_2.wav",70
Sample,56086,0,"hh_3.wav",70
Sample,56086,0,"back_gtr_8.wav",70
Sample,56273,0,"back_gtr_9.wav",70
Sample,56273,0,"hh_1.wav",70
Sample,56366,0,"hh_1.wav",70
Sample,56459,0,"hh_3.wav",70
Sample,56459,0,"back_gtr_8.wav",70
Sample,56552,0,"hh_2.wav",70
Sample,56645,0,"back_gtr_6.wav",70
Sample,56645,0,"hh_1.wav",70
Sample,56739,0,"hh_2.wav",70
Sample,56832,0,"hh_3.wav",70
Sample,56832,0,"back_gtr_6.wav",70
Sample,57018,0,"back_gtr_7.wav",70
Sample,57018,0,"hh_1.wav",70
Sample,57111,0,"hh_2.wav",70
Sample,57204,0,"hh_3.wav",70
Sample,57204,0,"back_gtr_6.wav",70
Sample,57391,0,"back_gtr_6.wav",70
Sample,57391,0,"hh_1.wav",70
Sample,57484,0,"hh_1.wav",70
Sample,57577,0,"hh_3.wav",70
Sample,57577,0,"back_gtr_7.wav",70
Sample,57670,0,"hh_2.wav",70
Sample,57763,0,"back_gtr_6.wav",70
Sample,57763,0,"hh_1.wav",70
Sample,57857,0,"hh_2.wav",70
Sample,57950,0,"hh_3.wav",70
Sample,57950,0,"back_gtr_6.wav",70
Sample,58043,0,"hh_2.wav",70
Sample,58136,0,"back_gtr_8.wav",70
Sample,58136,0,"hh_1.wav",70
Sample,58136,0,"kick.wav",70
Sample,58229,0,"hh_2.wav",70
Sample,58322,0,"hh_3.wav",70
Sample,58322,0,"back_gtr_8.wav",70
Sample,58509,0,"back_gtr_9.wav",70
Sample,58509,0,"kick.wav",70
Sample,58509,0,"hh_1.wav",70
Sample,58602,0,"hh_2.wav",70
Sample,58695,0,"hh_3.wav",70
Sample,58695,0,"back_gtr_8.wav",70
Sample,58788,0,"hh_2.wav",70
Sample,58881,0,"back_gtr_6.wav",70
Sample,58881,0,"kick.wav",70
Sample,58881,0,"hh_1.wav",70
Sample,58975,0,"hh_2.wav",70
Sample,59068,0,"hh_3.wav",70
Sample,59068,0,"kick.wav",70
Sample,59068,0,"back_gtr_7.wav",70
Sample,59254,0,"back_gtr_6.wav",70
Sample,59254,0,"hh_1.wav",70
Sample,59254,0,"kick.wav",70
Sample,59347,0,"hh_1.wav",70
Sample,59440,0,"kick.wav",70
Sample,59440,0,"hh_3.wav",70
Sample,59440,0,"back_gtr_6.wav",70
Sample,59534,0,"hh_2.wav",70
Sample,59627,0,"hh_1.wav",70
Sample,59627,0,"back_gtr_1.wav",70
Sample,59627,0,"amen_2.wav",70
Sample,59627,0,"cym.wav",70
Sample,59627,0,"bgm3.wav",70
Sample,59720,0,"hh_2.wav",70
Sample,59813,0,"hh_3.wav",70
Sample,59813,0,"back_gtr_1.wav",70
Sample,60000,0,"back_gtr_2.wav",70
Sample,60000,0,"sn_clap_1.wav",70
Sample,60000,0,"hh_1.wav",70
Sample,60093,0,"hh_2.wav",70
Sample,60186,0,"back_gtr_1.wav",70
Sample,60186,0,"hh_3.wav",70
Sample,60279,0,"hh_2.wav",70
Sample,60372,0,"back_gtr_1.wav",70
Sample,60372,0,"hh_1.wav",70
Sample,60465,0,"sn_clap_2.wav",70
Sample,60465,0,"hh_2.wav",70
Sample,60559,0,"hh_3.wav",70
Sample,60559,0,"back_gtr_2.wav",70
Sample,60745,0,"back_gtr_1.wav",70
Sample,60745,0,"sn_clap_1.wav",70
Sample,60745,0,"hh_1.wav",70
Sample,60838,0,"hh_1.wav",70
Sample,60931,0,"back_gtr_1.wav",70
Sample,60931,0,"hh_3.wav",70
Sample,61024,0,"hh_2.wav",70
Sample,61118,0,"back_gtr_6.wav",70
Sample,61118,0,"amen_2.wav",70
Sample,61118,0,"hh_1.wav",70
Sample,61211,0,"hh_2.wav",70
Sample,61304,0,"hh_3.wav",70
Sample,61304,0,"back_gtr_6.wav",70
Sample,61490,0,"back_gtr_7.wav",70
Sample,61490,0,"sn_clap_1.wav",70
Sample,61490,0,"hh_1.wav",70
Sample,61583,0,"hh_2.wav",70
Sample,61677,0,"back_gtr_6.wav",70
Sample,61677,0,"hh_3.wav",70
Sample,61770,0,"sn_clap_2.wav",70
Sample,61863,0,"hh_1.wav",70
Sample,61863,0,"back_gtr_6.wav",70
Sample,61956,0,"sn_clap_2.wav",70
Sample,61956,0,"hh_1.wav",70
Sample,62049,0,"hh_3.wav",70
Sample,62049,0,"back_gtr_7.wav",70
Sample,62142,0,"hh_2.wav",70
Sample,62236,0,"back_gtr_6.wav",70
Sample,62236,0,"hh_1.wav",70
Sample,62236,0,"sn_clap_1.wav",70
Sample,62329,0,"hh_2.wav",70
Sample,62422,0,"back_gtr_6.wav",70
Sample,62422,0,"hh_3.wav",70
Sample,62515,0,"hh_2.wav",70
Sample,62515,0,"sn_clap_2.wav",70
Sample,62608,0,"back_gtr_8.wav",70
Sample,62608,0,"amen_2.wav",70
Sample,62608,0,"hh_1.wav",70
Sample,62701,0,"hh_2.wav",70
Sample,62795,0,"hh_3.wav",70
Sample,62795,0,"back_gtr_8.wav",70
Sample,62981,0,"sn_clap_1.wav",70
Sample,62981,0,"hh_1.wav",70
Sample,62981,0,"back_gtr_9.wav",70
Sample,63074,0,"hh_2.wav",70
Sample,63167,0,"hh_3.wav",70
Sample,63167,0,"back_gtr_8.wav",70
Sample,63260,0,"hh_2.wav",70
Sample,63354,0,"back_gtr_6.wav",70
Sample,63354,0,"hh_1.wav",70
Sample,63447,0,"hh_2.wav",70
Sample,63447,0,"sn_clap_2.wav",70
Sample,63540,0,"hh_3.wav",70
Sample,63540,0,"back_gtr_6.wav",70
Sample,63726,0,"hh_1.wav",70
Sample,63726,0,"sn_clap_1.wav",70
Sample,63726,0,"back_gtr_7.wav",70
Sample,63819,0,"hh_1.wav",70
Sample,63913,0,"back_gtr_6.wav",70
Sample,63913,0,"hh_3.wav",70
Sample,64006,0,"hh_2.wav",70
Sample,64099,0,"amen_2.wav",70
Sample,64099,0,"hh_1.wav",70
Sample,64099,0,"back_gtr_1.wav",70
Sample,64192,0,"hh_2.wav",70
Sample,64285,0,"back_gtr_1.wav",70
Sample,64285,0,"hh_3.wav",70
Sample,64472,0,"hh_1.wav",70
Sample,64472,0,"sn_clap_1.wav",70
Sample,64472,0,"back_gtr_2.wav",70
Sample,64565,0,"hh_2.wav",70
Sample,64658,0,"hh_3.wav",70
Sample,64658,0,"back_gtr_1.wav",70
Sample,64751,0,"sn_clap_2.wav",70
Sample,64844,0,"back_gtr_6.wav",70
Sample,64844,0,"hh_1.wav",70
Sample,64937,0,"sn_clap_2.wav",70
Sample,64937,0,"hh_1.wav",70
Sample,65031,0,"back_gtr_7.wav",70
Sample,65031,0,"hh_3.wav",70
Sample,65124,0,"hh_2.wav",70
Sample,65217,0,"sn_clap_1.wav",70
Sample,65217,0,"hh_1.wav",70
Sample,65217,0,"back_gtr_6.wav",70
Sample,65310,0,"hh_2.wav",70
Sample,65403,0,"hh_3.wav",70
Sample,65403,0,"back_gtr_6.wav",70
Sample,65496,0,"hh_2.wav",70
Sample,65496,0,"sn_clap_2.wav",70
Sample,65590,0,"back_gtr_8.wav",70
Sample,65590,0,"hh_1.wav",70
Sample,65590,0,"amen_2.wav",70
Sample,65683,0,"hh_2.wav",70
Sample,65776,0,"hh_3.wav",70
Sample,65776,0,"back_gtr_8.wav",70
Sample,65962,0,"back_gtr_9.wav",70
Sample,65962,0,"sn_clap_1.wav",70
Sample,65962,0,"hh_1.wav",70
Sample,66055,0,"hh_2.wav",70
Sample,66149,0,"hh_3.wav",70
Sample,66149,0,"back_gtr_8.wav",70
Sample,66242,0,"hh_2.wav",70
Sample,66335,0,"back_gtr_8.wav",70
Sample,66335,0,"hh_1.wav",70
Sample,66428,0,"sn_clap_2.wav",70
Sample,66428,0,"hh_2.wav",70
Sample,66521,0,"hh_3.wav",70
Sample,66521,0,"back_gtr_8.wav",70
Sample,66708,0,"back_gtr_9.wav",70
Sample,66708,0,"sn_clap_1.wav",70
Sample,66708,0,"hh_1.wav",70
Sample,66801,0,"hh_1.wav",70
Sample,66894,0,"hh_3.wav",70
Sample,66894,0,"back_gtr_8.wav",70
Sample,66987,0,"hh_2.wav",70
Sample,67080,0,"back_gtr_6.wav",70
Sample,67080,0,"hh_1.wav",70
Sample,67080,0,"amen_2.wav",70
Sample,67173,0,"hh_2.wav",70
Sample,67267,0,"hh_3.wav",70
Sample,67267,0,"back_gtr_6.wav",70
Sample,67453,0,"back_gtr_7.wav",70
Sample,67453,0,"hh_1.wav",70
Sample,67453,0,"sn_clap_1.wav",70
Sample,67546,0,"hh_2.wav",70
Sample,67639,0,"hh_3.wav",70
Sample,67639,0,"back_gtr_6.wav",70
Sample,67732,0,"sn_clap_2.wav",70
Sample,67826,0,"back_gtr_6.wav",70
Sample,67826,0,"hh_1.wav",70
Sample,67919,0,"hh_1.wav",70
Sample,67919,0,"sn_clap_2.wav",70
Sample,68012,0,"hh_3.wav",70
Sample,68012,0,"back_gtr_7.wav",70
Sample,68105,0,"hh_2.wav",70
Sample,68198,0,"back_gtr_6.wav",70
Sample,68198,0,"sn_clap_1.wav",70
Sample,68198,0,"hh_1.wav",70
Sample,68291,0,"hh_2.wav",70
Sample,68385,0,"hh_3.wav",70
Sample,68385,0,"back_gtr_6.wav",70
Sample,68478,0,"sn_clap_2.wav",70
Sample,68478,0,"hh_2.wav",70
Sample,68571,0,"amen_2.wav",70
Sample,68571,0,"hh_1.wav",70
Sample,68571,0,"kick.wav",70
Sample,68571,0,"snare_roll.wav",70
Sample,68571,0,"lead_11.wav",70
Sample,68571,0,"back_gtr_8.wav",70
Sample,68664,0,"hh_2.wav",70
Sample,68664,0,"snare_roll.wav",70
Sample,68757,0,"snare_roll.wav",70
Sample,68757,0,"back_gtr_8.wav",70
Sample,68757,0,"kick.wav",70
Sample,68757,0,"hh_3.wav",70
Sample,68850,0,"lead_6.wav",70
Sample,68850,0,"snare_roll.wav",70
Sample,68944,0,"kick.wav",70
Sample,68944,0,"snare_roll.wav",70
Sample,68944,0,"hh_1.wav",70
Sample,68944,0,"back_gtr_9.wav",70
Sample,69037,0,"hh_2.wav",70
Sample,69037,0,"snare_roll.wav",70
Sample,69130,0,"kick.wav",70
Sample,69130,0,"back_gtr_8.wav",70
Sample,69130,0,"lead_7.wav",70
Sample,69130,0,"hh_3.wav",70
Sample,69130,0,"snare_roll.wav",70
Sample,69223,0,"hh_2.wav",70
Sample,69223,0,"snare_roll.wav",70
Sample,69316,0,"kick.wav",70
Sample,69316,0,"lead_8.wav",70
Sample,69316,0,"snare_roll.wav",70
Sample,69316,0,"hh_1.wav",70
Sample,69316,0,"back_gtr_6.wav",70
Sample,69409,0,"snare_roll.wav",70
Sample,69409,0,"kick.wav",70
Sample,69409,0,"hh_2.wav",70
Sample,69503,0,"kick.wav",70
Sample,69503,0,"back_gtr_7.wav",70
Sample,69503,0,"snare_roll.wav",70
Sample,69503,0,"hh_3.wav",70
Sample,69596,0,"snare_roll.wav",70
Sample,69596,0,"kick.wav",70
Sample,69596,0,"lead_9.wav",70
Sample,69689,0,"snare_roll.wav",70
Sample,69689,0,"kick.wav",70
Sample,69689,0,"hh_1.wav",70
Sample,69689,0,"back_gtr_6.wav",70
Sample,69782,0,"snare_roll.wav",70
Sample,69782,0,"hh_1.wav",70
Sample,69782,0,"kick.wav",70
Sample,69875,0,"hh_3.wav",70
Sample,69875,0,"back_gtr_6.wav",70
Sample,69875,0,"kick.wav",70
Sample,69875,0,"lead_22.wav",70
Sample,69875,0,"snare_roll.wav",70
Sample,69968,0,"snare_roll.wav",70
Sample,69968,0,"kick.wav",70
Sample,69968,0,"hh_2.wav",70
Sample,70062,0,"syn_b_1.wav",70
Sample,70062,0,"deep.wav",70
Sample,70062,0,"cym.wav",70
Sample,70062,0,"hh_1.wav",70
Sample,70062,0,"se2.wav",70
Sample,70155,0,"syn_b_2.wav",70
Sample,70155,0,"hh_2.wav",70
Sample,70248,0,"hh_3.wav",70
Sample,70248,0,"syn_b_3.wav",70
Sample,70341,0,"syn_b_4.wav",70
Sample,70434,0,"hh_1.wav",70
Sample,70434,0,"sn_clap_1.wav",70
Sample,70434,0,"syn_b_3.wav",70
Sample,70434,0,"kick.wav",70
Sample,70527,0,"hh_2.wav",70
Sample,70527,0,"syn_b_2.wav",70
Sample,70621,0,"hh_3.wav",70
Sample,70621,0,"syn_b_1.wav",70
Sample,70714,0,"syn_b_2.wav",70
Sample,70714,0,"hh_2.wav",70
Sample,70807,0,"syn_b_3.wav",70
Sample,70807,0,"kick.wav",70
Sample,70807,0,"hh_1.wav",70
Sample,70900,0,"hh_2.wav",70
Sample,70900,0,"syn_b_4.wav",70
Sample,70900,0,"sn_clap_2.wav",70
Sample,70993,0,"hh_3.wav",70
Sample,70993,0,"syn_b_3.wav",70
Sample,71086,0,"syn_b_2.wav",70
Sample,71180,0,"hh_1.wav",70
Sample,71273,0,"hh_1.wav",70
Sample,71366,0,"hh_3.wav",70
Sample,71459,0,"hh_2.wav",70
Sample,71552,0,"kick.wav",70
Sample,71552,0,"syn_b_1.wav",70
Sample,71552,0,"hh_1.wav",70
Sample,71645,0,"hh_2.wav",70
Sample,71645,0,"syn_b_2.wav",70
Sample,71739,0,"syn_b_3.wav",70
Sample,71739,0,"hh_3.wav",70
Sample,71832,0,"syn_b_4.wav",70
Sample,71925,0,"syn_b_3.wav",70
Sample,71925,0,"kick.wav",70
Sample,71925,0,"hh_1.wav",70
Sample,71925,0,"sn_clap_1.wav",70
Sample,72018,0,"hh_2.wav",70
Sample,72018,0,"syn_b_2.wav",70
Sample,72111,0,"syn_b_1.wav",70
Sample,72111,0,"hh_3.wav",70
Sample,72204,0,"sn_clap_2.wav",70
Sample,72204,0,"syn_b_2.wav",70
Sample,72298,0,"hh_1.wav",70
Sample,72298,0,"kick.wav",70
Sample,72298,0,"syn_b_3.wav",70
Sample,72391,0,"syn_b_4.wav",70
Sample,72391,0,"hh_1.wav",70
Sample,72391,0,"sn_clap_2.wav",70
Sample,72484,0,"syn_b_3.wav",70
Sample,72484,0,"hh_3.wav",70
Sample,72577,0,"syn_b_2.wav",70
Sample,72577,0,"hh_2.wav",70
Sample,72670,0,"hh_1.wav",70
Sample,72763,0,"hh_2.wav",70
Sample,72857,0,"hh_3.wav",70
Sample,72950,0,"sn_clap_2.wav",70
Sample,72950,0,"hh_2.wav",70
Sample,73043,0,"syn_b_1.wav",70
Sample,73043,0,"kick.wav",70
Sample,73043,0,"hh_1.wav",70
Sample,73136,0,"hh_2.wav",70
Sample,73136,0,"syn_b_2.wav",70
Sample,73229,0,"syn_b_3.wav",70
Sample,73229,0,"hh_3.wav",70
Sample,73322,0,"syn_b_4.wav",70
Sample,73416,0,"hh_1.wav",70
Sample,73416,0,"syn_b_3.wav",70
Sample,73416,0,"kick.wav",70
Sample,73416,0,"sn_clap_1.wav",70
Sample,73509,0,"hh_2.wav",70
Sample,73509,0,"syn_b_2.wav",70
Sample,73602,0,"syn_b_1.wav",70
Sample,73602,0,"hh_3.wav",70
Sample,73695,0,"hh_2.wav",70
Sample,73695,0,"syn_b_2.wav",70
Sample,73788,0,"kick.wav",70
Sample,73788,0,"hh_1.wav",70
Sample,73788,0,"syn_b_3.wav",70
Sample,73881,0,"sn_clap_2.wav",70
Sample,73881,0,"syn_b_4.wav",70
Sample,73881,0,"hh_2.wav",70
Sample,73975,0,"syn_b_3.wav",70
Sample,73975,0,"hh_3.wav",70
Sample,74068,0,"syn_b_2.wav",70
Sample,74161,0,"hh_1.wav",70
Sample,74161,0,"kick.wav",70
Sample,74161,0,"syn_b_1.wav",70
Sample,74161,0,"sn_clap_1.wav",70
Sample,74254,0,"hh_1.wav",70
Sample,74254,0,"syn_b_2.wav",70
Sample,74347,0,"syn_b_3.wav",70
Sample,74347,0,"hh_3.wav",70
Sample,74440,0,"syn_b_4.wav",70
Sample,74440,0,"hh_2.wav",70
Sample,74534,0,"hh_1.wav",70
Sample,74534,0,"kick.wav",70
Sample,74534,0,"syn_b_5.wav",70
Sample,74627,0,"syn_b_6.wav",70
Sample,74627,0,"hh_2.wav",70
Sample,74720,0,"hh_3.wav",70
Sample,74720,0,"syn_b_7.wav",70
Sample,74813,0,"syn_b_8.wav",70
Sample,74906,0,"hh_1.wav",70
Sample,74906,0,"sn_clap_1.wav",70
Sample,74906,0,"syn_b_7.wav",70
Sample,74906,0,"kick.wav",70
Sample,75000,0,"hh_2.wav",70
Sample,75000,0,"syn_b_6.wav",70
Sample,75093,0,"hh_3.wav",70
Sample,75093,0,"syn_b_5.wav",70
Sample,75186,0,"syn_b_4.wav",70
Sample,75186,0,"sn_clap_2.wav",70
Sample,75279,0,"kick.wav",70
Sample,75279,0,"se_gtr_1.wav",70
Sample,75279,0,"syn_b_9.wav",70
Sample,75279,0,"hh_1.wav",70
Sample,75372,0,"hh_1.wav",70
Sample,75372,0,"sn_clap_2.wav",70
Sample,75372,0,"syn_b_10.wav",70
Sample,75465,0,"syn_b_9.wav",70
Sample,75465,0,"hh_3.wav",70
Sample,75559,0,"hh_2.wav",70
Sample,75559,0,"syn_b_11.wav",70
Sample,75652,0,"hh_1.wav",70
Sample,75745,0,"hh_2.wav",70
Sample,75838,0,"kick.wav",70
Sample,75838,0,"hh_3.wav",70
Sample,75931,0,"sn_clap_2.wav",70
Sample,75931,0,"hh_2.wav",70
Sample,76024,0,"hh_1.wav",70
Sample,76024,0,"back_gtr_1.wav",70
Sample,76024,0,"kick.wav",70
Sample,76024,0,"syn_b_1.wav",70
Sample,76118,0,"hh_2.wav",70
Sample,76118,0,"syn_b_2.wav",70
Sample,76211,0,"syn_b_3.wav",70
Sample,76211,0,"hh_3.wav",70
Sample,76211,0,"back_gtr_1.wav",70
Sample,76304,0,"syn_b_4.wav",70
Sample,76397,0,"hh_1.wav",70
Sample,76397,0,"back_gtr_2.wav",70
Sample,76397,0,"sn_clap_1.wav",70
Sample,76397,0,"syn_b_3.wav",70
Sample,76397,0,"kick.wav",70
Sample,76490,0,"hh_2.wav",70
Sample,76490,0,"syn_b_2.wav",70
Sample,76583,0,"hh_3.wav",70
Sample,76583,0,"syn_b_1.wav",70
Sample,76583,0,"back_gtr_1.wav",70
Sample,76677,0,"hh_2.wav",70
Sample,76677,0,"syn_b_2.wav",70
Sample,76770,0,"kick.wav",70
Sample,76770,0,"back_gtr_1.wav",70
Sample,76770,0,"hh_1.wav",70
Sample,76770,0,"syn_b_3.wav",70
Sample,76863,0,"hh_2.wav",70
Sample,76863,0,"syn_b_4.wav",70
Sample,76863,0,"sn_clap_2.wav",70
Sample,76956,0,"hh_3.wav",70
Sample,76956,0,"syn_b_3.wav",70
Sample,76956,0,"back_gtr_2.wav",70
Sample,77049,0,"syn_b_2.wav",70
Sample,77142,0,"back_gtr_3.wav",70
Sample,77142,0,"hh_1.wav",70
Sample,77236,0,"hh_1.wav",70
Sample,77329,0,"hh_3.wav",70
Sample,77329,0,"back_gtr_4.wav",70
Sample,77422,0,"hh_2.wav",70
Sample,77515,0,"kick.wav",70
Sample,77515,0,"syn_b_1.wav",70
Sample,77515,0,"hh_1.wav",70
Sample,77515,0,"back_gtr_1.wav",70
Sample,77608,0,"syn_b_2.wav",70
Sample,77608,0,"hh_2.wav",70
Sample,77701,0,"back_gtr_1.wav",70
Sample,77701,0,"hh_3.wav",70
Sample,77701,0,"syn_b_3.wav",70
Sample,77795,0,"syn_b_4.wav",70
Sample,77888,0,"syn_b_3.wav",70
Sample,77888,0,"kick.wav",70
Sample,77888,0,"hh_1.wav",70
Sample,77888,0,"sn_clap_1.wav",70
Sample,77888,0,"back_gtr_2.wav",70
Sample,77981,0,"syn_b_2.wav",70
Sample,77981,0,"hh_2.wav",70
Sample,78074,0,"back_gtr_1.wav",70
Sample,78074,0,"hh_3.wav",70
Sample,78074,0,"syn_b_1.wav",70
Sample,78167,0,"syn_b_2.wav",70
Sample,78167,0,"sn_clap_2.wav",70
Sample,78260,0,"syn_b_3.wav",70
Sample,78260,0,"hh_1.wav",70
Sample,78260,0,"kick.wav",70
Sample,78260,0,"back_gtr_1.wav",70
Sample,78354,0,"sn_clap_2.wav",70
Sample,78354,0,"hh_1.wav",70
Sample,78354,0,"syn_b_4.wav",70
Sample,78447,0,"back_gtr_2.wav",70
Sample,78447,0,"syn_b_3.wav",70
Sample,78447,0,"hh_3.wav",70
Sample,78540,0,"syn_b_2.wav",70
Sample,78540,0,"hh_2.wav",70
Sample,78633,0,"hh_1.wav",70
Sample,78633,0,"back_gtr_7.wav",70
Sample,78726,0,"hh_2.wav",70
Sample,78819,0,"back_gtr_5.wav",70
Sample,78819,0,"hh_3.wav",70
Sample,78913,0,"sn_clap_2.wav",70
Sample,78913,0,"hh_2.wav",70
Sample,79006,0,"hh_1.wav",70
Sample,79006,0,"kick.wav",70
Sample,79006,0,"back_gtr_1.wav",70
Sample,79006,0,"syn_b_1.wav",70
Sample,79006,0,"cym_revrs.wav",70
Sample,79006,0,"snare_roll.wav",70
Sample,79099,0,"syn_b_2.wav",70
Sample,79099,0,"hh_2.wav",70
Sample,79192,0,"snare_roll.wav",70
Sample,79192,0,"hh_3.wav",70
Sample,79192,0,"syn_b_3.wav",70
Sample,79192,0,"back_gtr_1.wav",70
Sample,79285,0,"syn_b_4.wav",70
Sample,79378,0,"syn_b_3.wav",70
Sample,79378,0,"sn_clap_1.wav",70
Sample,79378,0,"back_gtr_2.wav",70
Sample,79378,0,"hh_1.wav",70
Sample,79378,0,"snare_roll.wav",70
Sample,79378,0,"kick.wav",70
Sample,79472,0,"hh_2.wav",70
Sample,79472,0,"syn_b_2.wav",70
Sample,79565,0,"snare_roll.wav",70
Sample,79565,0,"syn_b_1.wav",70
Sample,79565,0,"hh_3.wav",70
Sample,79565,0,"back_gtr_1.wav",70
Sample,79658,0,"hh_2.wav",70
Sample,79658,0,"syn_b_2.wav",70
Sample,79751,0,"snare_roll.wav",70
Sample,79751,0,"back_gtr_1.wav",70
Sample,79751,0,"syn_b_3.wav",70
Sample,79751,0,"kick.wav",70
Sample,79751,0,"hh_1.wav",70
Sample,79844,0,"sn_clap_2.wav",70
Sample,79844,0,"syn_b_4.wav",70
Sample,79844,0,"hh_2.wav",70
Sample,79937,0,"syn_b_3.wav",70
Sample,79937,0,"hh_3.wav",70
Sample,79937,0,"snare_roll.wav",70
Sample,79937,0,"back_gtr_2.wav",70
Sample,80031,0,"snare_roll.wav",70
Sample,80031,0,"syn_b_2.wav",70
Sample,80124,0,"syn_b_1.wav",70
Sample,80124,0,"hh_1.wav",70
Sample,80124,0,"back_gtr_3.wav",70
Sample,80124,0,"sn_clap_1.wav",70
Sample,80124,0,"snare_roll.wav",70
Sample,80124,0,"kick.wav",70
Sample,80217,0,"syn_b_2.wav",70
Sample,80217,0,"hh_1.wav",70
Sample,80310,0,"hh_3.wav",70
Sample,80310,0,"snare_roll.wav",70
Sample,80310,0,"syn_b_3.wav",70
Sample,80310,0,"back_gtr_4.wav",70
Sample,80403,0,"hh_2.wav",70
Sample,80403,0,"syn_b_4.wav",70
Sample,80496,0,"kick.wav",70
Sample,80496,0,"cym.wav",70
Sample,80496,0,"bgm4_2.wav",70
Sample,80496,0,"hh_1.wav",70
Sample,80496,0,"syn_b_5.wav",70
Sample,80590,0,"syn_b_6.wav",70
Sample,80683,0,"syn_b_7.wav",70
Sample,80776,0,"syn_b_8.wav",70
Sample,80869,0,"syn_b_7.wav",70
Sample,80962,0,"syn_b_6.wav",70
Sample,81055,0,"syn_b_5.wav",70
Sample,81149,0,"syn_b_4.wav",70
Sample,81242,0,"syn_b_9.wav",70
Sample,81335,0,"syn_b_10.wav",70
Sample,81428,0,"syn_b_9.wav",70
Sample,81521,0,"kick.wav",70
Sample,81521,0,"syn_b_11.wav",70
Sample,81614,0,"syn_b_12.wav",70
Sample,81614,0,"claprev.wav",70
Sample,81614,0,"kick.wav",70
Sample,81614,0,"hh_1.wav",70
Sample,81614,0,"sn_clap_2.wav",70
Sample,81614,0,"cym.wav",70
Sample,81708,0,"hh_2.wav",70
Sample,81708,0,"syn_b_10.wav",70
Sample,81801,0,"kick.wav",70
Sample,81801,0,"sn_clap_2.wav",70
Sample,81801,0,"hh_3.wav",70
Sample,81801,0,"syn_b_9.wav",70
Sample,81894,0,"sn_clap_2.wav",70
Sample,81894,0,"syn_b_11.wav",70
Sample,81894,0,"hh_2.wav",70
Sample,81987,0,"se1.wav",70
Sample,81987,0,"syn_b_1.wav",70
Sample,81987,0,"cym.wav",70
Sample,81987,0,"back_gtr_1.wav",70
Sample,81987,0,"hh_1.wav",70
Sample,81987,0,"bgm4_3.wav",70
Sample,81987,0,"kick.wav",70
Sample,82080,0,"syn_b_2.wav",70
Sample,82080,0,"hh_2.wav",70
Sample,82173,0,"syn_b_3.wav",70
Sample,82173,0,"back_gtr_1.wav",70
Sample,82173,0,"hh_3.wav",70
Sample,82173,0,"sn_clap_2.wav",70
Sample,82267,0,"syn_b_4.wav",70
Sample,82360,0,"kick.wav",70
Sample,82360,0,"syn_b_3.wav",70
Sample,82360,0,"back_gtr_2.wav",70
Sample,82360,0,"hh_1.wav",70
Sample,82453,0,"hh_2.wav",70
Sample,82453,0,"syn_b_2.wav",70
Sample,82546,0,"sn_clap_2.wav",70
Sample,82546,0,"back_gtr_1.wav",70
Sample,82546,0,"syn_b_1.wav",70
Sample,82546,0,"hh_3.wav",70
Sample,82639,0,"syn_b_2.wav",70
Sample,82639,0,"hh_2.wav",70
Sample,82732,0,"kick.wav",70
Sample,82732,0,"hh_1.wav",70
Sample,82732,0,"back_gtr_1.wav",70
Sample,82732,0,"syn_b_3.wav",70
Sample,82826,0,"hh_2.wav",70
Sample,82826,0,"syn_b_4.wav",70
Sample,82919,0,"hh_3.wav",70
Sample,82919,0,"back_gtr_2.wav",70
Sample,82919,0,"syn_b_3.wav",70
Sample,82919,0,"sn_clap_2.wav",70
Sample,83012,0,"syn_b_2.wav",70
Sample,83105,0,"kick.wav",70
Sample,83105,0,"syn_b_1.wav",70
Sample,83105,0,"hit_11.wav",70
Sample,83105,0,"hh_1.wav",70
Sample,83105,0,"back_gtr_3.wav",70
Sample,83198,0,"hh_1.wav",70
Sample,83198,0,"syn_b_2.wav",70
Sample,83291,0,"hh_3.wav",70
Sample,83291,0,"syn_b_3.wav",70
Sample,83291,0,"sn_clap_2.wav",70
Sample,83291,0,"back_gtr_4.wav",70
Sample,83385,0,"syn_b_4.wav",70
Sample,83385,0,"hh_2.wav",70
Sample,83478,0,"syn_b_3.wav",70
Sample,83478,0,"back_gtr_1.wav",70
Sample,83478,0,"hh_1.wav",70
Sample,83478,0,"kick.wav",70
Sample,83571,0,"hh_2.wav",70
Sample,83571,0,"syn_b_2.wav",70
Sample,83664,0,"syn_b_1.wav",70
Sample,83664,0,"hh_3.wav",70
Sample,83664,0,"sn_clap_2.wav",70
Sample,83664,0,"back_gtr_1.wav",70
Sample,83757,0,"syn_b_2.wav",70
Sample,83850,0,"kick.wav",70
Sample,83850,0,"back_gtr_2.wav",70
Sample,83850,0,"hh_1.wav",70
Sample,83850,0,"syn_b_3.wav",70
Sample,83944,0,"hh_2.wav",70
Sample,83944,0,"syn_b_4.wav",70
Sample,84037,0,"sn_clap_2.wav",70
Sample,84037,0,"syn_b_3.wav",70
Sample,84037,0,"hh_3.wav",70
Sample,84037,0,"back_gtr_1.wav",70
Sample,84130,0,"syn_b_2.wav",70
Sample,84223,0,"syn_b_1.wav",70
Sample,84223,0,"back_gtr_1.wav",70
Sample,84223,0,"kick.wav",70
Sample,84223,0,"hh_1.wav",70
Sample,84316,0,"hh_1.wav",70
Sample,84316,0,"syn_b_2.wav",70
Sample,84409,0,"hh_3.wav",70
Sample,84409,0,"sn_clap_2.wav",70
Sample,84409,0,"syn_b_3.wav",70
Sample,84409,0,"back_gtr_2.wav",70
Sample,84503,0,"syn_b_4.wav",70
Sample,84503,0,"hh_2.wav",70
Sample,84503,0,"sn_clap_2.wav",70
Sample,84596,0,"hit_11.wav",70
Sample,84596,0,"back_gtr_7.wav",70
Sample,84596,0,"syn_b_3.wav",70
Sample,84596,0,"kick.wav",70
Sample,84596,0,"hh_1.wav",70
Sample,84689,0,"syn_b_2.wav",70
Sample,84689,0,"hh_2.wav",70
Sample,84782,0,"hh_3.wav",70
Sample,84782,0,"sn_clap_2.wav",70
Sample,84782,0,"syn_b_1.wav",70
Sample,84782,0,"back_gtr_5.wav",70
Sample,84875,0,"syn_b_2.wav",70
Sample,84875,0,"hh_2.wav",70
Sample,84968,0,"hh_1.wav",70
Sample,84968,0,"back_gtr_1.wav",70
Sample,84968,0,"syn_b_3.wav",70
Sample,84968,0,"kick.wav",70
Sample,85062,0,"hh_2.wav",70
Sample,85062,0,"syn_b_4.wav",70
Sample,85155,0,"syn_b_3.wav",70
Sample,85155,0,"hh_3.wav",70
Sample,85155,0,"sn_clap_2.wav",70
Sample,85155,0,"back_gtr_1.wav",70
Sample,85248,0,"syn_b_2.wav",70
Sample,85341,0,"hh_1.wav",70
Sample,85341,0,"back_gtr_2.wav",70
Sample,85341,0,"kick.wav",70
Sample,85341,0,"syn_b_1.wav",70
Sample,85434,0,"syn_b_2.wav",70
Sample,85434,0,"hh_2.wav",70
Sample,85527,0,"hh_3.wav",70
Sample,85527,0,"syn_b_3.wav",70
Sample,85527,0,"sn_clap_2.wav",70
Sample,85527,0,"back_gtr_1.wav",70
Sample,85621,0,"hh_2.wav",70
Sample,85621,0,"syn_b_4.wav",70
Sample,85714,0,"kick.wav",70
Sample,85714,0,"back_gtr_1.wav",70
Sample,85714,0,"hh_1.wav",70
Sample,85714,0,"syn_b_3.wav",70
Sample,85807,0,"syn_b_2.wav",70
Sample,85807,0,"hh_2.wav",70
Sample,85900,0,"syn_b_1.wav",70
Sample,85900,0,"sn_clap_2.wav",70
Sample,85900,0,"hh_3.wav",70
Sample,85900,0,"back_gtr_2.wav",70
Sample,85993,0,"syn_b_2.wav",70
Sample,86086,0,"syn_b_3.wav",70
Sample,86086,0,"back_gtr_3.wav",70
Sample,86086,0,"hh_1.wav",70
Sample,86086,0,"kick.wav",70
Sample,86180,0,"syn_b_4.wav",70
Sample,86180,0,"hh_1.wav",70
Sample,86273,0,"hh_3.wav",70
Sample,86273,0,"syn_b_3.wav",70
Sample,86273,0,"sn_clap_2.wav",70
Sample,86273,0,"back_gtr_4.wav",70
Sample,86366,0,"syn_b_2.wav",70
Sample,86366,0,"hh_2.wav",70
Sample,86459,0,"syn_b_5.wav",70
Sample,86459,0,"kick.wav",70
Sample,86459,0,"hh_1.wav",70
Sample,86459,0,"back_gtr_1.wav",70
Sample,86552,0,"syn_b_6.wav",70
Sample,86552,0,"hh_2.wav",70
Sample,86645,0,"sn_clap_2.wav",70
Sample,86645,0,"back_gtr_1.wav",70
Sample,86645,0,"hh_3.wav",70
Sample,86645,0,"syn_b_7.wav",70
Sample,86739,0,"syn_b_8.wav",70
Sample,86832,0,"kick.wav",70
Sample,86832,0,"hh_1.wav",70
Sample,86832,0,"syn_b_7.wav",70
Sample,86832,0,"back_gtr_2.wav",70
Sample,86925,0,"hh_2.wav",70
Sample,86925,0,"syn_b_6.wav",70
Sample,87018,0,"syn_b_5.wav",70
Sample,87018,0,"back_gtr_1.wav",70
Sample,87018,0,"hh_3.wav",70
Sample,87018,0,"sn_clap_2.wav",70
Sample,87111,0,"syn_b_4.wav",70
Sample,87204,0,"hh_1.wav",70
Sample,87204,0,"kick.wav",70
Sample,87204,0,"syn_b_9.wav",70
Sample,87204,0,"back_gtr_1.wav",70
Sample,87298,0,"hh_1.wav",70
Sample,87298,0,"syn_b_10.wav",70
Sample,87391,0,"sn_clap_2.wav",70
Sample,87391,0,"back_gtr_2.wav",70
Sample,87391,0,"syn_b_9.wav",70
Sample,87391,0,"hh_3.wav",70
Sample,87484,0,"syn_b_11.wav",70
Sample,87484,0,"sn_clap_2.wav",70
Sample,87484,0,"hh_2.wav",70
Sample,87577,0,"kick.wav",70
Sample,87577,0,"hh_1.wav",70
Sample,87577,0,"hit_12.wav",70
Sample,87577,0,"syn_b_12.wav",70
Sample,87577,0,"back_gtr_7.wav",70
Sample,87670,0,"hh_2.wav",70
Sample,87670,0,"syn_b_10.wav",70
Sample,87763,0,"hh_3.wav",70
Sample,87763,0,"back_gtr_5.wav",70
Sample,87763,0,"syn_b_9.wav",70
Sample,87763,0,"sn_clap_2.wav",70
Sample,87763,0,"kick.wav",70
Sample,87857,0,"hh_2.wav",70
Sample,87857,0,"syn_b_11.wav",70
Sample,87950,0,"hh_1.wav",70
Sample,87950,0,"syn_b_1.wav",70
Sample,87950,0,"kick.wav",70
Sample,87950,0,"cym.wav",70
Sample,87950,0,"back_gtr_1.wav",70
Sample,87950,0,"bgm4_3.wav",70
Sample,88043,0,"hh_2.wav",70
Sample,88043,0,"syn_b_2.wav",70
Sample,88136,0,"sn_clap_2.wav",70
Sample,88136,0,"back_gtr_1.wav",70
Sample,88136,0,"syn_b_3.wav",70
Sample,88136,0,"hh_3.wav",70
Sample,88229,0,"syn_b_4.wav",70
Sample,88322,0,"syn_b_3.wav",70
Sample,88322,0,"hh_1.wav",70
Sample,88322,0,"back_gtr_2.wav",70
Sample,88322,0,"kick.wav",70
Sample,88416,0,"hh_2.wav",70
Sample,88416,0,"syn_b_2.wav",70
Sample,88509,0,"sn_clap_2.wav",70
Sample,88509,0,"syn_b_1.wav",70
Sample,88509,0,"hh_3.wav",70
Sample,88509,0,"back_gtr_1.wav",70
Sample,88602,0,"hh_2.wav",70
Sample,88602,0,"syn_b_2.wav",70
Sample,88695,0,"syn_b_3.wav",70
Sample,88695,0,"hh_1.wav",70
Sample,88695,0,"back_gtr_1.wav",70
Sample,88695,0,"kick.wav",70
Sample,88788,0,"hh_2.wav",70
Sample,88788,0,"syn_b_4.wav",70
Sample,88881,0,"hh_3.wav",70
Sample,88881,0,"back_gtr_2.wav",70
Sample,88881,0,"syn_b_3.wav",70
Sample,88881,0,"sn_clap_2.wav",70
Sample,88975,0,"syn_b_2.wav",70
Sample,89068,0,"hit_11.wav",70
Sample,89068,0,"kick.wav",70
Sample,89068,0,"syn_b_1.wav",70
Sample,89068,0,"back_gtr_3.wav",70
Sample,89068,0,"hh_1.wav",70
Sample,89161,0,"hh_1.wav",70
Sample,89161,0,"syn_b_2.wav",70
Sample,89254,0,"syn_b_3.wav",70
Sample,89254,0,"hh_3.wav",70
Sample,89254,0,"sn_clap_2.wav",70
Sample,89254,0,"back_gtr_4.wav",70
Sample,89347,0,"syn_b_4.wav",70
Sample,89347,0,"hh_2.wav",70
Sample,89440,0,"syn_b_3.wav",70
Sample,89440,0,"back_gtr_1.wav",70
Sample,89440,0,"hh_1.wav",70
Sample,89440,0,"kick.wav",70
Sample,89534,0,"syn_b_2.wav",70
Sample,89534,0,"hh_2.wav",70
Sample,89627,0,"sn_clap_2.wav",70
Sample,89627,0,"hh_3.wav",70
Sample,89627,0,"syn_b_1.wav",70
Sample,89627,0,"back_gtr_1.wav",70
Sample,89720,0,"syn_b_2.wav",70
Sample,89813,0,"kick.wav",70
Sample,89813,0,"back_gtr_2.wav",70
Sample,89813,0,"syn_b_3.wav",70
Sample,89813,0,"hh_1.wav",70
Sample,89906,0,"syn_b_4.wav",70
Sample,89906,0,"hh_2.wav",70
Sample,90000,0,"hh_3.wav",70
Sample,90000,0,"sn_clap_2.wav",70
Sample,90000,0,"syn_b_3.wav",70
Sample,90000,0,"back_gtr_1.wav",70
Sample,90093,0,"syn_b_2.wav",70
Sample,90186,0,"syn_b_1.wav",70
Sample,90186,0,"back_gtr_1.wav",70
Sample,90186,0,"hh_1.wav",70
Sample,90186,0,"kick.wav",70
Sample,90279,0,"syn_b_2.wav",70
Sample,90279,0,"hh_1.wav",70
Sample,90372,0,"hh_3.wav",70
Sample,90372,0,"sn_clap_2.wav",70
Sample,90372,0,"syn_b_3.wav",70
Sample,90372,0,"back_gtr_2.wav",70
Sample,90465,0,"syn_b_4.wav",70
Sample,90465,0,"sn_clap_2.wav",70
Sample,90465,0,"hh_2.wav",70
Sample,90559,0,"kick.wav",70
Sample,90559,0,"back_gtr_7.wav",70
Sample,90559,0,"hit_11.wav",70
Sample,90559,0,"hh_1.wav",70
Sample,90559,0,"syn_b_3.wav",70
Sample,90652,0,"hh_2.wav",70
Sample,90652,0,"syn_b_2.wav",70
Sample,90745,0,"syn_b_1.wav",70
Sample,90745,0,"sn_clap_2.wav",70
Sample,90745,0,"hh_3.wav",70
Sample,90745,0,"back_gtr_5.wav",70
Sample,90838,0,"syn_b_2.wav",70
Sample,90838,0,"hh_2.wav",70
Sample,90931,0,"hh_1.wav",70
Sample,90931,0,"back_gtr_1.wav",70
Sample,90931,0,"kick.wav",70
Sample,90931,0,"syn_b_3.wav",70
Sample,91024,0,"hh_2.wav",70
Sample,91024,0,"syn_b_4.wav",70
Sample,91118,0,"sn_clap_2.wav",70
Sample,91118,0,"hh_3.wav",70
Sample,91118,0,"syn_b_3.wav",70
Sample,91118,0,"back_gtr_1.wav",70
Sample,91211,0,"syn_b_2.wav",70
Sample,91304,0,"kick.wav",70
Sample,91304,0,"back_gtr_2.wav",70
Sample,91304,0,"hh_1.wav",70
Sample,91304,0,"syn_b_1.wav",70
Sample,91397,0,"syn_b_2.wav",70
Sample,91397,0,"hh_2.wav",70
Sample,91490,0,"hh_3.wav",70
Sample,91490,0,"syn_b_3.wav",70
Sample,91490,0,"sn_clap_2.wav",70
Sample,91490,0,"back_gtr_1.wav",70
Sample,91583,0,"hh_2.wav",70
Sample,91583,0,"syn_b_4.wav",70
Sample,91677,0,"kick.wav",70
Sample,91677,0,"back_gtr_1.wav",70
Sample,91677,0,"syn_b_3.wav",70
Sample,91677,0,"hh_1.wav",70
Sample,91770,0,"syn_b_2.wav",70
Sample,91770,0,"hh_2.wav",70
Sample,91863,0,"hh_3.wav",70
Sample,91863,0,"sn_clap_2.wav",70
Sample,91863,0,"syn_b_1.wav",70
Sample,91863,0,"back_gtr_2.wav",70
Sample,91956,0,"syn_b_2.wav",70
Sample,92049,0,"kick.wav",70
Sample,92049,0,"back_gtr_3.wav",70
Sample,92049,0,"hh_1.wav",70
Sample,92049,0,"syn_b_3.wav",70
Sample,92142,0,"syn_b_4.wav",70
Sample,92142,0,"hh_1.wav",70
Sample,92236,0,"hh_3.wav",70
Sample,92236,0,"sn_clap_2.wav",70
Sample,92236,0,"syn_b_3.wav",70
Sample,92236,0,"back_gtr_4.wav",70
Sample,92329,0,"syn_b_2.wav",70
Sample,92329,0,"hh_2.wav",70
Sample,92422,0,"syn_b_5.wav",70
Sample,92422,0,"kick.wav",70
Sample,92422,0,"hh_1.wav",70
Sample,92422,0,"back_gtr_1.wav",70
Sample,92515,0,"hh_2.wav",70
Sample,92515,0,"syn_b_6.wav",70
Sample,92608,0,"syn_b_7.wav",70
Sample,92608,0,"back_gtr_1.wav",70
Sample,92608,0,"sn_clap_2.wav",70
Sample,92608,0,"hh_3.wav",70
Sample,92701,0,"syn_b_8.wav",70
Sample,92795,0,"hh_1.wav",70
Sample,92795,0,"kick.wav",70
Sample,92795,0,"syn_b_7.wav",70
Sample,92795,0,"back_gtr_2.wav",70
Sample,92888,0,"syn_b_6.wav",70
Sample,92888,0,"hh_2.wav",70
Sample,92981,0,"syn_b_5.wav",70
Sample,92981,0,"back_gtr_1.wav",70
Sample,92981,0,"sn_clap_2.wav",70
Sample,92981,0,"hh_3.wav",70
Sample,93074,0,"syn_b_4.wav",70
Sample,93167,0,"syn_b_9.wav",70
Sample,93167,0,"hh_1.wav",70
Sample,93167,0,"kick.wav",70
Sample,93167,0,"back_gtr_1.wav",70
Sample,93260,0,"syn_b_10.wav",70
Sample,93260,0,"hh_1.wav",70
Sample,93354,0,"hh_3.wav",70
Sample,93354,0,"back_gtr_2.wav",70
Sample,93354,0,"sn_clap_2.wav",70
Sample,93354,0,"syn_b_9.wav",70
Sample,93447,0,"sn_clap_2.wav",70
Sample,93447,0,"hh_2.wav",70
Sample,93447,0,"syn_b_11.wav",70
Sample,93493,0,"bgm1_1.wav",70
Sample,93540,0,"hh_1.wav",70
Sample,93540,0,"kick.wav",70
Sample,93540,0,"hit_12.wav",70
Sample,93540,0,"syn_b_12.wav",70
Sample,93540,0,"back_gtr_7.wav",70
Sample,93633,0,"hh_2.wav",70
Sample,93633,0,"syn_b_10.wav",70
Sample,93726,0,"sn_clap_2.wav",70
Sample,93726,0,"vo_ho_l.wav",70
Sample,93726,0,"back_gtr_5.wav",70
Sample,93726,0,"syn_b_9.wav",70
Sample,93726,0,"kick.wav",70
Sample,93726,0,"hh_3.wav",70
Sample,93819,0,"hh_2.wav",70
Sample,93819,0,"syn_b_11.wav",70
Sample,93913,0,"hh_1.wav",70
Sample,93913,0,"cym.wav",70
Sample,93913,0,"syn_b_1.wav",70
Sample,93913,0,"back_gtr_1.wav",70
Sample,93913,0,"bgm4_3.wav",70
Sample,94006,0,"syn_b_2.wav",70
Sample,94006,0,"hh_2.wav",70
Sample,94099,0,"vo_ho_r.wav",70
Sample,94099,0,"sn_clap_2.wav",70
Sample,94099,0,"syn_b_3.wav",70
Sample,94099,0,"back_gtr_1.wav",70
Sample,94099,0,"hh_3.wav",70
Sample,94192,0,"syn_b_4.wav",70
Sample,94285,0,"back_gtr_2.wav",70
Sample,94285,0,"hh_1.wav",70
Sample,94285,0,"syn_b_3.wav",70
Sample,94378,0,"hh_2.wav",70
Sample,94378,0,"syn_b_2.wav",70
Sample,94472,0,"hh_3.wav",70
Sample,94472,0,"back_gtr_1.wav",70
Sample,94472,0,"syn_b_1.wav",70
Sample,94472,0,"sn_clap_2.wav",70
Sample,94472,0,"vo_ho_l.wav",70
Sample,94565,0,"hh_2.wav",70
Sample,94565,0,"syn_b_2.wav",70
Sample,94658,0,"syn_b_3.wav",70
Sample,94658,0,"hh_1.wav",70
Sample,94658,0,"back_gtr_1.wav",70
Sample,94751,0,"hh_2.wav",70
Sample,94751,0,"syn_b_4.wav",70
Sample,94844,0,"hh_3.wav",70
Sample,94844,0,"syn_b_3.wav",70
Sample,94844,0,"back_gtr_2.wav",70
Sample,94844,0,"vo_ho_r.wav",70
Sample,94844,0,"sn_clap_2.wav",70
Sample,94937,0,"syn_b_2.wav",70
Sample,95031,0,"syn_b_1.wav",70
Sample,95031,0,"hh_1.wav",70
Sample,95031,0,"back_gtr_3.wav",70
Sample,95124,0,"syn_b_2.wav",70
Sample,95124,0,"hh_1.wav",70
Sample,95217,0,"hh_3.wav",70
Sample,95217,0,"back_gtr_4.wav",70
Sample,95217,0,"sn_clap_2.wav",70
Sample,95217,0,"vo_ho_l.wav",70
Sample,95217,0,"syn_b_3.wav",70
Sample,95310,0,"hh_2.wav",70
Sample,95310,0,"syn_b_4.wav",70
Sample,95403,0,"syn_b_3.wav",70
Sample,95403,0,"hh_1.wav",70
Sample,95403,0,"back_gtr_1.wav",70
Sample,95496,0,"syn_b_2.wav",70
Sample,95496,0,"hh_2.wav",70
Sample,95590,0,"sn_clap_2.wav",70
Sample,95590,0,"vo_ho_r.wav",70
Sample,95590,0,"back_gtr_1.wav",70
Sample,95590,0,"syn_b_1.wav",70
Sample,95590,0,"hh_3.wav",70
Sample,95683,0,"syn_b_2.wav",70
Sample,95776,0,"syn_b_3.wav",70
Sample,95776,0,"back_gtr_2.wav",70
Sample,95776,0,"hh_1.wav",70
Sample,95869,0,"hh_2.wav",70
Sample,95869,0,"syn_b_4.wav",70
Sample,95962,0,"syn_b_3.wav",70
Sample,95962,0,"back_gtr_1.wav",70
Sample,95962,0,"hh_3.wav",70
Sample,95962,0,"vo_ho_l.wav",70
Sample,95962,0,"sn_clap_2.wav",70
Sample,96055,0,"syn_b_2.wav",70
Sample,96149,0,"back_gtr_1.wav",70
Sample,96149,0,"hh_1.wav",70
Sample,96149,0,"syn_b_1.wav",70
Sample,96242,0,"syn_b_2.wav",70
Sample,96242,0,"hh_1.wav",70
Sample,96335,0,"sn_clap_2.wav",70
Sample,96335,0,"hh_3.wav",70
Sample,96335,0,"syn_b_3.wav",70
Sample,96335,0,"back_gtr_2.wav",70
Sample,96335,0,"vo_ho_r.wav",70
Sample,96428,0,"hh_2.wav",70
Sample,96428,0,"syn_b_4.wav",70
Sample,96428,0,"sn_clap_2.wav",70
Sample,96521,0,"back_gtr_7.wav",70
Sample,96521,0,"hh_1.wav",70
Sample,96521,0,"syn_b_3.wav",70
Sample,96614,0,"hh_2.wav",70
Sample,96614,0,"syn_b_2.wav",70
Sample,96708,0,"vo_ho_l.wav",70
Sample,96708,0,"hh_3.wav",70
Sample,96708,0,"sn_clap_2.wav",70
Sample,96708,0,"back_gtr_5.wav",70
Sample,96708,0,"syn_b_1.wav",70
Sample,96801,0,"syn_b_2.wav",70
Sample,96801,0,"hh_2.wav",70
Sample,96894,0,"back_gtr_1.wav",70
Sample,96894,0,"hh_1.wav",70
Sample,96894,0,"syn_b_3.wav",70
Sample,96987,0,"hh_2.wav",70
Sample,96987,0,"syn_b_4.wav",70
Sample,97080,0,"sn_clap_2.wav",70
Sample,97080,0,"vo_ho_r.wav",70
Sample,97080,0,"syn_b_3.wav",70
Sample,97080,0,"back_gtr_1.wav",70
Sample,97080,0,"hh_3.wav",70
Sample,97173,0,"syn_b_2.wav",70
Sample,97267,0,"back_gtr_2.wav",70
Sample,97267,0,"hh_1.wav",70
Sample,97267,0,"syn_b_1.wav",70
Sample,97360,0,"syn_b_2.wav",70
Sample,97360,0,"hh_2.wav",70
Sample,97453,0,"hh_3.wav",70
Sample,97453,0,"syn_b_3.wav",70
Sample,97453,0,"vo_ho_l.wav",70
Sample,97453,0,"sn_clap_2.wav",70
Sample,97453,0,"back_gtr_1.wav",70
Sample,97546,0,"syn_b_4.wav",70
Sample,97546,0,"hh_2.wav",70
Sample,97639,0,"hh_1.wav",70
Sample,97639,0,"syn_b_3.wav",70
Sample,97639,0,"back_gtr_1.wav",70
Sample,97732,0,"hh_2.wav",70
Sample,97732,0,"syn_b_2.wav",70
Sample,97826,0,"sn_clap_2.wav",70
Sample,97826,0,"back_gtr_2.wav",70
Sample,97826,0,"syn_b_1.wav",70
Sample,97826,0,"hh_3.wav",70
Sample,97826,0,"vo_ho_r.wav",70
Sample,97919,0,"syn_b_2.wav",70
Sample,98012,0,"back_gtr_3.wav",70
Sample,98012,0,"syn_b_3.wav",70
Sample,98012,0,"hh_1.wav",70
Sample,98105,0,"syn_b_4.wav",70
Sample,98105,0,"hh_1.wav",70
Sample,98198,0,"sn_clap_2.wav",70
Sample,98198,0,"vo_ho_l.wav",70
Sample,98198,0,"syn_b_3.wav",70
Sample,98198,0,"hh_3.wav",70
Sample,98198,0,"back_gtr_4.wav",70
Sample,98291,0,"syn_b_2.wav",70
Sample,98291,0,"hh_2.wav",70
Sample,98385,0,"syn_b_5.wav",70
Sample,98385,0,"hh_1.wav",70
Sample,98385,0,"back_gtr_1.wav",70
Sample,98478,0,"syn_b_6.wav",70
Sample,98478,0,"hh_2.wav",70
Sample,98571,0,"sn_clap_2.wav",70
Sample,98571,0,"vo_ho_r.wav",70
Sample,98571,0,"back_gtr_1.wav",70
Sample,98571,0,"syn_b_7.wav",70
Sample,98571,0,"hh_3.wav",70
Sample,98664,0,"syn_b_8.wav",70
Sample,98757,0,"syn_b_7.wav",70
Sample,98757,0,"back_gtr_2.wav",70
Sample,98757,0,"hh_1.wav",70
Sample,98850,0,"syn_b_6.wav",70
Sample,98850,0,"hh_2.wav",70
Sample,98944,0,"back_gtr_1.wav",70
Sample,98944,0,"vo_ho_l.wav",70
Sample,98944,0,"hh_3.wav",70
Sample,98944,0,"sn_clap_2.wav",70
Sample,98944,0,"syn_b_5.wav",70
Sample,99037,0,"syn_b_4.wav",70
Sample,99130,0,"back_gtr_1.wav",70
Sample,99130,0,"hh_1.wav",70
Sample,99130,0,"syn_b_9.wav",70
Sample,99223,0,"hh_1.wav",70
Sample,99223,0,"syn_b_10.wav",70
Sample,99316,0,"sn_clap_2.wav",70
Sample,99316,0,"hh_3.wav",70
Sample,99316,0,"back_gtr_2.wav",70
Sample,99316,0,"syn_b_9.wav",70
Sample,99316,0,"vo_ho_r.wav",70
Sample,99409,0,"sn_clap_2.wav",70
Sample,99409,0,"hh_2.wav",70
Sample,99409,0,"syn_b_11.wav",70
Sample,99503,0,"back_gtr_7.wav",70
Sample,99503,0,"hh_1.wav",70
Sample,99503,0,"syn_b_12.wav",70
Sample,99596,0,"syn_b_10.wav",70
Sample,99596,0,"hh_2.wav",70
Sample,99689,0,"vo_ho_l.wav",70
Sample,99689,0,"kick.wav",70
Sample,99689,0,"hh_3.wav",70
Sample,99689,0,"sn_clap_2.wav",70
Sample,99689,0,"syn_b_9.wav",70
Sample,99689,0,"back_gtr_5.wav",70
Sample,99782,0,"syn_b_11.wav",70
Sample,99782,0,"hh_2.wav",70
Sample,99875,0,"syn_b_1.wav",70
Sample,99875,0,"hh_1.wav",70
Sample,99875,0,"cym.wav",70
Sample,99875,0,"back_gtr_1.wav",70
Sample,99875,0,"bgm4_4.wav",70
Sample,99968,0,"hh_2.wav",70
Sample,99968,0,"syn_b_2.wav",70
Sample,100062,0,"syn_b_3.wav",70
Sample,100062,0,"vo_ho_r.wav",70
Sample,100062,0,"back_gtr_1.wav",70
Sample,100062,0,"sn_clap_2.wav",70
Sample,100062,0,"hh_3.wav",70
Sample,100155,0,"syn_b_4.wav",70
Sample,100248,0,"hh_1.wav",70
Sample,100248,0,"syn_b_3.wav",70
Sample,100248,0,"back_gtr_2.wav",70
Sample,100341,0,"syn_b_2.wav",70
Sample,100341,0,"hh_2.wav",70
Sample,100434,0,"back_gtr_1.wav",70
Sample,100434,0,"hh_3.wav",70
Sample,100434,0,"sn_clap_2.wav",70
Sample,100434,0,"syn_b_1.wav",70
Sample,100434,0,"vo_ho_l.wav",70
Sample,100527,0,"syn_b_2.wav",70
Sample,100527,0,"hh_2.wav",70
Sample,100621,0,"back_gtr_1.wav",70
Sample,100621,0,"syn_b_3.wav",70
Sample,100621,0,"hh_1.wav",70
Sample,100714,0,"syn_b_4.wav",70
Sample,100714,0,"hh_2.wav",70
Sample,100807,0,"back_gtr_2.wav",70
Sample,100807,0,"syn_b_3.wav",70
Sample,100807,0,"hh_3.wav",70
Sample,100807,0,"sn_clap_2.wav",70
Sample,100807,0,"vo_ho_r.wav",70
Sample,100900,0,"syn_b_2.wav",70
Sample,100993,0,"back_gtr_3.wav",70
Sample,100993,0,"hh_1.wav",70
Sample,100993,0,"syn_b_1.wav",70
Sample,101086,0,"hh_1.wav",70
Sample,101086,0,"syn_b_2.wav",70
Sample,101180,0,"back_gtr_4.wav",70
Sample,101180,0,"sn_clap_2.wav",70
Sample,101180,0,"hh_3.wav",70
Sample,101180,0,"vo_ho_l.wav",70
Sample,101180,0,"syn_b_3.wav",70
Sample,101273,0,"syn_b_4.wav",70
Sample,101273,0,"hh_2.wav",70
Sample,101366,0,"back_gtr_1.wav",70
Sample,101366,0,"hh_1.wav",70
Sample,101366,0,"syn_b_3.wav",70
Sample,101459,0,"hh_2.wav",70
Sample,101459,0,"syn_b_2.wav",70
Sample,101552,0,"syn_b_1.wav",70
Sample,101552,0,"hh_3.wav",70
Sample,101552,0,"back_gtr_1.wav",70
Sample,101552,0,"sn_clap_2.wav",70
Sample,101552,0,"vo_ho_r.wav",70
Sample,101645,0,"syn_b_2.wav",70
Sample,101739,0,"hh_1.wav",70
Sample,101739,0,"back_gtr_2.wav",70
Sample,101739,0,"syn_b_3.wav",70
Sample,101832,0,"syn_b_4.wav",70
Sample,101832,0,"hh_2.wav",70
Sample,101925,0,"sn_clap_2.wav",70
Sample,101925,0,"hh_3.wav",70
Sample,101925,0,"syn_b_3.wav",70
Sample,101925,0,"vo_ho_l.wav",70
Sample,101925,0,"back_gtr_1.wav",70
Sample,102018,0,"syn_b_2.wav",70
Sample,102111,0,"hh_1.wav",70
Sample,102111,0,"back_gtr_1.wav",70
Sample,102111,0,"syn_b_1.wav",70
Sample,102204,0,"syn_b_2.wav",70
Sample,102204,0,"hh_1.wav",70
Sample,102298,0,"syn_b_3.wav",70
Sample,102298,0,"vo_ho_r.wav",70
Sample,102298,0,"back_gtr_2.wav",70
Sample,102298,0,"sn_clap_2.wav",70
Sample,102298,0,"hh_3.wav",70
Sample,102391,0,"hh_2.wav",70
Sample,102391,0,"syn_b_4.wav",70
Sample,102391,0,"sn_clap_2.wav",70
Sample,102484,0,"back_gtr_7.wav",70
Sample,102484,0,"syn_b_3.wav",70
Sample,102484,0,"hh_1.wav",70
Sample,102577,0,"syn_b_2.wav",70
Sample,102577,0,"hh_2.wav",70
Sample,102670,0,"back_gtr_5.wav",70
Sample,102670,0,"hh_3.wav",70
Sample,102670,0,"sn_clap_2.wav",70
Sample,102670,0,"vo_ho_l.wav",70
Sample,102670,0,"syn_b_1.wav",70
Sample,102763,0,"hh_2.wav",70
Sample,102763,0,"syn_b_2.wav",70
Sample,102857,0,"syn_b_3.wav",70
Sample,102857,0,"hh_1.wav",70
Sample,102857,0,"back_gtr_1.wav",70
Sample,102950,0,"syn_b_4.wav",70
Sample,102950,0,"hh_2.wav",70
Sample,103043,0,"back_gtr_1.wav",70
Sample,103043,0,"hh_3.wav",70
Sample,103043,0,"syn_b_3.wav",70
Sample,103043,0,"sn_clap_2.wav",70
Sample,103043,0,"vo_ho_r.wav",70
Sample,103136,0,"syn_b_2.wav",70
Sample,103229,0,"hh_1.wav",70
Sample,103229,0,"syn_b_1.wav",70
Sample,103229,0,"back_gtr_2.wav",70
Sample,103322,0,"hh_2.wav",70
Sample,103322,0,"syn_b_2.wav",70
Sample,103416,0,"sn_clap_2.wav",70
Sample,103416,0,"back_gtr_1.wav",70
Sample,103416,0,"hh_3.wav",70
Sample,103416,0,"vo_ho_l.wav",70
Sample,103416,0,"syn_b_3.wav",70
Sample,103509,0,"syn_b_4.wav",70
Sample,103509,0,"hh_2.wav",70
Sample,103602,0,"back_gtr_1.wav",70
Sample,103602,0,"hh_1.wav",70
Sample,103602,0,"syn_b_3.wav",70
Sample,103695,0,"syn_b_2.wav",70
Sample,103695,0,"hh_2.wav",70
Sample,103788,0,"hh_3.wav",70
Sample,103788,0,"vo_ho_r.wav",70
Sample,103788,0,"syn_b_1.wav",70
Sample,103788,0,"sn_clap_2.wav",70
Sample,103788,0,"back_gtr_2.wav",70
Sample,103881,0,"syn_b_2.wav",70
Sample,103975,0,"back_gtr_3.wav",70
Sample,103975,0,"hh_1.wav",70
Sample,103975,0,"syn_b_3.wav",70
Sample,104068,0,"hh_1.wav",70
Sample,104068,0,"syn_b_4.wav",70
Sample,104161,0,"hh_3.wav",70
Sample,104161,0,"back_gtr_4.wav",70
Sample,104161,0,"sn_clap_2.wav",70
Sample,104161,0,"syn_b_3.wav",70
Sample,104161,0,"vo_ho_l.wav",70
Sample,104254,0,"hh_2.wav",70
Sample,104254,0,"syn_b_2.wav",70
Sample,104347,0,"hh_1.wav",70
Sample,104347,0,"kick.wav",70
Sample,104347,0,"bgm4_5.wav",70
Sample,105093,0,"sn_roll_1.wav",70
Sample,105093,0,"se_gtr_1.wav",70
Sample,105838,0,"cym.wav",70
Sample,105838,0,"amen_2.wav",70
Sample,105838,0,"hh_1.wav",70
Sample,105838,0,"bgm2_1.wav",70
Sample,105838,0,"kick.wav",70
Sample,105931,0,"hh_2.wav",70
Sample,106024,0,"hh_3.wav",70
Sample,106211,0,"hh_1.wav",70
Sample,106211,0,"kick.wav",70
Sample,106304,0,"hh_2.wav",70
Sample,106397,0,"hh_3.wav",70
Sample,106490,0,"hh_2.wav",70
Sample,106583,0,"kick.wav",70
Sample,106583,0,"hh_1.wav",70
Sample,106677,0,"hh_2.wav",70
Sample,106770,0,"hh_3.wav",70
Sample,106816,0,"syn_5.wav",70
Sample,106863,0,"syn_5.wav",70
Sample,106909,0,"syn_5.wav",70
Sample,106956,0,"kick.wav",70
Sample,106956,0,"hh_1.wav",70
Sample,107049,0,"hh_1.wav",70
Sample,107142,0,"hh_3.wav",70
Sample,107236,0,"syn_7.wav",70
Sample,107236,0,"hh_2.wav",70
Sample,107329,0,"amen_2.wav",70
Sample,107329,0,"hh_1.wav",70
Sample,107329,0,"kick.wav",70
Sample,107422,0,"hh_2.wav",70
Sample,107515,0,"hh_3.wav",70
Sample,107701,0,"hh_1.wav",70
Sample,107701,0,"kick.wav",70
Sample,107795,0,"hh_2.wav",70
Sample,107888,0,"hh_3.wav",70
Sample,108074,0,"kick.wav",70
Sample,108074,0,"hh_1.wav",70
Sample,108167,0,"hh_1.wav",70
Sample,108167,0,"syn_7.wav",70
Sample,108260,0,"hh_3.wav",70
Sample,108354,0,"hh_2.wav",70
Sample,108354,0,"syn_7.wav",70
Sample,108447,0,"hh_1.wav",70
Sample,108447,0,"kick.wav",70
Sample,108540,0,"hh_2.wav",70
Sample,108633,0,"hh_3.wav",70
Sample,108726,0,"syn_12.wav",70
Sample,108726,0,"hh_2.wav",70
Sample,108819,0,"amen_2.wav",70
Sample,108819,0,"hh_1.wav",70
Sample,108819,0,"kick.wav",70
Sample,108913,0,"hh_2.wav",70
Sample,109006,0,"hh_3.wav",70
Sample,109192,0,"hh_1.wav",70
Sample,109192,0,"hh_1.wav",70
Sample,109192,0,"kick.wav",70
Sample,109285,0,"hh_2.wav",70
Sample,109378,0,"hh_3.wav",70
Sample,109472,0,"hh_2.wav",70
Sample,109565,0,"hh_1.wav",70
Sample,109565,0,"hh_1.wav",70
Sample,109565,0,"kick.wav",70
Sample,109658,0,"hh_2.wav",70
Sample,109751,0,"hh_3.wav",70
Sample,109798,0,"syn_5.wav",70
Sample,109844,0,"syn_5.wav",70
Sample,109891,0,"syn_5.wav",70
Sample,109937,0,"hh_1.wav",70
Sample,109937,0,"kick.wav",70
Sample,110031,0,"hh_1.wav",70
Sample,110124,0,"hh_3.wav",70
Sample,110217,0,"hh_2.wav",70
Sample,110217,0,"syn_7.wav",70
Sample,110310,0,"kick.wav",70
Sample,110310,0,"hh_1.wav",70
Sample,110310,0,"hh_1.wav",70
Sample,110310,0,"amen_2.wav",70
Sample,110403,0,"hh_2.wav",70
Sample,110496,0,"hh_3.wav",70
Sample,110683,0,"kick.wav",70
Sample,110683,0,"hh_1.wav",70
Sample,110683,0,"hh_1.wav",70
Sample,110776,0,"hh_2.wav",70
Sample,110869,0,"hh_3.wav",70
Sample,111055,0,"hh_1.wav",70
Sample,111055,0,"hh_1.wav",70
Sample,111055,0,"kick.wav",70
Sample,111149,0,"syn_7.wav",70
Sample,111149,0,"hh_1.wav",70
Sample,111149,0,"hh_1.wav",70
Sample,111242,0,"hh_3.wav",70
Sample,111335,0,"hh_2.wav",70
Sample,111335,0,"syn_7.wav",70
Sample,111428,0,"hh_1.wav",70
Sample,111428,0,"kick.wav",70
Sample,111428,0,"hh_1.wav",70
Sample,111521,0,"hh_2.wav",70
Sample,111614,0,"hh_3.wav",70
Sample,111614,0,"kick.wav",70
Sample,111708,0,"hh_2.wav",70
Sample,111708,0,"syn_12.wav",70
Sample,111801,0,"kick.wav",70
Sample,111801,0,"amen_2.wav",70
Sample,111801,0,"hh_1.wav",70
Sample,111801,0,"bgm2_2.wav",70
Sample,111801,0,"cym.wav",70
Sample,111894,0,"hh_2.wav",70
Sample,111987,0,"hh_3.wav",70
Sample,112173,0,"hh_1.wav",70
Sample,112173,0,"kick.wav",70
Sample,112267,0,"hh_2.wav",70
Sample,112360,0,"hh_3.wav",70
Sample,112453,0,"hh_2.wav",70
Sample,112546,0,"kick.wav",70
Sample,112546,0,"hh_1.wav",70
Sample,112639,0,"hh_2.wav",70
Sample,112732,0,"hh_3.wav",70
Sample,112779,0,"syn_5.wav",70
Sample,112826,0,"syn_5.wav",70
Sample,112872,0,"syn_5.wav",70
Sample,112919,0,"hh_1.wav",70
Sample,112919,0,"kick.wav",70
Sample,113012,0,"hh_1.wav",70
Sample,113105,0,"hh_3.wav",70
Sample,113198,0,"syn_7.wav",70
Sample,113198,0,"hh_2.wav",70
Sample,113291,0,"amen_2.wav",70
Sample,113291,0,"kick.wav",70
Sample,113291,0,"hh_1.wav",70
Sample,113385,0,"hh_2.wav",70
Sample,113478,0,"hh_3.wav",70
Sample,113664,0,"kick.wav",70
Sample,113664,0,"hh_1.wav",70
Sample,113757,0,"hh_2.wav",70
Sample,113850,0,"hh_3.wav",70
Sample,114037,0,"hh_1.wav",70
Sample,114037,0,"kick.wav",70
Sample,114130,0,"syn_7.wav",70
Sample,114130,0,"hh_1.wav",70
Sample,114223,0,"hh_3.wav",70
Sample,114316,0,"syn_7.wav",70
Sample,114316,0,"hh_2.wav",70
Sample,114409,0,"hh_1.wav",70
Sample,114409,0,"kick.wav",70
Sample,114503,0,"hh_2.wav",70
Sample,114596,0,"hh_3.wav",70
Sample,114689,0,"syn_12.wav",70
Sample,114689,0,"hh_2.wav",70
Sample,114782,0,"kick.wav",70
Sample,114782,0,"hh_1.wav",70
Sample,114782,0,"amen_2.wav",70
Sample,114875,0,"hh_2.wav",70
Sample,114968,0,"hh_3.wav",70
Sample,115155,0,"kick.wav",70
Sample,115155,0,"hh_1.wav",70
Sample,115248,0,"hh_2.wav",70
Sample,115341,0,"hh_3.wav",70
Sample,115434,0,"hh_2.wav",70
Sample,115527,0,"hh_1.wav",70
Sample,115527,0,"kick.wav",70
Sample,115621,0,"hh_2.wav",70
Sample,115714,0,"hh_3.wav",70
Sample,115760,0,"syn_5.wav",70
Sample,115807,0,"syn_5.wav",70
Sample,115854,0,"syn_5.wav",70
Sample,115900,0,"hh_1.wav",70
Sample,115900,0,"kick.wav",70
Sample,115993,0,"hh_1.wav",70
Sample,116086,0,"hh_3.wav",70
Sample,116180,0,"hh_2.wav",70
Sample,116180,0,"syn_7.wav",70
Sample,116273,0,"kick.wav",70
Sample,116273,0,"hh_1.wav",70
Sample,116273,0,"amen_2.wav",70
Sample,116366,0,"hh_2.wav",70
Sample,116459,0,"hh_3.wav",70
Sample,116645,0,"kick.wav",70
Sample,116645,0,"hh_1.wav",70
Sample,116739,0,"hh_2.wav",70
Sample,116832,0,"hh_3.wav",70
Sample,117018,0,"cym.wav",70
Sample,117018,0,"snare_roll.wav",70
Sample,117018,0,"hh_1.wav",70
Sample,117080,0,"snare_roll.wav",70
Sample,117111,0,"syn_19.wav",70
Sample,117111,0,"hh_1.wav",70
Sample,117142,0,"snare_roll.wav",70
Sample,117204,0,"hh_3.wav",70
Sample,117204,0,"snare_roll.wav",70
Sample,117298,0,"hh_2.wav",70
Sample,117298,0,"snare_roll.wav",70
Sample,117298,0,"syn_19.wav",70
Sample,117391,0,"snare_roll.wav",70
Sample,117391,0,"hh_1.wav",70
Sample,117484,0,"hh_2.wav",70
Sample,117484,0,"snare_roll.wav",70
Sample,117577,0,"hh_3.wav",70
Sample,117577,0,"snare_roll.wav",70
Sample,117670,0,"hh_2.wav",70
Sample,117670,0,"snare_roll.wav",70
Sample,117670,0,"syn_24.wav",70
Sample,117763,0,"bgm2_1.wav",70
Sample,117763,0,"cym.wav",70
Sample,117763,0,"hh_1.wav",70
Sample,117763,0,"amen_2.wav",70
Sample,117857,0,"hh_2.wav",70
Sample,117950,0,"hh_3.wav",70
Sample,118136,0,"hh_1.wav",70
Sample,118136,0,"sn_clap_1.wav",70
Sample,118229,0,"hh_2.wav",70
Sample,118322,0,"hh_3.wav",70
Sample,118416,0,"hh_2.wav",70
Sample,118416,0,"sn_clap_2.wav",70
Sample,118509,0,"hh_1.wav",70
Sample,118602,0,"hh_2.wav",70
Sample,118695,0,"hh_3.wav",70
Sample,118742,0,"syn_17.wav",70
Sample,118788,0,"syn_17.wav",70
Sample,118835,0,"syn_17.wav",70
Sample,118881,0,"sn_clap_1.wav",70
Sample,118881,0,"hh_1.wav",70
Sample,118975,0,"hh_1.wav",70
Sample,119068,0,"hh_3.wav",70
Sample,119161,0,"syn_19.wav",70
Sample,119161,0,"hh_2.wav",70
Sample,119254,0,"hh_1.wav",70
Sample,119254,0,"amen_2.wav",70
Sample,119347,0,"hh_2.wav",70
Sample,119440,0,"hh_3.wav",70
Sample,119627,0,"hh_1.wav",70
Sample,119627,0,"sn_clap_1.wav",70
Sample,119720,0,"hh_2.wav",70
Sample,119813,0,"hh_3.wav",70
Sample,119906,0,"sn_clap_2.wav",70
Sample,120000,0,"hh_1.wav",70
Sample,120093,0,"sn_clap_2.wav",70
Sample,120093,0,"hh_1.wav",70
Sample,120093,0,"syn_19.wav",70
Sample,120186,0,"hh_3.wav",70
Sample,120279,0,"syn_19.wav",70
Sample,120279,0,"hh_2.wav",70
Sample,120372,0,"sn_clap_1.wav",70
Sample,120372,0,"hh_1.wav",70
Sample,120465,0,"hh_2.wav",70
Sample,120559,0,"hh_3.wav",70
Sample,120652,0,"syn_24.wav",70
Sample,120652,0,"hh_2.wav",70
Sample,120745,0,"hh_1.wav",70
Sample,120745,0,"amen_2.wav",70
Sample,120838,0,"hh_2.wav",70
Sample,120931,0,"hh_3.wav",70
Sample,121118,0,"sn_clap_1.wav",70
Sample,121118,0,"hh_1.wav",70
Sample,121211,0,"hh_2.wav",70
Sample,121304,0,"hh_3.wav",70
Sample,121397,0,"hh_2.wav",70
Sample,121490,0,"hh_1.wav",70
Sample,121583,0,"sn_clap_2.wav",70
Sample,121583,0,"hh_2.wav",70
Sample,121677,0,"hh_3.wav",70
Sample,121723,0,"syn_17.wav",70
Sample,121770,0,"syn_17.wav",70
Sample,121816,0,"syn_17.wav",70
Sample,121863,0,"sn_clap_1.wav",70
Sample,121863,0,"hh_1.wav",70
Sample,121956,0,"hh_1.wav",70
Sample,122049,0,"hh_3.wav",70
Sample,122142,0,"syn_19.wav",70
Sample,122142,0,"hh_2.wav",70
Sample,122236,0,"amen_2.wav",70
Sample,122236,0,"hh_1.wav",70
Sample,122329,0,"hh_2.wav",70
Sample,122422,0,"hh_3.wav",70
Sample,122422,0,"bgm1_1.wav",70
Sample,122608,0,"sn_clap_1.wav",70
Sample,122608,0,"hh_1.wav",70
Sample,122701,0,"hh_2.wav",70
Sample,122795,0,"hh_3.wav",70
Sample,122888,0,"sn_clap_2.wav",70
Sample,122981,0,"hh_1.wav",70
Sample,123074,0,"syn_19.wav",70
Sample,123074,0,"sn_clap_2.wav",70
Sample,123074,0,"hh_1.wav",70
Sample,123167,0,"hh_3.wav",70
Sample,123260,0,"syn_19.wav",70
Sample,123260,0,"hh_2.wav",70
Sample,123354,0,"hh_1.wav",70
Sample,123354,0,"sn_clap_1.wav",70
Sample,123447,0,"hh_2.wav",70
Sample,123540,0,"hh_3.wav",70
Sample,123633,0,"sn_clap_2.wav",70
Sample,123633,0,"syn_24.wav",70
Sample,123633,0,"hh_2.wav",70
Sample,123726,0,"hh_1.wav",70
Sample,123726,0,"bgm2_3.wav",70
Sample,123726,0,"cym.wav",70
Sample,123726,0,"amen_2.wav",70
Sample,123819,0,"hh_2.wav",70
Sample,123913,0,"hh_3.wav",70
Sample,124099,0,"sn_clap_1.wav",70
Sample,124099,0,"hh_1.wav",70
Sample,124192,0,"hh_2.wav",70
Sample,124285,0,"hh_3.wav",70
Sample,124378,0,"sn_clap_2.wav",70
Sample,124378,0,"hh_2.wav",70
Sample,124472,0,"hh_1.wav",70
Sample,124565,0,"hh_2.wav",70
Sample,124658,0,"hh_3.wav",70
Sample,124704,0,"syn_17.wav",70
Sample,124751,0,"syn_17.wav",70
Sample,124798,0,"syn_17.wav",70
Sample,124844,0,"sn_clap_1.wav",70
Sample,124844,0,"hh_1.wav",70
Sample,124937,0,"hh_1.wav",70
Sample,125031,0,"hh_3.wav",70
Sample,125124,0,"syn_19.wav",70
Sample,125124,0,"hh_2.wav",70
Sample,125217,0,"hh_1.wav",70
Sample,125217,0,"amen_2.wav",70
Sample,125310,0,"hh_2.wav",70
Sample,125403,0,"hh_3.wav",70
Sample,125590,0,"sn_clap_1.wav",70
Sample,125590,0,"hh_1.wav",70
Sample,125683,0,"hh_2.wav",70
Sample,125776,0,"hh_3.wav",70
Sample,125869,0,"sn_clap_2.wav",70
Sample,125962,0,"hh_1.wav",70
Sample,126055,0,"syn_19.wav",70
Sample,126055,0,"hh_1.wav",70
Sample,126055,0,"sn_clap_2.wav",70
Sample,126149,0,"hh_3.wav",70
Sample,126242,0,"hh_2.wav",70
Sample,126242,0,"syn_19.wav",70
Sample,126335,0,"sn_clap_1.wav",70
Sample,126335,0,"hh_1.wav",70
Sample,126428,0,"hh_2.wav",70
Sample,126521,0,"hh_3.wav",70
Sample,126614,0,"syn_24.wav",70
Sample,126614,0,"hh_2.wav",70
Sample,126708,0,"amen_2.wav",70
Sample,126708,0,"hh_1.wav",70
Sample,126708,0,"cym.wav",70
Sample,126708,0,"cym_revrs.wav",70
Sample,126801,0,"hh_2.wav",70
Sample,126801,0,"snare_roll.wav",70
Sample,126894,0,"snare_roll.wav",70
Sample,126894,0,"hh_3.wav",70
Sample,126987,0,"snare_roll.wav",70
Sample,127080,0,"hh_1.wav",70
Sample,127080,0,"snare_roll.wav",70
Sample,127173,0,"snare_roll.wav",70
Sample,127173,0,"hh_2.wav",70
Sample,127267,0,"snare_roll.wav",70
Sample,127267,0,"hh_3.wav",70
Sample,127360,0,"hh_2.wav",70
Sample,127360,0,"snare_roll.wav",70
Sample,127453,0,"snare_roll.wav",70
Sample,127453,0,"hh_1.wav",70
Sample,127546,0,"hh_2.wav",70
Sample,127546,0,"snare_roll.wav",70
Sample,127639,0,"snare_roll.wav",70
Sample,127639,0,"hh_3.wav",70
Sample,127686,0,"syn_17.wav",70
Sample,127732,0,"syn_17.wav",70
Sample,127732,0,"snare_roll.wav",70
Sample,127779,0,"syn_17.wav",70
Sample,127826,0,"hh_1.wav",70
Sample,127826,0,"snare_roll.wav",70
Sample,127919,0,"hh_1.wav",70
Sample,127919,0,"snare_roll.wav",70
Sample,128012,0,"hh_3.wav",70
Sample,128012,0,"snare_roll.wav",70
Sample,128105,0,"snare_roll.wav",70
Sample,128105,0,"syn_19.wav",70
Sample,128105,0,"hh_2.wav",70
Sample,128198,0,"cym.wav",70
Sample,128198,0,"hh_1.wav",70
Sample,128198,0,"kick.wav",70
Sample,128198,0,"amen_1.wav",70
Sample,128291,0,"hh_2.wav",70
Sample,128291,0,"kick.wav",70
Sample,128385,0,"hh_1.wav",70
Sample,128385,0,"hh_3.wav",70
Sample,128478,0,"cym.wav",70
Sample,128478,0,"kick.wav",70
Sample,128571,0,"hh_1.wav",70
Sample,128571,0,"kick.wav",70
Sample,128664,0,"hh_3.wav",70
Sample,128664,0,"hh_2.wav",70
Sample,128757,0,"cym.wav",70
Sample,128757,0,"kick.wav",70
Sample,128757,0,"hh_1.wav",70
Sample,128850,0,"last.wav",70
Sample,128850,0,"deep.wav",70
Sample,128850,0,"se1.wav",70
Sample,128850,0,"kick.wav",70
//Background Colour Transformations
3,100,163,162,255

[TimingPoints]
0,372.670807453416,4,2,0,70,1,0

[HitObjects]
36,192,1490,1,0,0:0:0:0:se1.wav
256,192,1490,1,0,0:0:0:0:kick.wav
256,192,1770,1,0,0:0:0:0:kick.wav
256,192,2049,1,0,0:0:0:0:kick.wav
256,192,2981,1,0,0:0:0:0:kick.wav
256,192,3260,1,0,0:0:0:0:kick.wav
256,192,3540,1,0,0:0:0:0:kick.wav
256,192,4472,1,0,0:0:0:0:kick.wav
256,192,4751,1,0,0:0:0:0:kick.wav
256,192,5031,1,0,0:0:0:0:kick.wav
256,192,5962,1,0,0:0:0:0:kick.wav
256,192,6242,1,0,0:0:0:0:kick.wav
329,192,6521,1,0,0:0:0:0:kick.wav
182,192,6708,1,0,0:0:0:0:kick.wav
329,192,6894,1,0,0:0:0:0:kick.wav
182,192,7080,1,0,0:0:0:0:kick.wav
256,192,7453,1,0,0:0:0:0:kick.wav
256,192,7732,1,0,0:0:0:0:kick.wav
256,192,8012,1,0,0:0:0:0:kick.wav
475,192,8198,1,0,0:0:0:0:amen_1.wav
256,192,8944,1,0,0:0:0:0:kick.wav
256,192,9223,1,0,0:0:0:0:kick.wav
256,192,9503,1,0,0:0:0:0:kick.wav
475,192,9689,1,0,0:0:0:0:amen_1.wav
256,192,10434,1,0,0:0:0:0:kick.wav
256,192,10714,1,0,0:0:0:0:kick.wav
256,192,10993,1,0,0:0:0:0:kick.wav
475,192,11180,1,0,0:0:0:0:amen_1.wav
256,192,11925,1,0,0:0:0:0:kick.wav
256,192,12204,1,0,0:0:0:0:kick.wav
329,192,12484,1,0,0:0:0:0:kick.wav
182,192,12670,1,0,0:0:0:0:kick.wav
329,192,12857,1,0,0:0:0:0:kick.wav
182,192,13043,1,0,0:0:0:0:kick.wav
36,192,13416,1,0,0:0:0:0:kick.wav
475,192,13788,1,0,0:0:0:0:kick.wav
36,192,14161,1,0,0:0:0:0:kick.wav
475,192,14534,1,0,0:0:0:0:kick.wav
109,192,14906,1,0,0:0:0:0:kick.wav
402,192,15279,1,0,0:0:0:0:kick.wav
109,192,15652,1,0,0:0:0:0:kick.wav
402,192,16024,1,0,0:0:0:0:kick.wav
182,192,16397,1,0,0:0:0:0:kick.wav
329,192,16770,1,0,0:0:0:0:kick.wav
182,192,17142,1,0,0:0:0:0:kick.wav
329,192,17515,1,0,0:0:0:0:kick.wav
109,192,17888,1,0,0:0:0:0:kick.wav
402,192,18260,1,0,0:0:0:0:kick.wav
36,192,18633,1,0,0:0:0:0:kick.wav
475,192,18819,1,0,0:0:0:0:kick.wav
36,192,19006,1,0,0:0:0:0:kick.wav
475,192,19192,1,0,0:0:0:0:kick.wav
256,192,19378,1,0,0:0:0:0:cym.wav
256,192,20869,1,0,0:0:0:0:cym.wav
256,192,22360,1,0,0:0:0:0:cym_revrs.wav
36,192,23850,1,0,0:0:0:0:kick.wav
475,192,23850,1,0,0:0:0:0:deep.wav
256,192,23850,128,0,24968:0:0:0:0:bgm1_3.wav
329,192,24968,1,0,0:0:0:0:vo_go.wav
109,192,25341,1,0,0:0:0:0:syn_1.wav
256,192,25527,1,0,0:0:0:0:syn_2.wav
402,192,25714,1,0,0:0:0:0:syn_3.wav
475,192,25900,1,0,0:0:0:0:syn_4.wav
402,192,26086,1,0,0:0:0:0:syn_3.wav
329,192,26273,1,0,0:0:0:0:syn_5.wav
36,192,26459,1,0,0:0:0:0:syn_1.wav
182,192,26645,1,0,0:0:0:0:syn_6.wav
256,192,26832,1,0,0:0:0:0:syn_3.wav
475,192,27018,1,0,0:0:0:0:syn_8.wav
402,192,27204,1,0,0:0:0:0:syn_3.wav
329,192,27391,1,0,0:0:0:0:syn_2.wav
256,192,27577,1,0,0:0:0:0:syn_9.wav
329,192,27763,1,0,0:0:0:0:syn_10.wav
256,192,27950,1,0,0:0:0:0:syn_11.wav
182,192,28136,1,0,0:0:0:0:syn_12.wav
256,192,28322,1,0,0:0:0:0:syn_1.wav
329,192,28509,1,0,0:0:0:0:syn_2.wav
402,192,28695,1,0,0:0:0:0:syn_3.wav
475,192,28881,1,0,0:0:0:0:syn_4.wav
402,192,29068,1,0,0:0:0:0:syn_3.wav
329,192,29254,1,0,0:0:0:0:syn_5.wav
36,192,29440,1,0,0:0:0:0:syn_1.wav
182,192,29627,1,0,0:0:0:0:syn_6.wav
402,192,29813,1,0,0:0:0:0:syn_3.wav
475,192,30000,1,0,0:0:0:0:syn_8.wav
402,192,30186,1,0,0:0:0:0:syn_3.wav
329,192,30372,1,0,0:0:0:0:syn_2.wav
182,192,30559,1,0,0:0:0:0:syn_9.wav
402,192,30745,1,0,0:0:0:0:syn_10.wav
182,192,30931,1,0,0:0:0:0:syn_11.wav
36,192,31118,1,0,0:0:0:0:syn_12.wav
475,192,31304,1,0,0:0:0:0:syn_1.wav
329,192,31490,1,0,0:0:0:0:syn_2.wav
256,192,31677,1,0,0:0:0:0:syn_3.wav
36,192,31863,1,0,0:0:0:0:syn_4.wav
109,192,32049,1,0,0:0:0:0:syn_3.wav
182,192,32236,1,0,0:0:0:0:syn_5.wav
475,192,32422,1,0,0:0:0:0:syn_1.wav
402,192,32608,1,0,0:0:0:0:syn_6.wav
256,192,32795,1,0,0:0:0:0:syn_3.wav
182,192,32981,1,0,0:0:0:0:syn_8.wav
256,192,33167,1,0,0:0:0:0:syn_3.wav
329,192,33354,1,0,0:0:0:0:syn_2.wav
182,192,33540,1,0,0:0:0:0:syn_9.wav
36,192,33726,1,0,0:0:0:0:syn_10.wav
182,192,33913,1,0,0:0:0:0:syn_11.wav
256,192,34099,1,0,0:0:0:0:syn_12.wav
36,192,34285,1,0,0:0:0:0:syn_1.wav
182,192,34472,1,0,0:0:0:0:syn_2.wav
402,192,34658,1,0,0:0:0:0:syn_3.wav
475,192,34844,1,0,0:0:0:0:syn_4.wav
402,192,35031,1,0,0:0:0:0:syn_3.wav
182,192,35217,1,0,0:0:0:0:syn_5.wav
109,192,35403,1,0,0:0:0:0:syn_1.wav
256,192,35590,1,0,0:0:0:0:syn_6.wav
402,192,35776,1,0,0:0:0:0:syn_3.wav
475,192,35962,1,0,0:0:0:0:syn_8.wav
402,192,36149,1,0,0:0:0:0:syn_3.wav
329,192,36335,1,0,0:0:0:0:syn_2.wav
36,192,36521,1,0,0:0:0:0:kick.wav
256,192,36521,1,0,0:0:0:0:syn_21.wav
402,192,36708,1,0,0:0:0:0:syn_22.wav
36,192,36894,1,0,0:0:0:0:kick.wav
256,192,36894,1,0,0:0:0:0:syn_23.wav
109,192,37080,1,0,0:0:0:0:kick.wav
182,192,37080,1,0,0:0:0:0:syn_24.wav
36,192,37267,1,0,0:0:0:0:kick.wav
256,192,37267,1,0,0:0:0:0:syn_13.wav
329,192,37453,1,0,0:0:0:0:syn_14.wav
36,192,37639,1,0,0:0:0:0:kick.wav
402,192,37639,1,0,0:0:0:0:syn_15.wav
475,192,37826,1,0,0:0:0:0:syn_16.wav
36,192,38012,1,0,0:0:0:0:kick.wav
402,192,38012,1,0,0:0:0:0:syn_15.wav
475,192,38198,1,0,0:0:0:0:syn_17.wav
36,192,38385,1,0,0:0:0:0:kick.wav
109,192,38385,1,0,0:0:0:0:syn_13.wav
182,192,38571,1,0,0:0:0:0:syn_18.wav
36,192,38757,1,0,0:0:0:0:kick.wav
402,192,38757,1,0,0:0:0:0:syn_15.wav
475,192,38944,1,0,0:0:0:0:syn_20.wav
36,192,39130,1,0,0:0:0:0:kick.wav
402,192,39130,1,0,0:0:0:0:syn_15.wav
329,192,39316,1,0,0:0:0:0:syn_14.wav
36,192,39503,1,0,0:0:0:0:kick.wav
402,192,39503,1,0,0:0:0:0:syn_21.wav
475,192,39689,1,0,0:0:0:0:syn_22.wav
36,192,39875,1,0,0:0:0:0:kick.wav
402,192,39875,1,0,0:0:0:0:syn_23.wav
182,192,40062,1,0,0:0:0:0:syn_24.wav
36,192,40248,1,0,0:0:0:0:kick.wav
256,192,40248,1,0,0:0:0:0:syn_13.wav
329,192,40434,1,0,0:0:0:0:syn_14.wav
36,192,40621,1,0,0:0:0:0:kick.wav
402,192,40621,1,0,0:0:0:0:syn_15.wav
475,192,40807,1,0,0:0:0:0:syn_16.wav
36,192,40993,1,0,0:0:0:0:kick.wav
402,192,40993,1,0,0:0:0:0:syn_15.wav
256,192,41180,1,0,0:0:0:0:syn_17.wav
36,192,41366,1,0,0:0:0:0:kick.wav
109,192,41366,1,0,0:0:0:0:syn_13.wav
256,192,41552,1,0,0:0:0:0:syn_18.wav
36,192,41739,1,0,0:0:0:0:kick.wav
402,192,41739,1,0,0:0:0:0:syn_15.wav
475,192,41925,1,0,0:0:0:0:syn_20.wav
36,192,42111,1,0,0:0:0:0:kick.wav
402,192,42111,1,0,0:0:0:0:syn_15.wav
329,192,42298,1,0,0:0:0:0:syn_14.wav
36,192,42484,1,0,0:0:0:0:kick.wav
402,192,42484,1,0,0:0:0:0:syn_21.wav
475,192,42670,1,0,0:0:0:0:syn_22.wav
36,192,42857,1,0,0:0:0:0:kick.wav
402,192,42857,1,0,0:0:0:0:syn_23.wav
36,192,43043,1,0,0:0:0:0:kick.wav
256,192,43043,1,0,0:0:0:0:syn_24.wav
36,192,43229,1,0,0:0:0:0:kick.wav
109,192,43229,1,0,0:0:0:0:syn_13.wav
182,192,43416,1,0,0:0:0:0:syn_14.wav
36,192,43602,1,0,0:0:0:0:kick.wav
256,192,43602,1,0,0:0:0:0:syn_15.wav
475,192,43788,1,0,0:0:0:0:syn_16.wav
36,192,43975,1,0,0:0:0:0:kick.wav
402,192,43975,1,0,0:0:0:0:syn_15.wav
329,192,44161,1,0,0:0:0:0:syn_17.wav
36,192,44347,1,0,0:0:0:0:kick.wav
109,192,44347,1,0,0:0:0:0:syn_13.wav
182,192,44534,1,0,0:0:0:0:syn_18.wav
36,192,44720,1,0,0:0:0:0:kick.wav
256,192,44720,1,0,0:0:0:0:syn_15.wav
475,192,44906,1,0,0:0:0:0:syn_20.wav
36,192,45093,1,0,0:0:0:0:kick.wav
402,192,45093,1,0,0:0:0:0:syn_15.wav
329,192,45279,1,0,0:0:0:0:syn_14.wav
36,192,45465,1,0,0:0:0:0:kick.wav
402,192,45465,1,0,0:0:0:0:syn_21.wav
475,192,45652,1,0,0:0:0:0:syn_22.wav
36,192,45838,1,0,0:0:0:0:kick.wav
402,192,45838,1,0,0:0:0:0:syn_23.wav
109,192,46024,1,0,0:0:0:0:syn_24.wav
36,192,46211,1,0,0:0:0:0:kick.wav
182,192,46211,1,0,0:0:0:0:syn_13.wav
329,192,46397,1,0,0:0:0:0:syn_14.wav
36,192,46583,1,0,0:0:0:0:sn_clap_1.wav
402,192,46583,1,0,0:0:0:0:syn_15.wav
475,192,46770,1,0,0:0:0:0:syn_16.wav
402,192,46956,1,0,0:0:0:0:syn_15.wav
475,192,47142,1,0,0:0:0:0:syn_17.wav
109,192,47329,1,0,0:0:0:0:syn_13.wav
329,192,47515,1,0,0:0:0:0:syn_18.wav
109,192,47701,1,0,0:0:0:0:hit_1.wav
475,192,47795,1,0,0:0:0:0:hit_2.wav
109,192,47981,1,0,0:0:0:0:hit_1.wav
475,192,48074,1,0,0:0:0:0:hit_2.wav
109,192,48260,1,0,0:0:0:0:hit_1.wav
475,192,48354,1,0,0:0:0:0:hit_2.wav
36,192,48633,1,0,0:0:0:0:kick.wav
182,192,48726,1,0,0:0:0:0:kick.wav
36,192,48819,1,0,0:0:0:0:kick.wav
475,192,48819,1,0,0:0:0:0:claprev.wav
329,192,49006,1,0,0:0:0:0:kick.wav
36,192,49192,1,0,0:0:0:0:kick.wav
475,192,49192,1,0,0:0:0:0:cym.wav
36,192,49565,1,0,0:0:0:0:kick.wav
36,192,49937,1,0,0:0:0:0:kick.wav
36,192,50310,1,0,0:0:0:0:kick.wav
109,192,50683,1,0,0:0:0:0:kick.wav
109,192,51055,1,0,0:0:0:0:kick.wav
109,192,51428,1,0,0:0:0:0:kick.wav
109,192,51801,1,0,0:0:0:0:kick.wav
182,192,52173,1,0,0:0:0:0:kick.wav
182,192,52546,1,0,0:0:0:0:kick.wav
182,192,52919,1,0,0:0:0:0:kick.wav
182,192,53291,1,0,0:0:0:0:kick.wav
256,192,53664,1,0,0:0:0:0:kick.wav
256,192,54037,1,0,0:0:0:0:kick.wav
256,192,54409,1,0,0:0:0:0:kick.wav
329,192,54782,1,0,0:0:0:0:kick.wav
182,192,54968,1,0,0:0:0:0:kick.wav
329,192,55155,1,0,0:0:0:0:kick.wav
329,192,55527,1,0,0:0:0:0:kick.wav
329,192,55900,1,0,0:0:0:0:kick.wav
329,192,56273,1,0,0:0:0:0:kick.wav
402,192,56645,1,0,0:0:0:0:kick.wav
402,192,57018,1,0,0:0:0:0:kick.wav
402,192,57391,1,0,0:0:0:0:kick.wav
402,192,57763,1,0,0:0:0:0:kick.wav
256,192,58136,1,0,0:0:0:0:sn_roll_2.wav
256,192,59440,1,0,0:0:0:0:lead_1.wav
36,192,59627,1,0,0:0:0:0:kick.wav
329,192,59906,1,0,0:0:0:0:lead_2.wav
36,192,60000,1,0,0:0:0:0:kick.wav
402,192,60186,1,0,0:0:0:0:lead_3.wav
36,192,60372,1,0,0:0:0:0:kick.wav
329,192,60372,1,0,0:0:0:0:lead_4.wav
402,192,60652,1,0,0:0:0:0:lead_5.wav
36,192,60745,1,0,0:0:0:0:kick.wav
329,192,60931,1,0,0:0:0:0:lead_3.wav
36,192,61118,1,0,0:0:0:0:kick.wav
182,192,61118,1,0,0:0:0:0:lead_2.wav
402,192,61397,1,0,0:0:0:0:lead_6.wav
36,192,61490,1,0,0:0:0:0:kick.wav
329,192,61677,1,0,0:0:0:0:lead_7.wav
36,192,61863,1,0,0:0:0:0:kick.wav
475,192,61863,1,0,0:0:0:0:lead_8.wav
402,192,62142,1,0,0:0:0:0:lead_9.wav
36,192,62236,1,0,0:0:0:0:kick.wav
182,192,62422,1,0,0:0:0:0:lead_10.wav
36,192,62608,1,0,0:0:0:0:kick.wav
329,192,62608,1,0,0:0:0:0:lead_11.wav
475,192,62888,1,0,0:0:0:0:lead_6.wav
36,192,62981,1,0,0:0:0:0:kick.wav
402,192,63167,1,0,0:0:0:0:lead_7.wav
36,192,63354,1,0,0:0:0:0:kick.wav
329,192,63354,1,0,0:0:0:0:lead_8.wav
256,192,63633,1,0,0:0:0:0:lead_9.wav
36,192,63726,1,0,0:0:0:0:kick.wav
329,192,63913,1,0,0:0:0:0:lead_12.wav
36,192,64099,1,0,0:0:0:0:kick.wav
402,192,64099,1,0,0:0:0:0:lead_13.wav
36,192,64472,1,0,0:0:0:0:kick.wav
256,192,64658,1,0,0:0:0:0:lead_14.wav
36,192,64844,1,0,0:0:0:0:kick.wav
36,192,65217,1,0,0:0:0:0:kick.wav
36,192,65403,1,0,0:0:0:0:kick.wav
36,192,65590,1,0,0:0:0:0:kick.wav
256,192,65590,1,0,0:0:0:0:lead_15.wav
475,192,65590,1,0,0:0:0:0:cym.wav
256,192,65869,1,0,0:0:0:0:lead_16.wav
36,192,65962,1,0,0:0:0:0:kick.wav
329,192,66149,1,0,0:0:0:0:lead_12.wav
36,192,66335,1,0,0:0:0:0:kick.wav
402,192,66335,1,0,0:0:0:0:lead_17.wav
36,192,66708,1,0,0:0:0:0:kick.wav
36,192,67080,1,0,0:0:0:0:kick.wav
256,192,67080,1,0,0:0:0:0:lead_16.wav
329,192,67360,1,0,0:0:0:0:lead_18.wav
36,192,67453,1,0,0:0:0:0:kick.wav
402,192,67639,1,0,0:0:0:0:lead_10.wav
36,192,67826,1,0,0:0:0:0:kick.wav
475,192,67826,1,0,0:0:0:0:lead_9.wav
402,192,68105,1,0,0:0:0:0:lead_19.wav
36,192,68198,1,0,0:0:0:0:kick.wav
475,192,68385,1,0,0:0:0:0:lead_20.wav
36,192,68571,1,0,0:0:0:0:cym_revrs.wav
475,192,68571,1,0,0:0:0:0:cym.wav
256,192,70062,1,0,0:0:0:0:kick.wav
36,192,71180,1,0,0:0:0:0:vo_hi.wav
182,192,71180,1,0,0:0:0:0:kick.wav
329,192,71180,1,0,0:0:0:0:hit_11.wav
475,192,71180,1,0,0:0:0:0:sn_clap_1.wav
109,192,72670,1,0,0:0:0:0:vo_hi.wav
182,192,72670,1,0,0:0:0:0:kick.wav
329,192,72670,1,0,0:0:0:0:hit_11.wav
402,192,72670,1,0,0:0:0:0:sn_clap_1.wav
36,192,75652,1,0,0:0:0:0:vo_hi.wav
109,192,75652,1,0,0:0:0:0:kick.wav
402,192,75652,1,0,0:0:0:0:hit_12.wav
475,192,75652,1,0,0:0:0:0:sn_clap_1.wav
109,192,77142,1,0,0:0:0:0:vo_hi.wav
182,192,77142,1,0,0:0:0:0:kick.wav
256,192,77142,1,0,0:0:0:0:hit_11.wav
329,192,77142,1,0,0:0:0:0:sn_clap_1.wav
182,192,78633,1,0,0:0:0:0:vo_hi.wav
256,192,78633,1,0,0:0:0:0:kick.wav
329,192,78633,1,0,0:0:0:0:hit_11.wav
402,192,78633,1,0,0:0:0:0:sn_clap_1.wav
256,192,80496,1,0,0:0:0:0:sn_roll_2.wav
329,192,82173,1,0,0:0:0:0:vo_ho_r.wav
36,192,82546,1,0,0:0:0:0:vo_ho_l.wav
475,192,82919,1,0,0:0:0:0:vo_ho_r.wav
36,192,83291,1,0,0:0:0:0:vo_ho_l.wav
475,192,83664,1,0,0:0:0:0:vo_ho_r.wav
109,192,84037,1,0,0:0:0:0:vo_ho_l.wav
402,192,84409,1,0,0:0:0:0:vo_ho_r.wav
109,192,84782,1,0,0:0:0:0:vo_ho_l.wav
402,192,85155,1,0,0:0:0:0:vo_ho_r.wav
182,192,85527,1,0,0:0:0:0:vo_ho_l.wav
329,192,85900,1,0,0:0:0:0:vo_ho_r.wav
182,192,86273,1,0,0:0:0:0:vo_ho_l.wav
329,192,86645,1,0,0:0:0:0:vo_ho_r.wav
109,192,87018,1,0,0:0:0:0:vo_ho_l.wav
402,192,87391,1,0,0:0:0:0:vo_ho_r.wav
36,192,87763,1,0,0:0:0:0:vo_ho_l.wav
475,192,88136,1,0,0:0:0:0:vo_ho_r.wav
36,192,88509,1,0,0:0:0:0:vo_ho_l.wav
402,192,88881,1,0,0:0:0:0:vo_ho_r.wav
36,192,89254,1,0,0:0:0:0:vo_ho_l.wav
329,192,89627,1,0,0:0:0:0:vo_ho_r.wav
109,192,90000,1,0,0:0:0:0:vo_ho_l.wav
329,192,90372,1,0,0:0:0:0:vo_ho_r.wav
182,192,90745,1,0,0:0:0:0:vo_ho_l.wav
329,192,91118,1,0,0:0:0:0:vo_ho_r.wav
182,192,91490,1,0,0:0:0:0:vo_ho_l.wav
402,192,91863,1,0,0:0:0:0:vo_ho_r.wav
182,192,92236,1,0,0:0:0:0:vo_ho_l.wav
475,192,92608,1,0,0:0:0:0:vo_ho_r.wav
109,192,92981,1,0,0:0:0:0:vo_ho_l.wav
475,192,93354,1,0,0:0:0:0:vo_ho_r.wav
109,192,93913,1,0,0:0:0:0:kick.wav
402,192,93913,1,0,0:0:0:0:se1.wav
109,192,94285,1,0,0:0:0:0:kick.wav
109,192,94658,1,0,0:0:0:0:kick.wav
109,192,95031,1,0,0:0:0:0:kick.wav
329,192,95031,1,0,0:0:0:0:hit_11.wav
182,192,95403,1,0,0:0:0:0:kick.wav
182,192,95776,1,0,0:0:0:0:kick.wav
182,192,96149,1,0,0:0:0:0:kick.wav
182,192,96521,1,0,0:0:0:0:kick.wav
402,192,96521,1,0,0:0:0:0:hit_11.wav
36,192,96894,1,0,0:0:0:0:kick.wav
475,192,97267,1,0,0:0:0:0:kick.wav
36,192,97639,1,0,0:0:0:0:kick.wav
475,192,98012,1,0,0:0:0:0:kick.wav
36,192,98385,1,0,0:0:0:0:kick.wav
475,192,98757,1,0,0:0:0:0:kick.wav
36,192,99130,1,0,0:0:0:0:kick.wav
256,192,99503,1,0,0:0:0:0:hit_12.wav
475,192,99503,1,0,0:0:0:0:kick.wav
109,192,99875,1,0,0:0:0:0:kick.wav
402,192,100248,1,0,0:0:0:0:kick.wav
109,192,100621,1,0,0:0:0:0:kick.wav
256,192,100993,1,0,0:0:0:0:hit_11.wav
402,192,100993,1,0,0:0:0:0:kick.wav
182,192,101366,1,0,0:0:0:0:kick.wav
329,192,101739,1,0,0:0:0:0:kick.wav
182,192,102111,1,0,0:0:0:0:kick.wav
256,192,102484,1,0,0:0:0:0:hit_11.wav
329,192,102484,1,0,0:0:0:0:kick.wav
109,192,102857,1,0,0:0:0:0:kick.wav
402,192,103229,1,0,0:0:0:0:kick.wav
36,192,103602,1,0,0:0:0:0:kick.wav
475,192,103975,1,0,0:0:0:0:kick.wav
182,192,104347,1,0,0:0:0:0:kick.wav
256,192,104347,1,0,0:0:0:0:deep.wav
329,192,104347,1,0,0:0:0:0:cym.wav
109,192,105465,1,0,0:0:0:0:vo_go.wav
402,192,105465,1,0,0:0:0:0:claprev.wav
36,192,105838,1,0,0:0:0:0:hit_10.wav
109,192,105838,1,0,0:0:0:0:syn_1.wav
182,192,106024,1,0,0:0:0:0:syn_2.wav
329,192,106211,1,0,0:0:0:0:syn_3.wav
475,192,106397,1,0,0:0:0:0:syn_4.wav
329,192,106583,1,0,0:0:0:0:syn_3.wav
182,192,106770,1,0,0:0:0:0:syn_5.wav
109,192,106956,1,0,0:0:0:0:syn_1.wav
182,192,107142,1,0,0:0:0:0:syn_6.wav
329,192,107329,1,0,0:0:0:0:syn_3.wav
475,192,107515,1,0,0:0:0:0:syn_8.wav
329,192,107701,1,0,0:0:0:0:syn_3.wav
256,192,107888,1,0,0:0:0:0:syn_2.wav
109,192,108074,1,0,0:0:0:0:syn_9.wav
256,192,108260,1,0,0:0:0:0:syn_10.wav
182,192,108447,1,0,0:0:0:0:syn_11.wav
109,192,108633,1,0,0:0:0:0:syn_12.wav
182,192,108819,1,0,0:0:0:0:syn_1.wav
329,192,109006,1,0,0:0:0:0:syn_2.wav
402,192,109192,1,0,0:0:0:0:syn_3.wav
475,192,109378,1,0,0:0:0:0:syn_4.wav
402,192,109565,1,0,0:0:0:0:syn_3.wav
182,192,109751,1,0,0:0:0:0:syn_5.wav
109,192,109937,1,0,0:0:0:0:syn_1.wav
329,192,110124,1,0,0:0:0:0:syn_6.wav
402,192,110310,1,0,0:0:0:0:syn_3.wav
475,192,110496,1,0,0:0:0:0:syn_8.wav
402,192,110683,1,0,0:0:0:0:syn_3.wav
329,192,110869,1,0,0:0:0:0:syn_2.wav
182,192,111055,1,0,0:0:0:0:syn_9.wav
256,192,111242,1,0,0:0:0:0:syn_10.wav
182,192,111428,1,0,0:0:0:0:syn_11.wav
109,192,111614,1,0,0:0:0:0:syn_12.wav
36,192,111801,1,0,0:0:0:0:syn_1.wav
182,192,111987,1,0,0:0:0:0:syn_2.wav
329,192,112173,1,0,0:0:0:0:syn_3.wav
475,192,112360,1,0,0:0:0:0:syn_4.wav
329,192,112546,1,0,0:0:0:0:syn_3.wav
109,192,112732,1,0,0:0:0:0:syn_5.wav
36,192,112919,1,0,0:0:0:0:syn_1.wav
182,192,113105,1,0,0:0:0:0:syn_6.wav
329,192,113291,1,0,0:0:0:0:syn_3.wav
475,192,113478,1,0,0:0:0:0:syn_8.wav
329,192,113664,1,0,0:0:0:0:syn_3.wav
256,192,113850,1,0,0:0:0:0:syn_2.wav
182,192,114037,1,0,0:0:0:0:syn_9.wav
475,192,114223,1,0,0:0:0:0:syn_10.wav
182,192,114409,1,0,0:0:0:0:syn_11.wav
109,192,114596,1,0,0:0:0:0:syn_12.wav
182,192,114782,1,0,0:0:0:0:syn_1.wav
256,192,114968,1,0,0:0:0:0:syn_2.wav
329,192,115155,1,0,0:0:0:0:syn_3.wav
475,192,115341,1,0,0:0:0:0:syn_4.wav
329,192,115527,1,0,0:0:0:0:syn_3.wav
256,192,115714,1,0,0:0:0:0:syn_5.wav
36,192,115900,1,0,0:0:0:0:syn_1.wav
182,192,116086,1,0,0:0:0:0:syn_6.wav
329,192,116273,1,0,0:0:0:0:syn_3.wav
475,192,116459,1,0,0:0:0:0:syn_8.wav
402,192,116645,1,0,0:0:0:0:syn_3.wav
329,192,116832,1,0,0:0:0:0:syn_2.wav
36,192,117018,1,0,0:0:0:0:kick.wav
402,192,117018,1,0,0:0:0:0:syn_21.wav
329,192,117204,1,0,0:0:0:0:syn_22.wav
36,192,117391,1,0,0:0:0:0:kick.wav
402,192,117391,1,0,0:0:0:0:syn_23.wav
36,192,117577,1,0,0:0:0:0:kick.wav
329,192,117577,1,0,0:0:0:0:syn_24.wav
36,192,117763,1,0,0:0:0:0:kick.wav
109,192,117763,1,0,0:0:0:0:syn_13.wav
182,192,117950,1,0,0:0:0:0:syn_14.wav
36,192,118136,1,0,0:0:0:0:kick.wav
329,192,118136,1,0,0:0:0:0:syn_15.wav
475,192,118322,1,0,0:0:0:0:syn_16.wav
36,192,118509,1,0,0:0:0:0:kick.wav
402,192,118509,1,0,0:0:0:0:syn_15.wav
329,192,118695,1,0,0:0:0:0:syn_17.wav
36,192,118881,1,0,0:0:0:0:kick.wav
109,192,118881,1,0,0:0:0:0:syn_13.wav
182,192,119068,1,0,0:0:0:0:syn_18.wav
36,192,119254,1,0,0:0:0:0:kick.wav
256,192,119254,1,0,0:0:0:0:syn_15.wav
475,192,119440,1,0,0:0:0:0:syn_20.wav
36,192,119627,1,0,0:0:0:0:kick.wav
402,192,119627,1,0,0:0:0:0:syn_15.wav
329,192,119813,1,0,0:0:0:0:syn_14.wav
36,192,120000,1,0,0:0:0:0:kick.wav
256,192,120000,1,0,0:0:0:0:syn_21.wav
329,192,120186,1,0,0:0:0:0:syn_22.wav
36,192,120372,1,0,0:0:0:0:kick.wav
256,192,120372,1,0,0:0:0:0:syn_23.wav
109,192,120559,1,0,0:0:0:0:syn_24.wav
36,192,120745,1,0,0:0:0:0:kick.wav
182,192,120745,1,0,0:0:0:0:syn_13.wav
256,192,120931,1,0,0:0:0:0:syn_14.wav
36,192,121118,1,0,0:0:0:0:kick.wav
329,192,121118,1,0,0:0:0:0:syn_15.wav
475,192,121304,1,0,0:0:0:0:syn_16.wav
36,192,121490,1,0,0:0:0:0:kick.wav
402,192,121490,1,0,0:0:0:0:syn_15.wav
329,192,121677,1,0,0:0:0:0:syn_17.wav
36,192,121863,1,0,0:0:0:0:kick.wav
109,192,121863,1,0,0:0:0:0:syn_13.wav
182,192,122049,1,0,0:0:0:0:syn_18.wav
36,192,122236,1,0,0:0:0:0:kick.wav
256,192,122236,1,0,0:0:0:0:syn_15.wav
475,192,122422,1,0,0:0:0:0:syn_20.wav
36,192,122608,1,0,0:0:0:0:kick.wav
402,192,122608,1,0,0:0:0:0:syn_15.wav
329,192,122795,1,0,0:0:0:0:syn_14.wav
36,192,122981,1,0,0:0:0:0:kick.wav
256,192,122981,1,0,0:0:0:0:syn_21.wav
329,192,123167,1,0,0:0:0:0:syn_22.wav
36,192,123354,1,0,0:0:0:0:kick.wav
256,192,123354,1,0,0:0:0:0:syn_23.wav
36,192,123540,1,0,0:0:0:0:kick.wav
109,192,123540,1,0,0:0:0:0:syn_24.wav
36,192,123726,1,0,0:0:0:0:kick.wav
182,192,123726,1,0,0:0:0:0:syn_13.wav
256,192,123913,1,0,0:0:0:0:syn_14.wav
36,192,124099,1,0,0:0:0:0:kick.wav
402,192,124099,1,0,0:0:0:0:syn_15.wav
475,192,124285,1,0,0:0:0:0:syn_16.wav
36,192,124472,1,0,0:0:0:0:kick.wav
402,192,124472,1,0,0:0:0:0:syn_15.wav
329,192,124658,1,0,0:0:0:0:syn_17.wav
36,192,124844,1,0,0:0:0:0:kick.wav
109,192,124844,1,0,0:0:0:0:syn_13.wav
182,192,125031,1,0,0:0:0:0:syn_18.wav
36,192,125217,1,0,0:0:0:0:kick.wav
256,192,125217,1,0,0:0:0:0:syn_15.wav
475,192,125403,1,0,0:0:0:0:syn_20.wav
36,192,125590,1,0,0:0:0:0:kick.wav
402,192,125590,1,0,0:0:0:0:syn_15.wav
329,192,125776,1,0,0:0:0:0:syn_14.wav
36,192,125962,1,0,0:0:0:0:kick.wav
256,192,125962,1,0,0:0:0:0:syn_21.wav
402,192,126149,1,0,0:0:0:0:syn_22.wav
36,192,126335,1,0,0:0:0:0:kick.wav
256,192,126335,1,0,0:0:0:0:syn_23.wav
109,192,126521,1,0,0:0:0:0:syn_24.wav
36,192,126708,1,0,0:0:0:0:kick.wav
182,192,126708,1,0,0:0:0:0:syn_13.wav
256,192,126894,1,0,0:0:0:0:syn_14.wav
36,192,127080,1,0,0:0:0:0:sn_clap_1.wav
329,192,127080,1,0,0:0:0:0:syn_15.wav
475,192,127267,1,0,0:0:0:0:syn_16.wav
402,192,127453,1,0,0:0:0:0:syn_15.wav
36,192,127546,1,0,0:0:0:0:sn_clap_2.wav
329,192,127639,1,0,0:0:0:0:syn_17.wav
36,192,127826,1,0,0:0:0:0:sn_clap_1.wav
109,192,127826,1,0,0:0:0:0:syn_13.wav
256,192,128012,1,0,0:0:0:0:syn_18.wav
36,192,128198,1,0,0:0:0:0:hit_1.wav
182,192,128198,1,0,0:0:0:0:syn_24.wav
329,192,128291,1,0,0:0:0:0:syn_13.wav
475,192,128291,1,0,0:0:0:0:hit_2.wav
36,192,128478,1,0,0:0:0:0:hit_1.wav
109,192,128478,1,0,0:0:0:0:syn_24.wav
402,192,128571,1,0,0:0:0:0:syn_13.wav
475,192,128571,1,0,0:0:0:0:hit_2.wav
109,192,128757,1,0,0:0:0:0:hit_1.wav
182,192,128757,1,0,0:0:0:0:syn_24.wav
329,192,128850,1,0,0:0:0:0:syn_13.wav
402,192,128850,1,0,0:0:0:0:hit_2.wav
