osu file format v7

[General]
AudioFilename: Touhou+Arrenged+Music+Imperishable+Night+2006.mp3
AudioLeadIn: 0
PreviewTime: 25557
Countdown: 1
SampleSet: Normal
StackLeniency: 0.4
Mode: 0
LetterboxInBreaks: 1

[Editor]
Bookmarks: 37550,59910,82265,94191,104631
DistanceSpacing: 0.5
BeatDivisor: 4
GridSize: 8

[Metadata]
Title:Imperishable Night 2006
Artist:Yuuna Sasara
Creator:Gabi
Version:Lunatic
Source:Touhou
Tags:IN

[Difficulty]
HPDrainRate:8
CircleSize:5
OverallDifficulty:9
SliderMultiplier:2
SliderTickRate:1

[Events]
//Background and Video events
0,0,"raimooooooooo.jpg"
//Break Periods
2,81821,87356
//Storyboard Layer 0 (Background)
//Storyboard Layer 1 (Fail)
//Storyboard Layer 2 (Pass)
//Storyboard Layer 3 (Foreground)
//Storyboard Sound Samples
//Background Colour Transformations
3,100,163,162,255

[TimingPoints]
1498,372.670807453416,4,1,0,100,1,0
23858,1490.68322981366,4,1,0,100,1,0
24603,-100,4,1,1,100,0,0
25348,372.670807453416,4,1,1,100,1,0
47615,-100,4,1,0,100,0,0
48453,-100,4,1,1,100,0,0
69975,-50,4,1,1,80,0,0
71093,-100,4,1,1,100,0,0
71372,-50,4,1,1,80,0,0
72584,-100,4,1,1,100,0,0
72863,-100,4,1,1,75,0,0
75565,-100,4,1,1,100,0,0
75844,-50,4,1,1,80,0,0
77056,-100,4,1,1,100,0,0
77335,-50,4,1,1,80,0,0
78546,-100,4,1,1,100,0,0
78826,-100,4,1,1,75,0,0
81528,-100,4,1,1,100,0,0
104167,-100,4,1,0,100,0,0
104354,1490.68322981366,4,1,0,100,1,0
105099,372.670807453416,4,1,1,100,1,0
128204,-50,4,1,0,100,0,0
128949,-100,4,1,2,0,0,0

[Colours]
Combo1 : 255,255,255
Combo2 : 255,15,15

[HitObjects]
7,294,1498,1,0
64,80,1777,1,0
278,23,2057,1,0
505,294,2988,5,0
448,80,3268,1,0
234,23,3547,1,0
64,257,4479,5,0
256,368,4758,1,0
447,257,5038,1,0
256,32,5970,5,0
256,256,6249,1,0
256,32,6529,1,0
160,160,6715,1,0
352,216,6901,1,0
160,264,7088,1,0
352,312,7274,1,0
136,360,7460,6,0,L|72:360,1,50,0|0
104,208,7740,2,0,L|40:208,1,50,0|0
72,56,8019,2,0,L|8:56,1,50,0|0
376,360,8951,6,0,L|440:360,1,50,0|0
408,208,9230,2,0,L|472:208,1,50,0|0
440,56,9510,2,0,L|504:56,1,50,0|0
200,74,10442,6,0,L|200:24,1,50
312,218,10721,2,0,L|312:168,1,50,0|0
200,362,11001,2,0,L|200:312,1,50,0|0
312,74,11932,6,0,L|312:24,1,50,0|0
200,218,12212,2,0,L|200:168,1,50,0|0
312,362,12491,2,0,L|312:312,2,50
448,304,12864,1,0
344,192,13050,1,0
448,80,13237,1,0
64,80,13423,5,0
64,80,13516,1,0
168,192,13702,1,0
168,192,13796,1,0
64,304,13982,1,0
64,304,14075,1,0
232,304,14261,1,0
248,304,14355,1,0
264,304,14448,1,0
280,304,14541,1,0
256,160,14727,1,0
448,304,14914,5,0
448,304,15007,1,0
344,192,15193,1,0
344,192,15286,1,0
448,80,15473,1,0
448,80,15566,1,0
288,80,15752,1,0
272,80,15845,1,0
256,80,15938,1,0
240,80,16032,1,0
256,224,16218,1,0
72,344,16404,6,0,L|16:304,1,50,0|0
8,168,16684,2,0,L|56:208,1,50
200,192,16963,2,0,L|144:152,1,50,0|0
112,24,17243,1,0
128,32,17336,1,0
144,40,17429,1,0
160,48,17522,1,0
256,168,17709,1,0
440,344,17895,6,0,L|496:304,1,50,0|0
504,168,18175,2,0,L|456:208,1,50
312,192,18454,2,0,L|368:152,2,50
184,280,18827,1,0
40,256,19013,1,0
56,248,19106,1,0
72,240,19199,1,0
88,232,19293,1,0
104,224,19386,5,0
120,216,19479,1,0
192,88,19665,1,0
176,96,19758,1,0
320,88,19945,1,0
336,80,20038,1,0
248,200,20224,1,0
256,216,20317,1,0
264,232,20411,1,0
272,248,20504,1,0
408,192,20690,1,0
368,336,20876,5,0
360,344,20970,1,0
208,344,21156,1,0
216,336,21249,1,0
296,208,21435,1,0
288,200,21529,1,0
136,184,21715,1,0
152,176,21808,1,0
168,168,21901,1,0
184,160,21994,1,0
312,88,22181,1,0
464,72,22367,6,0,L|432:128,1,50
392,248,22647,1,0
384,232,22740,1,0
256,248,22926,2,0,L|200:240,1,50
64,288,23206,1,0
72,272,23299,1,0
80,256,23392,1,0
88,240,23485,1,0
40,96,23671,1,0
256,32,23858,6,0,L|256:208,1,150,4|4
32,352,25348,5,0
128,280,25534,1,0
128,160,25720,1,0
224,88,25907,1,0
344,88,26093,1,0
440,160,26279,1,0
432,184,26372,1,0
424,208,26466,1,0
312,240,26652,1,0
304,264,26745,1,0
296,288,26838,1,0
192,344,27025,1,0
160,232,27211,1,0
128,344,27397,1,0
24,288,27584,5,0
24,272,27677,1,0
24,256,27770,1,0
24,240,27863,1,0
24,224,27956,1,4
72,112,28143,1,0
88,96,28236,1,0
104,80,28329,5,0
224,80,28515,1,0
344,80,28702,1,0
264,168,28888,1,0
384,168,29074,1,0
472,256,29261,1,0
448,256,29354,1,0
424,256,29447,1,0
304,256,29633,1,0
200,320,29820,1,0
104,248,30006,1,0
104,136,30192,1,0
200,64,30379,1,0
200,192,30565,5,0
216,184,30658,1,0
232,176,30751,1,0
248,168,30844,1,0
264,160,30938,1,4
328,64,31124,1,0
352,64,31217,1,0
376,64,31310,5,0
464,144,31497,2,0,L|464:256,1,100
384,336,31869,2,0,L|384:224,1,100
384,112,32242,1,0
360,128,32335,1,0
336,144,32428,1,0
232,200,32615,1,0
208,216,32708,1,0
184,232,32801,1,0
80,296,32987,2,0,L|-32:368,2,100
24,192,33546,5,0
64,80,33733,1,0
176,40,33919,1,4
296,40,34105,1,0
320,56,34198,1,0
344,72,34292,6,0,L|432:136,1,100
328,192,34664,2,0,L|384:296,1,100
256,280,35037,2,0,L|256:400,1,100
144,328,35410,1,0
56,248,35596,2,0,L|0:296,2,50
144,168,35969,1,0
232,88,36155,1,0
144,8,36341,1,0
56,88,36528,5,0
72,104,36621,1,0
88,120,36714,1,0
104,136,36807,1,0
120,136,36900,1,4
136,120,36993,1,0
152,104,37087,1,0
168,88,37180,1,0
192,88,37273,6,0,B|400:88,1,200,0|8
496,280,38018,1,0
328,336,38298,2,0,L|272:280,1,50,0|8
176,296,38577,1,0
232,192,38764,2,0,L|24:192,1,200,0|8
104,40,39509,6,0,L|-16:40,2,100,0|0|12
224,40,40068,1,0
208,64,40161,1,0
192,88,40254,6,0,L|400:88,1,200,0|8
176,192,41000,2,0,L|72:192|16:248,1,150,0|0
40,248,41372,2,0,L|152:248,1,100,8|0
240,320,41745,2,0,L|280:352|448:352,1,200,0|8
488,120,42490,5,0
424,224,42677,1,0
368,120,42863,1,12
344,104,42956,1,0
320,88,43049,1,0
296,72,43143,1,0
272,56,43236,6,0,L|48:56,1,200,0|8
256,216,43981,1,0
72,216,44261,2,0,L|0:216,1,50,0|8
48,336,44540,1,0
72,336,44633,1,0
96,336,44726,1,0
208,304,44913,1,0
312,360,45099,1,8
424,312,45285,1,0
464,200,45472,5,0
352,152,45658,1,0
464,112,45844,1,12
352,64,46031,1,0
328,56,46124,1,0
304,48,46217,6,0,L|192:8,2,100,0|0|8
416,88,46776,2,0,L|528:128,2,100
320,152,47335,2,0,L|264:272,1,100,8|0
208,112,47708,6,0,L|223:64,1,50,2|2
47,111,47987,2,0,L|32:64,1,50,2|2
128,224,48267,2,0,L|128:288,1,50,2|2
128,48,48639,1,0
128,72,48733,1,0
128,96,48826,1,0
128,224,49012,1,0
32,352,49198,5,0
256,304,49478,1,0
480,352,49757,1,0
480,352,49944,1,0
320,192,50223,1,0
480,32,50503,1,0
480,32,50689,1,0
256,80,50969,1,0
32,32,51248,1,0
32,32,51434,1,0
192,192,51714,1,0
32,352,51993,1,0
32,192,52180,5,0
256,192,52459,1,0
480,192,52739,1,0
480,192,52925,1,0
256,192,53205,1,0
32,192,53484,1,0
32,192,53670,1,0
480,192,54229,1,0
184,192,54788,1,0
160,176,54882,1,0
136,160,54975,1,0
112,144,55068,1,0
88,128,55161,6,0,B|-16:64|117:2,2,150
176,72,55907,2,0,L|408:72,1,200
423,366,56652,6,0,B|528:320|414:259,2,150
344,312,57397,2,0,L|192:312,1,150
40,312,57956,1,0
128,192,58143,6,0,B|16:152|128:40,2,150
384,192,58888,2,0,B|496:152|384:40,2,150
384,312,59633,5,0
128,312,60006,1,8
256,112,60379,1,0
256,136,60472,1,0
256,160,60565,1,0
256,280,60751,1,8
128,72,61124,5,0
384,72,61497,1,8
256,200,61776,1,0
256,176,61869,1,0
256,152,61962,1,0
256,128,62056,1,0
256,8,62242,1,8
256,128,62428,1,0
192,24,62615,5,0
16,192,62987,1,8
192,360,63360,1,0
256,256,63546,1,0
320,360,63733,1,8
496,192,64105,1,0
320,24,64478,1,8
256,168,64757,5,0
256,192,64851,1,0
256,216,64944,1,0
256,240,65037,1,0
200,344,65223,1,8
184,344,65316,1,0
312,344,65503,1,0
328,344,65596,6,0,B|432:336|416:208,2,150
200,344,66341,2,0,B|72:352|48:224,1,200
168,240,66900,1,0
368,160,67087,6,0,B|432:88|352:8,2,150,0|0|0
144,224,67832,6,0,B|80:296|160:376,2,150
288,304,68577,6,0,B|360:368|440:288,2,150,0|0|0
224,80,69323,6,0,B|152:16|72:96,2,150
376,80,70068,5,0
392,88,70161,1,0
408,104,70254,1,0
408,128,70348,1,0
392,144,70441,1,8
376,160,70534,1,0
360,176,70627,1,0
352,192,70720,1,0
360,208,70813,1,0
376,224,70907,1,0
392,232,71000,2,0,B|416:360|232:368,1,200,0|12
136,80,71559,5,0
120,88,71652,1,0
104,104,71745,1,0
104,128,71838,1,0
120,144,71931,1,8
136,160,72025,1,0
152,176,72118,1,0
160,192,72211,1,0
152,208,72304,1,0
136,224,72397,1,0
120,232,72490,2,0,B|96:360|280:368,1,200,0|12
256,32,73049,5,0
272,40,73143,1,0
288,56,73236,1,2
296,72,73329,1,0
288,88,73422,1,8
272,104,73515,1,0
256,112,73608,1,0
240,120,73702,1,0
224,136,73795,1,0
216,152,73888,1,0
224,168,73981,1,2
240,176,74074,1,0
256,184,74167,1,8
272,192,74261,1,0
280,208,74354,1,0
272,224,74447,1,0
256,232,74540,5,0
240,240,74633,1,0
224,248,74726,1,2
240,256,74820,1,0
256,264,74913,1,8
272,272,75006,1,0
288,280,75099,1,2
272,288,75192,1,0
256,296,75285,1,0
256,312,75379,1,0
256,328,75472,1,2
256,200,75658,1,12
104,104,76031,5,0
96,96,76124,1,0
88,88,76217,1,0
80,80,76310,1,0
72,72,76403,1,8
64,64,76497,1,0
56,56,76590,1,0
48,48,76683,1,0
40,40,76776,1,0
32,32,76869,1,0
24,24,76962,2,0,L|248:24,1,200,0|12
408,280,77521,5,0
416,288,77615,1,0
424,296,77708,1,0
432,304,77801,1,0
440,312,77894,1,8
448,320,77987,1,0
456,328,78080,1,0
464,336,78174,1,0
472,344,78267,1,0
480,352,78360,1,0
488,360,78453,2,0,L|264:360,1,200,0|12
32,192,79012,5,0
40,176,79105,1,0
56,160,79198,1,2
72,152,79292,1,0
88,160,79385,1,8
104,176,79478,1,0
112,192,79571,1,2
120,208,79664,1,0
136,224,79757,1,0
152,232,79851,1,0
168,224,79944,1,2
184,208,80037,1,0
192,192,80130,1,8
200,176,80223,1,0
216,160,80316,1,2
232,152,80410,1,0
248,160,80503,5,0
256,176,80596,1,0
264,192,80689,1,2
272,208,80782,1,0
280,200,80875,1,0
288,192,80969,1,0
296,184,81062,1,2
304,176,81155,1,0
312,168,81248,1,0
328,168,81341,1,0
344,168,81434,1,2
512,168,81621,1,4
312,104,87956,6,0,B|369:53|284:-5,2,100,0|0|0
232,104,88515,1,0
152,104,88702,2,0,B|94:150|175:205,1,100,0|0
208,264,89074,2,0,L|336:264,1,100,0|0
359,187,89447,2,0,B|418:150|354:105,2,100,0|0|0
256,192,90006,1,0
208,264,90192,2,0,L|80:264,1,100,0|0
312,264,90565,2,0,L|440:264,1,100,0|0
256,96,90938,6,0,L|256:-16,2,100,0|0|0
256,176,91497,1,0
176,176,91683,2,0,L|216:280,1,100,0|0
300,269,92056,2,0,L|336:176,1,100,0|0
304,96,92429,6,0,L|344:56,3,50,0|0|0|0
272,80,92801,2,0,L|288:8,3,50,0|0|0|0
240,80,93174,2,0,L|224:8,3,50,0|0|0|0
208,96,93547,2,0,L|168:56,4,50
128,168,94106,5,0
72,224,94292,1,0
128,280,94478,1,0
192,328,94665,1,0
256,280,94851,1,0
320,328,95037,1,0
384,280,95224,1,0
440,224,95410,1,0
384,168,95596,1,0
312,208,95783,1,0
256,152,95969,1,0
200,208,96155,1,0
256,152,96342,1,0
312,208,96528,1,0
256,264,96714,1,0
176,280,96901,5,0
128,216,97087,1,0
152,144,97273,1,0
216,96,97460,1,0
296,96,97646,1,0
360,144,97832,1,0
384,216,98019,1,0
336,280,98205,1,0
208,288,98391,6,0,L|168:328,3,50,0|0|0|0
240,304,98764,2,0,L|224:376,3,50,0|0|0|0
272,304,99137,2,0,L|288:376,3,50,0|0|0|0
304,288,99509,2,0,L|344:328,4,50,0|0|0|0|0
176,368,100068,5,0
336,368,100441,1,0
88,320,100813,1,0
424,320,101186,1,0
24,240,101559,1,0
488,240,101931,1,0
24,144,102304,1,0
488,144,102677,1,0
88,64,103050,1,0
424,64,103422,1,0
176,16,103795,1,0
336,16,104167,1,0
256,32,104354,6,0,B|256:136,1,100,4|0
256,152,105145,2,0,B|256:192,7,25,0|0|0|0|0|0|0|12
480,32,105844,5,0
416,136,106030,1,0
472,240,106217,1,0
352,272,106403,1,0
256,344,106589,1,0
256,224,106776,2,0,L|256:184,4,25
256,344,107148,1,0
160,272,107335,1,0
40,240,107521,1,0
96,136,107707,1,0
32,32,107894,1,0
152,32,108080,5,0
256,96,108266,1,0
360,32,108453,1,4
256,96,108639,1,0
256,120,108732,1,0
256,144,108825,6,0,B|256:256,1,100
144,280,109198,1,0
256,328,109384,1,0
368,280,109571,1,0
448,192,109757,2,0,L|480:192,4,25
368,104,110130,1,0
256,56,110316,1,0
144,104,110502,1,0
56,192,110689,2,0,B|176:192,1,100
264,136,111061,5,0
296,248,111248,1,0
328,136,111434,1,4
360,248,111620,1,0
368,264,111713,1,0
376,280,111807,5,0
280,352,111993,2,0,B|176:352,1,100
4,264,112366,2,0,B|104:264,1,100
224,264,112738,2,0,L|256:264,4,25
344,264,113111,1,0
336,144,113297,1,0
440,208,113484,1,0
440,88,113670,1,0
336,24,113856,1,0
232,88,114043,5,0
232,208,114229,1,0
128,144,114415,1,4
128,264,114602,2,0,B|128:328,2,50
240,328,114974,5,0
360,352,115161,1,0
456,272,115347,1,0
432,152,115533,1,0
368,48,115720,2,0,L|400:48,4,25
304,152,116092,1,0
232,248,116279,1,0
112,232,116465,1,0
64,120,116651,1,0
152,32,116838,1,0
272,48,117024,5,0
280,64,117117,1,0
288,80,117210,1,0
296,96,117303,1,0
304,112,117397,1,4
312,128,117490,1,0
320,144,117583,1,0
328,160,117676,1,0
336,176,117769,6,0,B|112:176,1,200,0|8
64,272,118328,1,0
184,272,118515,1,0
304,272,118701,2,0,B|344:272,4,25,0|0|0|0|8
424,272,119074,1,0
344,360,119260,2,0,B|96:360,1,200,0|8
64,272,119819,1,0
152,192,120005,6,0,B|48:136,2,100,0|0|12
256,248,120564,1,0
272,256,120658,1,0
288,264,120751,5,0
408,256,120937,1,0
392,248,121030,1,0
376,240,121123,1,8
320,136,121310,2,0,B|432:192,1,100
480,88,121682,2,0,B|520:88,4,25,0|0|0|0|8
376,24,122055,1,0
360,24,122148,1,0
344,24,122241,1,0
200,88,122428,2,0,B|300:88,1,100,0|8
256,200,122800,1,0
208,312,122987,5,0
96,352,123173,1,0
48,240,123359,1,12
160,200,123546,1,0
152,184,123639,1,0
144,168,123732,6,0,B|104:72,1,100
200,0,124105,2,0,B|256:112,1,100,8|0
304,192,124477,1,0
368,88,124664,2,0,B|408:88,4,25,0|0|0|0|8
424,192,125036,2,0,B|360:288,1,100
248,280,125409,2,0,B|168:376,2,100,0|8|0
328,184,125968,5,0
400,88,126154,1,0
328,184,126341,1,12
256,88,126527,1,0
256,104,126620,1,0
256,120,126713,5,0
256,136,126807,1,0
256,152,126900,1,0
256,168,126993,1,0
256,184,127086,1,8
256,200,127179,1,0
256,216,127272,1,0
256,232,127366,1,0
256,248,127459,1,0
256,264,127552,1,0
256,280,127645,1,0
256,296,127738,1,0
256,312,127831,1,8
256,192,128018,1,0
104,256,128204,6,2,L|32:184,1,100,6|6
256,128,128484,2,2,L|256:16,1,100,6|6
408,256,128763,2,2,L|480:184,1,100,6|6
256,192,128949,12,0,131744
