osu file format v9

[General]
AudioFilename: Egaonomamade.mp3
AudioLeadIn: 0
PreviewTime: 186061
Countdown: 0
SampleSet: Soft
StackLeniency: 0.7
Mode: 0
LetterboxInBreaks: 1

[Editor]
Bookmarks: 29830,58676,99984,128599,170137,185830
DistanceSpacing: 1.6
BeatDivisor: 4
GridSize: 4

[Metadata]
Title:Egao no mamade
Artist:Yuuna
Creator:Athena Tennos
Version:Hard
Source:Touhou
Tags:lucyfly OrangeNeKo aizawa tsukidokei runa daiaru

[Difficulty]
HPDrainRate:5
CircleSize:4
OverallDifficulty:4
ApproachRate:7
SliderMultiplier:1.5
SliderTickRate:2

[Events]
//Background and Video events
0,0,"bg.jpg"
//Break Periods
2,87722,99084
2,100184,154699
//Storyboard Layer 0 (Background)
//Storyboard Layer 1 (Fail)
//Storyboard Layer 2 (Pass)
//Storyboard Layer 3 (Foreground)
//Storyboard Sound Samples
//Background Colour Transformations
3,100,163,162,255

[TimingPoints]
15061,461.538461538462,4,2,0,70,1,0
59368,-100,4,2,0,70,0,1
85214,-100,4,2,0,70,0,0
129522,-100,4,2,0,70,0,1
155368,-100,4,2,0,70,0,0
186753,-100,4,2,0,70,0,1
227368,-100,4,2,0,70,0,0

[HitObjects]
92,104,15060,1,0
160,160,15291,1,0
160,160,15407,1,0
160,160,15522,2,0,B|200:160|228:136,1,75
164,72,15984,1,0
252,64,16214,1,0
312,132,16445,1,0
256,304,16907,1,0
344,288,17137,1,0
344,288,17253,1,0
344,288,17368,2,0,B|384:284|400:244,1,75
400,152,17830,1,0
472,208,18060,1,0
472,300,18291,1,0
316,208,18753,1,0
320,116,18984,1,0
320,116,19099,1,0
320,116,19214,2,0,B|316:76|264:72,1,75
176,80,19676,1,0
232,152,19907,1,0
156,200,20137,1,0
24,320,20599,2,0,B|24:280|60:256|60:260,1,75
100,240,20945,1,0
144,240,21060,1,0
228,272,21291,1,0
304,224,21522,2,0,B|336:200,1,37.5
228,136,21984,2,0,B|196:108,1,37.5
316,56,22445,1,0
404,44,22676,1,0
404,44,22791,1,0
404,44,22907,2,0,B|444:52|460:96,1,75
452,180,23368,1,0
404,256,23599,1,0
480,304,23830,1,0
304,340,24291,2,0,B|308:300|280:272,1,75
244,244,24637,1,0
200,228,24753,1,0
108,228,24984,1,0
148,148,25214,1,0
240,152,25445,1,0
316,200,25676,1,0
404,44,26137,2,0,B|436:76|408:116,1,75
392,152,26484,1,0
384,196,26599,1,0
404,284,26830,1,0
488,320,27061,2,0,B|508:280|496:248,2,75
400,340,27753,1,0
312,316,27984,1,0
256,248,28214,1,0
300,168,28445,1,0
316,124,28561,1,0
244,68,28791,1,0
172,120,29022,2,0,B|144:144,1,37.5
156,188,29253,2,0,B|180:224,1,37.5
160,260,29484,2,0,B|136:300,1,37.5
156,332,29714,1,0
192,360,29830,2,0,B|228:380|264:356,1,75
308,276,30291,2,0,B|300:236|260:224,1,75
160,260,30753,1,0
260,224,30984,2,0,B|284:192|268:152,1,75
236,68,31445,1,0
160,16,31676,2,0,B|132:0|80:8|48:44|44:76,1,150
36,240,32368,2,0,B|52:267|101:286|146:271|166:246,1,150
320,180,33061,2,0,B|303:152|254:133|209:148|189:173,1,150
168,264,33753,1,0
216,340,33984,1,0
304,356,34214,2,0,B|340:356|376:324|384:288|368:244,1,150
336,160,34907,1,0
276,92,35137,1,0
192,56,35368,2,0,B|160:40|120:56|120:56|76:40|44:56,1,150
84,156,36061,2,0,B|120:168|156:156|156:156|192:180|184:224,1,150
152,308,36753,1,0
68,344,36984,1,0
152,308,37214,2,0,B|184:336|220:344|256:336|288:308,1,150
224,224,37907,1,0
152,140,38137,2,0,B|184:112|220:104|256:112|288:140,1,150
360,192,38830,1,0
496,192,39061,2,0,B|464:220|428:228|392:220|360:192,1,150
232,100,39753,2,0,B|260:132|267:167|260:204|231:236,1,150
100,324,40445,1,0
256,300,40676,1,0
412,324,40907,2,0,B|448:304|468:276,1,75
360,224,41368,2,0,B|324:204|304:176,1,75
408,116,41830,1,0
304,56,42061,1,0
304,176,42291,1,0
408,116,42522,1,0
264,116,42753,2,0,B|248:144|136:80|120:108,1,150
68,180,43445,1,0
44,268,43676,1,0
44,268,43791,2,0,B|32:296|80:348|116:340,1,112.5
200,348,44368,1,0
244,332,44484,1,0
272,296,44599,1,0
192,228,44830,2,0,B|216:196|256:192,1,75
428,160,45291,2,0,B|400:188|360:188,1,75
184,148,45753,1,0
92,72,45984,1,0
200,20,46214,1,0
292,96,46445,2,0,B|320:84|372:96|404:140|400:176,1,150
300,292,47137,2,0,B|288:317|232:333|184:317|168:289,1,150
32,212,47830,2,0,B|43:186|99:170|147:186|163:214,1,150
96,312,48522,1,0
32,212,48753,1,0
100,112,48984,2,0,B|112:84|152:56|204:48|232:60,1,150
340,104,49676,1,0
420,196,49907,1,0
392,312,50137,2,0,B|384:340|340:368|288:364|260:344,1,150
112,296,50830,2,0,B|120:268|164:240|216:244|244:264,1,150
164,352,51522,1,0
44,328,51753,1,0
24,208,51984,2,0,B|4:184|8:132|44:88|76:88,1,150
192,80,52676,1,0
124,180,52907,2,0,B|136:204|188:224|244:208|260:184,1,150
320,80,53599,1,0
444,96,53830,2,0,B|480:100|504:80|500:44|468:20|428:36|428:68,1,150
408,188,54522,2,0,B|424:215|397:249|357:244|336:215|346:186|378:171,1,150
500,168,55214,1,0
212,296,55676,2,0,B|176:292|152:312|156:348|188:372|228:356|228:324,1,150
248,204,56368,2,0,B|232:177|259:143|299:148|320:177|310:206|278:221,1,150
156,224,57061,2,0,B|120:224|92:192,1,75
72,72,57522,2,0,B|84:44|128:20|180:20|208:36,1,150
296,112,58214,2,0,B|316:148|356:148,1,75
416,144,58676,1,0
460,104,58907,1,0
456,44,59137,1,0
412,4,59368,2,0,B|376:-4|340:24,1,75
224,132,59830,2,0,B|264:136|296:112,1,75
184,68,60291,2,0,B|160:48|108:48|64:76|60:108,1,150
56,228,60984,1,0
116,332,61214,2,0,B|144:360|184:352,1,75
292,296,61676,2,0,B|264:268|224:276,1,75
332,328,62137,2,0,B|360:356|400:348,1,75
396,228,62599,2,0,B|434:217|447:178,1,75
344,116,63061,2,0,B|348:84|324:40|272:24|240:32,1,150
128,72,63753,2,0,B|104:104|116:144,1,75
168,252,64214,1,0
288,268,64445,1,0
204,184,64676,1,0
88,212,64907,2,0,B|52:228|44:268,1,75
176,356,65368,2,0,B|212:340|220:300,1,75
204,184,65830,2,0,B|208:156|248:124|304:116|328:128,1,150
476,316,66753,2,0,B|456:340|404:348|356:324|344:296,1,150
220,200,67445,2,0,B|240:176|292:168|340:192|352:220,1,150
272,308,68137,1,0
152,308,68368,1,0
48,248,68599,2,0,B|24:228|16:180|32:128|60:112,1,150
168,0,69291,2,0,B|192:20|200:68|184:120|156:136,1,150
64,60,69984,1,0
168,0,70214,1,0
268,64,70445,2,0,B|284:88|332:108|384:100|408:80,1,150
500,8,71137,1,0
492,128,71368,1,0
476,248,71599,2,0,B|468:288|440:312,1,75
284,340,72061,2,0,B|292:300|320:276,1,75
412,200,72522,1,0
296,164,72753,2,0,B|268:148|216:156|176:188|176:220,1,150
164,340,73445,1,0
56,288,73676,1,0
24,172,73907,1,0
56,56,74137,2,0,B|72:28|120:16|172:24|188:52,1,150
436,248,75061,2,0,B|408:276|368:276,1,75
252,244,75522,2,0,B|280:216|320:216,1,75,0|0
436,248,75984,2,0,B|446:286|426:320,1,75,0|0
392,204,76445,2,0,B|381:165|401:131,1,75,0|0
476,36,76907,2,0,B|444:12|404:12,1,75
304,76,77368,2,0,B|264:71|229:91,1,75
180,200,77830,2,0,B|148:224|148:256|184:280|228:260|232:232|216:212,1,150
104,152,78522,2,0,B|72:140|48:96|48:40|72:20,1,150
184,64,79214,1,0
104,152,79445,1,0
56,264,79676,2,0,B|56:304|84:332,1,75
188,272,80137,2,0,B|222:292|260:281,1,75
240,164,80599,2,0,B|274:144|284:105,2,75
120,176,81291,1,0
164,64,81522,2,0,B|172:36|220:12|272:12|296:28,2,150
196,180,82676,1,0
344,368,83137,1,0
464,348,83368,2,0,B|496:340|524:300|524:240|496:224,1,150
288,104,84291,1,0
176,244,84637,1,0
356,264,84984,1,0
256,192,85445,12,0,87522
480,40,99984,5,0
256,192,155599,12,0,157676
