osu file format v9

[General]
AudioFilename: 16ye.mp3
AudioLeadIn: 0
PreviewTime: 59866
Countdown: 0
SampleSet: Soft
StackLeniency: 0.7
Mode: 0
LetterboxInBreaks: 0

[Editor]
Bookmarks: 176860
DistanceSpacing: 1
BeatDivisor: 2
GridSize: 32

[Metadata]
Title:Egao no Mamade
Artist:Yuuna
Creator:Nymph
Version:Normal
Source:Touhou
Tags:The Maid and the Pocket Watch of Blood Hachimitsu-Lemon LUCENT MOON Izayoi Sakuya Lunar Clock Luna Dial

[Difficulty]
HPDrainRate:4
CircleSize:4
OverallDifficulty:4
ApproachRate:5
SliderMultiplier:1.2
SliderTickRate:2

[Events]
//Background and Video events
Video,0,"16ye.avi"
0,0,"11.jpg"
//Break Periods
2,88445,99968
2,158598,170121
//Storyboard Layer 0 (Background)
//Storyboard Layer 1 (Fail)
//Storyboard Layer 2 (Pass)
//Storyboard Layer 3 (Foreground)
//Storyboard Sound Samples
//Background Colour Transformations
3,100,163,162,255

[TimingPoints]
16245,461.538461538462,4,2,1,66,1,0
60552,-100,4,2,1,66,0,1
86398,-100,4,2,1,66,0,0
130706,-100,4,2,1,66,0,1
156552,-100,4,2,1,66,0,0
171321,-100,4,2,1,33,0,0
172014,-100,4,2,1,5,0,0
172245,-100,4,2,1,33,0,0
172475,-100,4,2,1,5,0,0
172706,-100,4,2,1,33,0,0
173398,-100,4,2,1,5,0,0
173629,-100,4,2,1,33,0,0
173860,-100,4,2,1,33,0,0
174091,-100,4,2,1,5,0,0
174321,-100,4,2,1,33,0,0
174552,-100,4,2,1,5,0,0
174783,-100,4,2,1,33,0,0
176168,-100,4,2,1,5,0,0
176398,-100,4,2,1,33,0,0
177091,-100,4,2,1,5,0,0
177321,-100,4,2,1,33,0,0
177783,-100,4,2,1,5,0,0
178014,-100,4,2,1,33,0,0
178245,-100,4,2,1,5,0,0
178475,-100,4,2,1,33,0,0
179860,-100,4,2,1,5,0,0
180091,-100,4,2,1,33,0,0
180783,-100,4,2,1,5,0,0
181014,-100,4,2,1,33,0,0
181475,-100,4,2,1,5,0,0
181706,-100,4,2,1,33,0,0
181937,-100,4,2,1,5,0,0
182168,-100,4,2,1,33,0,0
182629,-100,4,2,1,5,0,0
183321,-100,4,2,1,33,0,0
184245,-100,4,2,1,10,0,0
186552,-100,4,2,1,66,0,0
187937,-100,4,2,1,66,0,1
226706,-100,4,2,1,50,0,1
228552,-100,4,2,1,66,0,0

[Colours]
Combo1 : 175,96,255
Combo2 : 38,147,255
Combo3 : 255,170,255
Combo4 : 201,255,147

[HitObjects]
137,74,31014,2,0,B|125:135|72:170,1,120,4|8
64,290,31937,2,0,B|127:285|164:342,1,120,0|8
222,325,32629,1,0
279,342,32860,2,0,B|316:284|379:289,1,120,0|8
430,256,33552,2,0,B|489:181|479:87,1,180,0|8
375,26,34706,5,0
308,125,35168,1,8
205,62,35629,2,0,B|161:101|97:114,1,120,0|8
61,161,36321,1,0
68,220,36552,2,0,B|74:280|43:338,1,120,0|8
97,363,37245,2,0,B|189:333|276:363,1,180,0|8
363,283,38398,6,0,B|424:295|456:356,2,120,4|8|0
441,192,39783,1,8
420,73,40245,2,0,B|374:118|311:120,1,120,0|8
267,80,40937,2,0,B|166:77|110:151,1,180,0|8
105,271,42091,6,0,B|47:289|20:349,2,120,0|8|0
201,341,43475,1,8
320,329,43937,2,0,B|379:346|439:331,1,120,4|8
484,291,44629,2,0,B|520:205|486:116,1,180,0|8
384,51,45783,5,4
321,153,46245,2,0,B|268:183|205:181,1,120,8|0
145,77,47168,1,8
42,138,47629,2,0,B|62:194|38:256,1,120,0|8
19,312,48321,2,0,B|117:293|186:368,1,180,0|8
256,269,49475,5,0
356,335,49937,2,0,B|415:329|456:270,2,120,8|0|8
360,215,51321,2,0,B|368:150|329:104,1,120,0|8
284,61,52014,2,0,B|219:119|116:109,1,180,0|8
67,218,53168,6,0,B|54:282|-4:315,2,120,4|8|0
183,187,54552,1,8
193,306,55014,2,0,B|233:356|300:355,1,120,0|8
317,298,55706,2,0,B|410:279|484:351,1,180,0|8
508,231,56860,6,0,B|510:169|472:117,1,120,0|8
415,100,57552,2,0,B|323:113|250:42,1,180,0|8
194,149,58706,1,4
88,92,59168,1,8
64,209,59629,2,0,B|18:251,2,60,0|0|8
148,293,60552,6,0,B|185:341|252:358,1,120,4|8
276,304,61245,1,0
318,261,61475,2,0,B|380:276|417:324,1,120,0|8
494,232,62398,2,0,B|508:174|493:109,1,120,0|8
390,52,63321,2,0,B|376:110|391:175,1,120,0|8
333,277,64245,6,0,B|294:323|234:340,1,120,0|8
198,291,64937,2,0,B|137:308|98:354,1,120,0|0
38,344,65629,2,0,B|17:319|13:287,1,60,8|0
14,229,66091,1,0
35,111,66552,1,8
130,37,67014,1,0
187,142,67475,2,0,B|165:164|157:196,1,60,8|0
204,231,67937,6,0,B|188:291|211:349,1,120,4|8
269,361,68629,2,0,B|327:348|387:362,1,120,0|0
447,358,69321,2,0,B|479:347|497:327,1,60,8|0
505,266,69783,2,0,B|528:208|512:148,1,120,0|8
490,92,70475,2,0,B|428:75|396:19,1,120,0|0
336,22,71168,2,0,B|324:53|304:72,1,60,8|0
256,109,71629,5,0
144,154,72091,2,0,B|101:109,2,60,8|0|0
100,195,72783,2,0,B|144:246,1,60,0|8
175,288,73245,2,0,B|201:341|272:359,1,120,0|0
321,330,73937,1,8
433,287,74398,2,0,B|441:221,1,60,0|0
487,190,74860,2,0,B|495:124,1,60,8|0
475,73,75321,6,0,B|426:111|359:107,1,120,4|8
315,69,76014,1,0
257,51,76245,2,0,B|193:47|144:85,1,120,0|8
91,113,76937,1,0
55,161,77168,2,0,B|50:222|8:269,2,120,0|8|0
118,262,78552,1,8
218,327,79014,6,0,B|267:369|334:362,1,120,0|8
388,352,79706,2,0,B|430:303|423:236,1,120,0|0
440,183,80398,2,0,B|474:184|496:207,2,60,8|0|0
384,76,81321,2,0,B|333:49|267:59,1,120,8|0
247,115,82014,2,0,B|196:142|130:132,1,120,0|0
78,163,82706,6,0,B|73:226|34:283,2,120,4|8|0
141,265,84091,1,8
238,335,84552,2,0,B|289:369|356:361,1,120,0|8
418,260,85475,2,0,B|367:226|300:234,1,120,0|8
256,192,86398,12,0,88245
256,192,101168,5,4
208,301,101629,1,8
88,288,102091,2,0,B|37:252|24:182,1,120,0|8
57,73,103014,2,0,B|113:46|174:64,1,120,0|8
191,121,103706,2,0,B|267:180|361:172,1,180,0|8
445,255,104860,5,0
336,305,105321,2,0,B|275:307|279:328|217:330,1,120,8|0
179,216,106245,1,8
116,318,106706,2,0,B|60:289|34:230,1,120,0|8
82,195,107398,2,0,B|102:100|36:29,1,180,0|8
155,19,108552,5,4
274,29,109014,1,8
213,132,109475,1,0
332,140,109937,1,8
369,255,110398,2,0,B|429:277|458:343,2,120,0|8|0
256,295,111783,1,8
143,255,112245,6,0,B|83:277|54:343,2,120,0|8|0
80,152,113629,1,8
152,56,114091,2,0,B|198:92|265:96,1,120,4|8
308,56,114783,2,0,B|375:60|421:96,1,120,0|0
431,153,115475,2,0,B|481:189,2,60,8|0|4
337,228,116398,5,8
440,289,116860,2,0,B|405:345|340:354,1,120,0|8
223,345,117783,2,0,B|165:335|103:350,1,120,0|8
44,342,118475,2,0,B|61:252|27:160,1,180,0|8
85,59,119629,5,0
171,141,120091,1,8
254,55,120552,2,0,B|312:45|375:57,1,120,0|8
300,151,121475,2,0,B|358:161|421:149,1,120,0|8
476,167,122168,2,0,B|458:262|507:343,1,180,0|8
385,343,123321,6,0,B|325:353|264:344,2,120,4|8|0
317,243,124706,1,8
209,195,125168,2,0,B|149:185|88:194,2,120,0|8|0
142,88,126553,1,8
252,40,127014,6,0,B|313:31|373:41,1,120,0|8
426,65,127706,2,0,B|445:157|391:237,1,180,0|8
278,277,128860,2,0,B|296:343|359:356,2,120,4|8|0
215,174,130245,1,8
143,270,130706,6,0,B|125:336|62:349,1,120,4|8
10,318,131398,1,0
13,258,131629,2,0,B|31:192|94:179,1,120,0|8
166,83,132552,2,0,B|225:103|284:84,1,120,0|8
343,188,133475,2,0,B|402:168|461:187,1,120,0|8
444,306,134398,6,0,B|385:325|326:305,1,120,0|8
290,256,135091,2,0,B|231:237|172:257,1,120,0|0
131,300,135783,2,0,B|85:264,1,60,8|0
36,225,136245,1,0
44,105,136706,1,8
132,23,137168,1,0
181,132,137629,2,0,B|228:168,1,60,8|0
287,180,138091,6,0,B|339:147|354:85,1,120,4|8
368,26,138783,2,0,B|423:59|483:46,1,120,0|0
478,105,139475,2,0,B|448:157,1,60,8|0
496,192,139937,2,0,B|486:253|440:298,1,120,0|8
419,240,140629,2,0,B|374:283|364:344,1,120,0|0
305,355,141321,2,0,B|275:362|246:356,1,60,8|0
185,356,141783,5,0
94,277,142245,2,0,B|51:233,2,60,8|0|0
135,233,142937,2,0,B|176:275,1,60,0|8
222,237,143398,2,0,B|259:185|321:173,1,120,0|0
379,182,144091,2,0,B|431:219|443:281,2,120,8|0|8
320,77,145475,6,0,B|279:121|211:128,1,120,4|8
155,111,146168,1,0
96,123,146398,2,0,B|52:164|45:232,1,120,0|8
61,287,147091,1,0
106,325,147321,2,0,B|166:343|224:323,1,120,0|8
325,257,148245,2,0,B|385:275|443:255,1,120,0|8
463,136,149168,6,0,B|405:116|345:134,1,120,0|8
290,159,149860,2,0,B|232:179|172:161,1,120,0|0
112,169,150552,2,0,B|74:216,1,60,8|0
106,266,151014,2,0,B|80:325|29:358,2,120,0|8|0
165,274,152168,2,0,B|218:354|317:354,1,180,0|4
402,269,153321,6,0,B|463:284|498:346,2,120,8|0|8
336,168,154706,1,0
386,59,155168,1,8
266,72,155629,2,0,B|224:114|219:179,1,120,0|8
256,192,156552,12,0,158398
255,89,171321,5,2
192,192,171783,2,0,B|133:215|74:191,2,120,0|2|0
294,254,173168,2,0,B|353:231|412:255,1,120,2|0
381,306,173860,2,0,B|440:329|499:305,2,120,2|0|2
204,342,175475,1,0
92,298,175937,6,0,B|42:266|33:197,1,120,2|0
89,91,176860,2,0,B|139:123|148:192,1,120,2|0
195,227,177552,2,0,B|254:247|314:227,2,120,2|0|2
45,326,179168,1,0
161,352,179629,6,0,B|220:332|280:352,1,120,2|0
295,232,180552,2,0,B|354:252|414:232,1,120,2|0
466,204,181245,2,0,B|486:144|466:85,2,120,2|0|0
414,232,182398,2,0,B|298:284|181:232,1,240,2|0
256,192,184245,12,0,186091
257,155,187245,6,0,B|257:91,2,60,0|0|0
257,215,187937,6,0,B|229:269|229:269|176:299,1,120,4|8
124,326,188629,1,0
79,284,188860,2,0,B|75:227|75:227|36:179,1,120,0|8
30,118,189552,1,0
79,83,189783,2,0,B|157:176,1,120,0|8
222,74,190706,2,0,B|300:167,1,120,0|8
338,279,191629,6,0,B|384:332|437:344,1,120,0|8
492,322,192321,2,0,B|514:255|498:203,1,120,0|0
451,166,193014,2,0,B|406:127,1,60,8|0
435,74,193475,2,0,B|398:27|398:27|340:8,1,120,0|8
221,18,194398,2,0,B|155:17,2,60,0|0|8
255,133,195321,6,0,B|240:192|240:192|192:232,1,120,4|8
140,255,196014,2,0,B|190:293|190:293|204:349,1,120,0|0
262,362,196706,2,0,B|324:362,1,60,8|0
338,303,197168,2,0,B|398:287|398:287|458:304,1,120,0|8
495,259,197860,2,0,B|479:203|479:203|495:143,1,120,0|0
449,104,198552,2,0,B|402:143,1,60,8|0
368,92,199014,6,0,B|276:169,1,120,0|8
257,226,199706,2,0,B|256:284,2,60,0|0|0
210,190,200398,1,8
149,191,200629,2,0,B|114:141|114:141|104:69|44:56,1,180,0|8
15,172,201783,1,0
77,274,202245,2,0,B|49:327,1,60,8|0
100,357,202706,6,0,B|161:372|224:361,1,120,4|8
274,255,203629,2,0,B|335:240|398:251,1,120,0|8
447,274,204321,1,0
496,240,204552,2,0,B|505:195|505:195|490:164|490:164|498:124,1,120,0|8
384,165,205475,2,0,B|393:120|393:120|378:89|378:89|386:49,1,120,0|8
266,37,206398,6,0,B|215:67|215:67|156:68,1,120,0|8
95,80,207091,2,0,B|95:142|95:142|64:194,1,120,0|0
114,226,207783,2,0,B|84:277,1,60,8|0
120,325,208245,2,0,B|182:325|182:325|231:354,1,120,0|8
292,250,209168,2,0,B|341:279|341:279|403:279,1,120,0|8
466,177,210091,6,0,B|416:147|416:147|354:147,1,120,4|8
328,93,210783,2,0,B|271:112|209:91,1,120,0|0
150,98,211475,2,0,B|119:153,1,60,8|0
60,154,211937,2,0,B|72:214|42:274,1,120,0|8
59,328,212629,2,0,B|122:331|168:372,1,120,0|0
228,372,213321,2,0,B|249:347|249:347|274:338,1,60,8|0
328,364,213783,5,0
432,304,214245,2,0,B|483:343,2,60,8|0|0
428,244,214937,2,0,B|382:206,1,60,0|8
394,146,215398,2,0,B|372:85|312:61,1,120,0|0
254,52,216091,1,8
148,108,216552,2,0,B|96:79,2,60,0|0|8
67,197,217475,6,0,B|68:262|114:304,1,120,4|8
203,224,218398,1,0
257,331,218860,1,8
362,273,219321,2,0,B|422:286|456:342,2,120,0|8|0
386,155,220706,1,8
314,58,221168,6,0,B|256:80|194:59,2,120,4|8|0
255,162,222552,1,8
255,282,223014,2,0,B|229:337|164:356,1,120,0|8
146,236,223937,2,0,B|91:210|72:145,1,120,0|8
153,57,224860,6,0,B|208:82|227:148,1,120,4|8
318,69,225783,1,0
376,174,226245,1,8
350,291,226706,6,0,B|390:343|451:350,2,120,0|0|0
255,216,228091,1,8
256,192,228552,12,0,232245
