osu file format v9

[General]
AudioFilename: happy lucky (Short Ver.).mp3
AudioLeadIn: 2000
PreviewTime: 49633
Countdown: 0
SampleSet: Soft
StackLeniency: 0.4
Mode: 0
LetterboxInBreaks: 0

[Editor]
DistanceSpacing: 1
BeatDivisor: 4
GridSize: 8

[Metadata]
Title:happy*lucky (Short Ver.)
Artist:Yuuki, Ayana & Risa
Creator:osuplayer111
Version:Insane
Source:Asa Made Jugyou Chu!
Tags:Kakinozaka Kagami Takabane Shimoda Asami Asakura Azumi Mimori Suzuko Vicho-kun cRyo[iceeicee] Jacob -Sekai- Sekai Andrea

[Difficulty]
HPDrainRate:7
CircleSize:4
OverallDifficulty:7
ApproachRate:8
SliderMultiplier:1.6
SliderTickRate:1

[Events]
//Background and Video events
0,0,"BG.jpg"
//Break Periods
//Storyboard Layer 0 (Background)
//Storyboard Layer 1 (Fail)
//Storyboard Layer 2 (Pass)
//Storyboard Layer 3 (Foreground)
//Storyboard Sound Samples
//Background Colour Transformations
3,100,255,255,255

[TimingPoints]
495,413.793103448276,4,2,1,80,1,0
3185,-100,4,2,2,65,0,0
3806,-100,4,2,1,80,0,0
5461,-100,4,1,1,50,0,0
6495,-100,4,2,2,65,0,0
6806,-100,4,1,1,50,0,0
7116,-100,4,2,1,80,0,0
9806,-100,4,2,2,65,0,0
10219,-100,4,2,1,80,0,0
12909,-100,4,1,1,50,0,0
13426,-100,4,2,1,80,0,0
25323,-100,4,1,1,50,0,0
25530,-100,4,2,1,80,0,0
28013,-100,4,2,2,65,0,0
28426,-100,4,2,1,80,0,0
29668,-100,4,2,2,65,0,0
30082,-100,4,2,1,80,0,0
31323,-100,4,2,2,65,0,0
31737,-100,4,2,1,80,0,0
32978,-100,4,2,2,65,0,0
33392,-100,4,2,1,80,0,0
34633,-100,4,2,2,65,0,0
35047,-100,4,2,1,80,0,0
36288,-100,4,2,2,65,0,0
36702,-100,4,2,1,80,0,0
50150,-100,4,2,1,80,0,1
52840,-100,4,2,2,65,0,1
53254,-100,4,2,1,80,0,1
56150,-100,4,2,2,65,0,1
56564,-100,4,2,1,80,0,1
59461,-100,4,2,2,65,0,1
59875,-100,4,2,1,80,0,1
62564,-100,4,2,2,65,0,1
63185,-100,4,2,1,80,0,1
63288,-100,4,2,1,80,0,0
63391,-100,4,2,1,80,0,1
66082,-100,4,2,2,65,0,1
66495,-100,4,2,1,80,0,1
69392,-100,4,2,2,65,0,1
69806,-100,4,2,1,80,0,1
72702,-100,4,2,2,65,0,1
73116,-100,4,2,1,80,0,1
75806,-100,4,2,2,65,0,1
76219,-100,4,2,1,80,0,1
76529,-100,4,2,1,80,0,0
76632,-100,4,2,1,80,0,1
76736,-100,4,2,1,80,0,0
79323,-100,4,2,2,65,0,0
79737,-100,4,2,1,80,0,0
82633,-100,4,2,2,65,0,0
83047,-100,4,2,1,80,0,0
85944,-100,4,2,2,65,0,0
86357,-100,4,2,1,80,0,0

[Colours]
Combo1 : 128,128,255
Combo2 : 255,255,128
Combo3 : 191,128,255
Combo4 : 252,131,131

[HitObjects]
152,48,495,1,2
216,96,702,1,0
296,96,909,1,0
360,48,1116,1,2
256,192,1530,1,2
256,192,1737,1,0
360,336,2150,5,2
296,288,2357,1,0
216,288,2564,1,0
152,336,2771,1,2
256,192,3185,1,8
256,192,3392,1,8
216,40,3806,6,0,B|176:112,1,80,2|0
296,40,4219,2,0,B|336:112,1,80,0|2
256,280,4840,1,2
184,328,5047,2,0,B|216:360|256:368|296:360|328:328,1,160
344,312,5564,1,0
360,296,5668,1,0
424,344,5875,1,0
440,328,5978,1,0
456,312,6082,1,0
456,232,6288,5,0
384,192,6495,1,8
456,152,6702,1,8
440,136,6806,1,0
424,120,6909,1,0
408,104,7013,1,0
392,88,7116,1,4
328,40,7323,5,0
264,88,7530,2,0,B|208:88|208:88|168:112|168:112|112:112,1,160,8|0
112,32,8150,1,0
40,72,8357,1,8
40,152,8564,1,0
112,192,8771,1,0
40,232,8978,2,0,B|40:272|72:304,1,80,0|8
152,304,9392,2,0,B|240:304|288:232,1,160,0|8
287,232,10013,1,8
352,272,10219,6,0,B|416:320,1,80,0|4
400,192,10633,2,0,B|488:192,1,80,0|8
352,112,11047,2,0,B|416:64,2,80
296,56,11668,1,8
216,56,11875,2,0,B|152:56|128:24|128:24|64:24,1,160,0|0
64,24,12495,1,8
16,88,12702,1,0
64,152,12909,5,0
80,168,13013,1,0
96,184,13116,1,0
112,200,13219,1,0
128,216,13323,1,0
144,232,13426,1,0
160,248,13530,1,0
176,264,13633,1,0
192,280,13737,6,0,B|232:280|264:312,1,80,4|0
416,344,14150,2,0,B|376:344|344:312,1,80,8|0
304,240,14564,2,0,B|304:152|376:104,1,160,0|8
456,104,15185,2,0,B|456:144|416:176,2,80
416,32,15806,1,8
336,32,16013,2,0,B|176:32,1,160
96,32,16633,2,0,B|96:72|136:104,1,80,8|0
96,224,17047,6,0,B|96:184|56:152,1,80
60,155,17357,1,0
60,155,17461,1,8
16,224,17668,1,0
56,296,17875,2,0,B|144:296|200:360,1,160,0|8
198,357,18495,2,0,B|248:288,1,80
360,264,18909,2,0,B|310:333,2,80,0|8|0
448,128,19737,6,0,B|400:128|376:88,1,80,0|8
320,40,20150,1,0
256,88,20357,1,0
192,40,20564,1,0
132,93,20771,2,0,B|112:128|64:128,1,80,8|0
8,192,21185,2,0,B|80:240|80:328,1,160,0|8
79,327,21806,1,0
160,328,22013,6,0,B|204:328|228:290,1,80
160,248,22426,1,8
232,208,22633,2,0,B|312:208|368:280,1,160
424,336,23254,1,8
480,280,23461,2,0,B|480:232|448:208,1,80
344,96,23875,6,0,B|344:144|374:166,2,80,0|8|0
328,16,24495,2,0,B|256:52|256:52|184:16,1,160,0|8
168,96,25116,2,0,B|168:144|137:166,2,80
256,136,25737,2,0,B|256:224,1,80
464,336,26564,5,0
464,336,26771,1,0
464,336,26978,2,0,B|408:336|408:336|368:312|368:312|312:312,1,160,4|8
232,312,27599,2,0,B|152:312|96:240,1,160,0|8
136,168,28219,2,0,B|184:96,1,80,8|0
256,208,28633,2,0,B|256:128,1,80
376,168,29047,2,0,B|320:96,1,80,8|0
256,376,29668,5,8
256,376,29875,1,8
184,320,30082,2,0,B|216:288|256:280|296:288|328:320,1,160
392,272,30702,2,0,B|448:216,1,80,8|0
308,216,31116,2,0,B|340:144,1,80,0|8
204,216,31530,2,0,B|172:144,1,80,8|0
120,272,31944,2,0,B|64:216,1,80
88,136,32357,1,8
88,136,32564,1,0
424,136,32978,5,8
408,120,33082,1,0
392,104,33185,2,0,B|312:104,1,80,8|0
256,40,33599,2,0,B|96:40,1,160,4|8
16,40,34219,1,0
56,112,34426,2,0,B|104:112|128:144,1,80,0|8
64,192,34840,1,8
56,272,35047,2,0,B|104:272|128:240,2,80
16,344,35668,1,8
96,344,35875,6,0,B|256:344,1,160,0|8
256,344,36495,1,8
320,296,36702,1,0
384,248,36909,2,0,B|440:192|440:192|440:112,1,160,4|8
128,248,37737,2,0,B|72:192|72:192|72:112,1,160,0|8
128,56,38357,1,0
184,112,38564,2,0,B|256:148|256:148|328:112,1,160,0|8
416,248,39392,5,0
360,304,39599,1,0
344,320,39702,1,0
328,336,39806,2,0,B|248:336,1,80,8|0
168,336,40219,2,0,B|88:336|32:264,1,160,4|8
168,48,41047,2,0,B|88:48|32:120,1,160,0|8
72,192,41668,2,0,B|152:192,1,80
232,192,42082,1,0
280,120,42288,2,0,B|312:152|320:192|312:232|280:264,1,160,8|0
248,336,42909,5,0
272,344,43013,1,0
296,352,43116,2,0,B|376:352,1,80,8|0
456,352,43530,2,0,B|472:304|472:304|432:256|432:256|448:208,1,160,4|8
56,32,44357,2,0,B|40:80|40:80|80:128|80:128|64:176,1,160,0|8
40,248,44978,1,0
96,304,45185,2,0,B|176:304|176:304|232:248,1,160,0|8
328,120,46013,5,0
400,160,46219,1,0
416,176,46323,1,0
432,192,46426,2,0,B|432:272,1,80,8|0
360,312,46840,2,0,B|276:312|224:240,1,160,4|8
224,240,47461,1,0
316,220,47668,2,0,B|252:372,1,160,0|8
253,367,48288,1,0
184,336,48495,5,2
40,192,48909,1,2
184,48,49323,1,2
256,88,49530,5,0
272,72,49633,1,0
288,56,49737,2,0,B|328:56|360:88,1,80,8|0
424,136,50150,1,4
256,352,50564,1,8
88,136,50978,2,0,B|136:136|160:168,1,80
96,216,51392,1,8
16,216,51599,6,0,B|16:296|88:352,1,160
168,352,52219,2,0,B|208:280,1,80,8|0
256,352,52633,1,0
344,352,52840,2,0,B|304:280,1,80,8|8
256,224,53254,1,0
328,176,53461,6,0,B|296:144|256:136|216:144|184:176,1,160,4|8
128,120,54082,2,0,B|72:64,1,80
136,8,54495,2,0,B|192:64,1,80,0|8
256,16,54909,1,0
376,8,55116,2,0,B|320:64,1,80
384,120,55530,2,0,B|440:64,1,80,8|0
256,344,56150,2,8,B|256:256,1,80
256,264,56564,1,0
192,204,56771,6,0,B|232:204|256:163|256:163|280:204|320:204,2,160,4|8|0
216,48,58013,1,8
296,48,58219,1,0
400,208,58633,2,0,B|448:280,1,80,0|8
360,368,59047,2,0,B|312:296,1,80
152,368,59461,2,8,B|200:296,1,80
112,208,59875,2,0,B|64:280,1,80,0|4
0,232,60288,1,0
40,168,60495,6,0,B|88:96,1,80,8|0
152,136,60909,1,0
192,64,61116,1,0
256,104,61323,2,0,B|256:192,2,80,8|0|0
320,64,61944,1,0
360,136,62150,1,8
427,101,62357,2,0,B|472:168,1,80,0|8
471,167,62668,1,8
471,167,62771,1,0
471,167,62875,1,8
471,167,62978,1,8
400,208,63185,6,0,B|400:256|368:280,1,80,0|4
288,280,63599,1,0
232,344,63806,2,0,B|152:344|96:272,1,160,8|0
32,224,64426,1,0
96,176,64633,1,8
32,128,64840,6,0,B|88:72|88:72|176:72,1,160
248,72,65461,2,0,B|288:72|320:104,1,80,8|0
256,152,65875,1,0
320,104,66082,2,8,B|400:104,1,80
480,104,66495,1,0
440,176,66702,6,0,B|440:256|440:256|392:320,1,160,4|8
312,320,67323,1,0
232,320,67530,2,0,B|192:320|192:320|160:296,1,80
96,248,67944,1,8
152,192,68150,1,0
96,136,68357,2,0,B|144:72,1,80
256,48,68771,2,0,B|208:112,1,80,8|0
352,192,69392,6,0,B|432:192,2,80,8|8|0
304,256,70013,2,0,B|304:296|256:314|256:314|208:296|208:254,1,160,4|8
176,104,70840,1,0
216,32,71047,1,0
296,32,71254,1,8
336,104,71461,2,0,B|336:184|408:240,1,160
408,240,72082,2,0,B|352:304,1,80,8|0
296,360,72495,1,0
216,360,72702,1,8
156,300,72909,6,0,B|103:240,1,80,8|0
48,184,73323,2,0,B|112:128|112:40,1,160,4|8
192,40,73944,2,0,B|192:128,1,80
256,168,74357,1,0
320,120,74564,2,0,B|320:40,1,80,8|0
400,40,74978,1,2
416,56,75082,1,0
432,72,75185,1,0
488,128,75392,1,8
472,144,75495,1,0
456,160,75599,1,0
392,208,75806,6,8,B|392:251|360:280,1,80
280,280,76219,1,8
256,280,76323,1,0
232,280,76426,1,0
152,280,76633,2,0,B|120:251|120:208,1,80,4|0
184,168,77047,2,0,B|216:136|256:128|296:136|328:168,2,160,8|0|8
256,216,78082,2,0,B|256:48,1,160
176,56,78702,6,0,B|136:128,1,80,8|0
336,56,79116,2,0,B|376:128,1,80,0|8
336,200,79530,1,8
296,272,79737,1,0
216,272,79944,1,4
176,200,80150,1,0
256,200,80357,2,0,B|256:112,1,80,8|0
176,344,80978,1,0
256,344,81185,1,8
336,344,81392,1,0
408,200,81806,6,0,B|456:136,1,80,0|8
336,152,82219,2,0,B|368:72,1,80
256,128,82633,2,0,B|256:48,1,80,8|8
176,152,83047,2,0,B|144:72,1,80,0|4
104,200,83461,2,0,B|56:136,1,80,0|8
208,264,84082,2,0,B|176:336,1,80
256,352,84495,1,8
304,264,84702,2,0,B|336:336,1,80
368,200,85323,6,0,B|328:176|328:128,1,80,8|0
256,32,85737,2,0,B|256:112,1,80,0|8
144,200,86150,2,0,B|184:176|184:128,1,80,8|0
