osu file format v13

[General]
AudioFilename: Trigger-Yuuki Ozak.mp3
AudioLeadIn: 0
PreviewTime: 20217
Countdown: 0
SampleSet: None
StackLeniency: 0.7
Mode: 1
LetterboxInBreaks: 0
WidescreenStoryboard: 1

[Editor]
DistanceSpacing: 0.8
BeatDivisor: 4
GridSize: 32
TimelineZoom: 1.2

[Metadata]
Title:Trigger
TitleUnicode:Trigger
Artist:Yuuki Ozaki
ArtistUnicode:Yuuki Ozaki
Creator:Zheant
Version:Muzukashi
Source:Zankyou no Terror
Tags:anime opening Zankyou no Terror
BeatmapID:483287
BeatmapSetID:204678

[Difficulty]
HPDrainRate:6
CircleSize:5
OverallDifficulty:6
ApproachRate:5
SliderMultiplier:1.4
SliderTickRate:1

[Events]
//Background and Video events
0,0,"20140321_terror01.jpg",0,0
Video,156,"Zankyou no Terror opening.avi.avi"
//Break Periods
//Storyboard Layer 0 (Background)
//Storyboard Layer 1 (Fail)
//Storyboard Layer 2 (Pass)
//Storyboard Layer 3 (Foreground)
//Storyboard Sound Samples
//Background Colour Transformations
3,100,163,162,255

[TimingPoints]
486,402.684563758389,4,2,0,70,1,0
82633,413.793103448276,4,2,0,70,1,0

[HitObjects]
256,192,486,5,0,0:0:0:0:
256,192,1090,1,8,0:0:0:0:
256,192,1291,1,8,0:0:0:0:
256,192,1895,1,8,0:0:0:0:
256,192,2096,1,0,0:0:0:0:
256,192,2700,1,8,0:0:0:0:
256,192,2902,1,8,0:0:0:0:
256,192,3405,1,0,0:0:0:0:
256,192,3506,1,8,0:0:0:0:
256,192,3707,1,0,0:0:0:0:
256,192,4311,1,8,0:0:0:0:
256,192,4512,1,8,0:0:0:0:
256,192,5922,1,0,0:0:0:0:
256,192,6123,1,8,0:0:0:0:
256,192,6324,1,8,0:0:0:0:
256,192,6526,1,0,0:0:0:0:
256,192,6727,1,8,0:0:0:0:
256,192,6928,1,0,0:0:0:0:
256,192,7532,1,0,0:0:0:0:
256,192,7734,1,8,0:0:0:0:
256,192,7935,1,8,0:0:0:0:
256,192,8137,1,0,0:0:0:0:
256,192,8338,1,8,0:0:0:0:
256,192,8539,1,0,0:0:0:0:
256,192,8942,1,8,0:0:0:0:
256,192,9143,1,0,0:0:0:0:
256,192,9345,5,0,0:0:0:0:
256,192,9546,1,0,0:0:0:0:
256,192,9747,1,8,0:0:0:0:
256,192,9949,1,0,0:0:0:0:
256,192,10150,1,0,0:0:0:0:
256,192,10553,1,8,0:0:0:0:
256,192,10754,1,0,0:0:0:0:
256,192,10955,1,0,0:0:0:0:
256,192,11559,1,0,0:0:0:0:
256,192,11761,1,8,0:0:0:0:
256,192,12365,1,8,0:0:0:0:
256,192,12566,1,8,0:0:0:0:
256,192,13170,1,8,0:0:0:0:
256,192,13371,1,0,0:0:0:0:
256,192,13975,1,0,0:0:0:0:
256,192,14177,1,8,0:0:0:0:
256,192,15586,1,0,0:0:0:0:
256,192,15788,1,8,0:0:0:0:
256,192,15989,1,8,0:0:0:0:
256,192,16190,1,0,0:0:0:0:
256,192,16392,1,8,0:0:0:0:
256,192,16593,1,0,0:0:0:0:
256,192,17197,1,0,0:0:0:0:
256,192,17398,1,8,0:0:0:0:
256,192,17600,1,0,0:0:0:0:
256,192,17801,1,0,0:0:0:0:
256,192,18002,1,8,0:0:0:0:
256,192,18204,1,0,0:0:0:0:
256,192,18606,1,8,0:0:0:0:
256,192,18808,1,0,0:0:0:0:
256,192,19009,1,0,0:0:0:0:
256,192,19210,1,0,0:0:0:0:
256,192,19412,1,8,0:0:0:0:
256,192,20217,1,0,0:0:0:0:
256,192,20418,1,0,0:0:0:0:
256,192,20620,1,8,0:0:0:0:
256,192,21022,1,0,0:0:0:0:
256,192,21224,1,0,0:0:0:0:
256,192,21425,1,8,0:0:0:0:
256,192,21828,1,0,0:0:0:0:
256,192,22029,1,0,0:0:0:0:
256,192,22230,1,0,0:0:0:0:
256,192,22432,1,0,0:0:0:0:
256,192,22633,1,8,0:0:0:0:
256,192,23036,1,0,0:0:0:0:
256,192,23573,1,8,0:0:0:0:
256,192,23707,1,8,0:0:0:0:
256,192,23841,1,0,0:0:0:0:
256,192,25855,1,0,0:0:0:0:
256,192,26056,1,8,0:0:0:0:
256,192,26660,1,0,0:0:0:0:
256,192,27465,1,0,0:0:0:0:
256,192,27667,1,8,0:0:0:0:
0,0,28271,2,0,B|448:0|544:288|448:384|96:352|96:352|128:352,1,980
256,192,31492,1,0,0:0:0:0:
256,192,31895,1,0,0:0:0:0:
256,192,32298,1,0,0:0:0:0:
256,192,32700,1,0,0:0:0:0:
256,192,33103,1,0,0:0:0:0:
0,32,33506,2,0,B|352:32|512:192|-96:384|192:0|352:64|480:352|64:352|64:352|96:320,1,840
256,192,36526,1,0,0:0:0:0:
256,192,36727,1,8,0:0:0:0:
256,192,36929,1,8,0:0:0:0:
256,192,37130,1,0,0:0:0:0:
256,192,37331,1,8,0:0:0:0:
256,192,37935,1,8,0:0:0:0:
256,192,38137,1,0,0:0:0:0:
256,192,38338,1,0,0:0:0:0:
256,192,38741,1,0,0:0:0:0:
256,192,38942,1,8,0:0:0:0:
256,192,39143,5,0,0:0:0:0:
256,192,39747,1,0,0:0:0:0:
256,192,40351,1,0,0:0:0:0:
256,192,40553,1,8,0:0:0:0:
256,192,40754,1,0,0:0:0:0:
256,192,41157,1,0,0:0:0:0:
256,192,41559,1,0,0:0:0:0:
256,192,41962,1,0,0:0:0:0:
256,192,42163,1,8,0:0:0:0:
256,192,42365,1,0,0:0:0:0:
256,192,42969,1,0,0:0:0:0:
256,192,43171,1,0,0:0:0:0:
256,192,43774,1,0,0:0:0:0:
256,192,44177,1,8,0:0:0:0:
256,192,44277,1,8,0:0:0:0:
256,192,44378,1,8,0:0:0:0:
256,192,44579,1,8,0:0:0:0:
256,192,44781,1,0,0:0:0:0:
256,192,44982,1,8,0:0:0:0:
256,192,45183,1,0,0:0:0:0:
256,192,45385,1,8,0:0:0:0:
256,192,45586,1,0,0:0:0:0:
256,192,46190,1,0,0:0:0:0:
256,192,46392,1,8,0:0:0:0:
256,192,46996,1,0,0:0:0:0:
256,192,48204,1,8,0:0:0:0:
256,192,48405,1,8,0:0:0:0:
256,192,48606,1,8,0:0:0:0:
256,192,50016,1,0,0:0:0:0:
256,192,50418,1,0,0:0:0:0:
256,192,50821,1,8,0:0:0:0:
256,192,51022,1,8,0:0:0:0:
256,192,51425,1,8,0:0:0:0:
256,192,51626,1,0,0:0:0:0:
256,192,52029,1,0,0:0:0:0:
256,192,52432,1,0,0:0:0:0:
256,192,52834,1,0,0:0:0:0:
256,192,53237,1,0,0:0:0:0:
256,192,53640,1,0,0:0:0:0:
256,192,54043,1,8,0:0:0:0:
256,192,54244,1,8,0:0:0:0:
256,192,54647,1,8,0:0:0:0:
256,192,54848,1,0,0:0:0:0:
256,192,55251,1,0,0:0:0:0:
256,192,55653,1,0,0:0:0:0:
256,192,56056,1,12,0:0:0:0:
256,192,56861,1,0,0:0:0:0:
256,192,57264,1,8,0:0:0:0:
256,192,57667,1,0,0:0:0:0:
256,192,58069,1,8,0:0:0:0:
256,192,58472,1,0,0:0:0:0:
256,192,58875,1,8,0:0:0:0:
256,192,59277,1,0,0:0:0:0:
256,192,59479,1,8,0:0:0:0:
256,192,59579,1,8,0:0:0:0:
256,192,59680,1,0,0:0:0:0:
256,192,59881,1,8,0:0:0:0:
256,192,60083,1,0,0:0:0:0:
256,192,60485,1,0,0:0:0:0:
256,192,60888,1,0,0:0:0:0:
256,192,61291,1,0,0:0:0:0:
256,192,61694,1,0,0:0:0:0:
256,192,62096,1,0,0:0:0:0:
256,192,62298,1,0,0:0:0:0:
256,192,62499,1,8,0:0:0:0:
256,192,62700,1,8,0:0:0:0:
256,192,62902,1,0,0:0:0:0:
256,192,63103,1,8,0:0:0:0:
256,192,63506,1,8,0:0:0:0:
256,192,63606,1,8,0:0:0:0:
256,192,63707,1,0,0:0:0:0:
256,192,63908,1,8,0:0:0:0:
256,192,64110,1,0,0:0:0:0:
256,192,64512,1,0,0:0:0:0:
256,192,64915,1,8,0:0:0:0:
256,192,65318,1,8,0:0:0:0:
256,192,65519,1,0,0:0:0:0:
256,192,66123,1,0,0:0:0:0:
256,192,66324,1,8,0:0:0:0:
256,192,66526,1,8,0:0:0:0:
256,192,66928,1,8,0:0:0:0:
256,192,67331,1,8,0:0:0:0:
256,192,67734,1,8,0:0:0:0:
256,192,68137,1,0,0:0:0:0:
256,192,68741,1,0,0:0:0:0:
256,192,68841,1,0,0:0:0:0:
256,192,68942,1,8,0:0:0:0:
256,192,69345,1,8,0:0:0:0:
256,192,69546,1,0,0:0:0:0:
256,192,69747,1,0,0:0:0:0:
256,192,70150,1,0,0:0:0:0:
256,192,70351,1,8,0:0:0:0:
256,192,70552,1,8,0:0:0:0:
256,192,70955,1,8,0:0:0:0:
256,192,71157,1,0,0:0:0:0:
256,192,71358,1,0,0:0:0:0:
256,192,71761,1,0,0:0:0:0:
256,192,71962,1,0,0:0:0:0:
256,192,72163,1,8,0:0:0:0:
256,192,72566,1,8,0:0:0:0:
256,192,72767,1,0,0:0:0:0:
256,192,73774,1,0,0:0:0:0:
256,192,73975,1,8,0:0:0:0:
256,192,74177,1,8,0:0:0:0:
256,192,74378,1,8,0:0:0:0:
256,192,76190,1,0,0:0:0:0:
256,192,76593,1,0,0:0:0:0:
256,192,76794,1,8,0:0:0:0:
256,192,77197,1,8,0:0:0:0:
256,192,77398,1,0,0:0:0:0:
256,192,77801,1,0,0:0:0:0:
256,192,78002,1,8,0:0:0:0:
256,192,78204,1,0,0:0:0:0:
256,192,78405,1,0,0:0:0:0:
256,192,78506,1,8,0:0:0:0:
256,192,78606,1,0,0:0:0:0:
256,192,78808,1,8,0:0:0:0:
256,192,79009,1,0,0:0:0:0:
256,192,79412,1,0,0:0:0:0:
256,192,79815,1,0,0:0:0:0:
256,192,80016,1,8,0:0:0:0:
256,192,80419,1,8,0:0:0:0:
256,192,80620,1,0,0:0:0:0:
256,192,81022,1,0,0:0:0:0:
256,192,81223,1,8,0:0:0:0:
256,192,81425,1,0,0:0:0:0:
256,192,81626,1,8,0:0:0:0:
256,192,81727,1,8,0:0:0:0:
256,192,81828,1,8,0:0:0:0:
256,192,82029,1,8,0:0:0:0:
256,192,82230,1,0,0:0:0:0:
256,192,83046,5,0,0:0:0:0:
256,192,83460,1,0,0:0:0:0:
256,192,83874,1,0,0:0:0:0:
256,192,84288,1,0,0:0:0:0:
256,192,84701,1,0,0:0:0:0:
256,192,85115,1,0,0:0:0:0:
256,192,85529,1,0,0:0:0:0:
256,192,85943,1,8,0:0:0:0:
256,192,86564,1,0,0:0:0:0:
256,192,86770,1,0,0:0:0:0:
