osu file format v12

[General]
AudioFilename: .mp3
AudioLeadIn: 0
PreviewTime: 69782
Countdown: 0
SampleSet: Soft
StackLeniency: 0.7
Mode: 0
LetterboxInBreaks: 0
WidescreenStoryboard: 1

[Editor]
DistanceSpacing: 1.2
BeatDivisor: 4
GridSize: 4

[Metadata]
Title:Taisetsu na Basho
TitleUnicode:大切な場所
Artist:Yuuki Aoi, Matayoshi Ai & Saitou Momoko
ArtistUnicode:悠木碧, 又吉愛 & 斎藤桃子
Creator:Zero__wind
Version:Normal
Source:A Channel + smile
Tags:insert song meetmeetdee Azure Ichii Tooru Imai Yutaka Noyama Miho
BeatmapID:269054
BeatmapSetID:101579

[Difficulty]
HPDrainRate:3
CircleSize:3
OverallDifficulty:3
ApproachRate:4
SliderMultiplier:1.6
SliderTickRate:2

[Events]
//Background and Video events
0,0,"bg.jpg",0,0
//Break Periods
2,111885,119189
2,193067,203901
2,233658,238095
//Storyboard Layer 0 (Background)
//Storyboard Layer 1 (Fail)
//Storyboard Layer 2 (Pass)
//Storyboard Layer 3 (Foreground)
//Storyboard Sound Samples
//Background Colour Transformations
3,100,163,162,255

[TimingPoints]
7560,882.417824840062,4,2,1,20,1,0
15060,-100,4,2,1,30,0,0
27855,-100,4,2,1,27,0,0
28296,-100,4,2,1,24,0,0
29179,-100,4,2,1,30,0,0
41312,-100,4,2,1,20,0,0
42856,-100,4,2,1,30,0,0
56092,-100,4,2,1,27,0,0
56534,-100,4,2,1,24,0,0
57416,-100,4,2,1,30,0,0
71094,-100,4,2,1,40,0,1
84330,-100,4,2,1,30,0,0
85212,-100,4,2,1,40,0,1
109699,-100,4,2,1,30,0,1
109920,-100,4,2,1,30,0,0
111685,-100,4,2,1,10,0,0
116979,-100,4,2,1,30,0,0
124039,-100,4,2,1,40,0,0
124921,-100,4,2,1,30,0,0
137275,-100,4,2,1,27,0,0
137716,-100,4,2,1,24,0,0
139040,-100,4,2,1,30,0,0
146099,-100,4,2,1,30,0,0
151173,-100,4,2,1,30,0,0
152276,-100,4,2,1,40,0,1
165512,-100,4,2,1,30,0,0
166395,-100,4,2,1,40,0,1
191102,-100,4,2,1,40,0,0
205221,-100,4,2,1,30,0,0
223311,-100,4,2,1,10,0,0
223531,-100,4,2,1,30,0,0
239415,-100,4,2,1,20,0,0
251107,-100,4,2,1,30,0,0
253754,-100,4,2,1,35,0,0
254636,-100,4,2,1,40,0,1
293242,-100,4,2,1,20,0,1
293463,-100,4,2,1,40,0,0
295228,-100,4,2,0,5,0,0

[Colours]
Combo1 : 139,188,38
Combo2 : 151,124,188
Combo3 : 247,250,112
Combo4 : 78,119,156
Combo5 : 199,198,215

[HitObjects]
64,124,14619,1,0,0:0:0:0:
180,276,15501,2,0,P|254:248|288:174,1,160,2|2,0:0|0:0,0:0:0:0:
268,84,16825,1,0,0:0:0:0:
172,108,17266,2,0,P|88:100|32:40,1,160,2|2,0:0|0:0,0:0:0:0:
56,240,19031,6,0,P|48:304|8:344,2,120,0|2|0,0:0|0:0|0:0,0:0:0:0:
68,143,20796,2,0,P|108:156|135:184,1,80,0|2,0:0|0:0,0:0:0:0:
184,268,21678,1,2,0:0:0:0:
356,352,22561,6,0,P|392:367|432:371,1,80
480,360,23222,2,0,P|508:304|504:248,1,120,2|2,0:0|0:0,0:0:0:0:
460,164,24325,2,0,P|424:149|384:145,1,80
336,156,24987,2,0,P|308:212|312:268,1,120,2|2,0:0|0:0,0:0:0:0:
248,340,26090,6,0,P|200:256|144:236,1,160,2|2,0:0|0:0,0:0:0:0:
80,164,27414,2,0,P|48:192|8:200,2,80,2|2|2,0:0|0:0|0:0,0:0:0:0:
8,100,28738,6,0,P|40:72|80:64,1,80,2|2,0:0|0:0,0:0:0:0:
168,92,29620,2,0,P|212:88|246:68,1,80,0|0,0:0|0:0,0:0:0:0:
280,44,30282,2,0,P|376:56|356:132,1,200,2|2,0:0|0:0,0:0:0:0:
272,180,31826,1,0,0:0:0:0:
336,248,32267,6,0,P|338:293|353:328,1,80,2|2,0:0|0:0,0:0:0:0:
268,372,33150,2,0,P|227:352|192:353,1,80,2|0,0:0|0:0,0:0:0:0:
149,369,33811,2,0,P|51:357|9:271,1,200,2|2,0:0|0:0,0:0:0:0:
20,180,35356,1,0,0:0:0:0:
116,160,35797,6,0,P|99:116|68:96,1,80,2|0,0:0|0:0,0:0:0:0:
160,48,36679,2,0,P|177:92|208:112,1,80,2|0,0:0|0:0,0:0:0:0:
248,128,37341,2,0,P|316:112|352:76,1,120,2|2,0:0|0:0,0:0:0:0:
444,104,38444,2,0,P|457:148|452:184,1,80,0|2,0:0|0:0,0:0:0:0:
370,230,39327,5,2,0:0:0:0:
364,324,39768,2,0,P|293:358|218:337,1,160,2|2,0:0|0:0,0:0:0:0:
80,200,41533,1,2,0:0:0:0:
20,124,41974,1,2,0:0:0:0:
116,112,42415,1,2,0:0:0:0:
176,188,42856,6,0,P|206:147|211:111,1,80,2|0,0:0|0:0,0:0:0:0:
255,36,43739,2,0,P|294:48|331:68,1,80
352,108,44400,2,0,P|344:176|304:208,1,120,2|0,0:0|0:0,0:0:0:0:
209,212,45503,2,0,P|244:282|320:303,1,160,2|2,0:0|0:0,0:0:0:0:
476,196,47268,6,0,P|504:240|508:312,2,120,0|2|0,0:0|0:0|0:0,0:0:0:0:
408,128,49033,2,0,P|444:104|484:100,2,80,0|0|2,0:0|0:0|0:0,0:0:0:0:
236,40,50798,6,0,P|188:56|156:68,1,80,2|0,0:0|0:0,0:0:0:0:
132,104,51460,2,0,P|116:164|144:212,1,120,2|2,0:0|0:0,0:0:0:0:
156,308,52563,2,0,P|112:360|20:376,1,160,2|2,0:0|0:0,0:0:0:0:
56,284,53886,6,0,P|28:260|24:216,2,80,0|2|0,0:0|0:0|0:0,0:0:0:0:
140,332,55210,1,0,0:0:0:0:
238,332,55651,5,2,0:0:0:0:
322,380,56092,1,2,0:0:0:0:
418,380,56534,1,2,0:0:0:0:
502,332,56975,6,0,P|512:244|476:184,1,160,2|2,0:0|0:0,0:0:0:0:
388,144,58299,1,0,0:0:0:0:
348,55,58740,2,0,P|288:56|244:20,2,120,0|2|0,0:0|0:0|0:0,0:0:0:0:
440,24,60505,6,0,P|468:60|472:96,1,80,2|0,0:0|0:0,0:0:0:0:
444,184,61387,2,0,P|360:216|296:188,1,160,2|2,0:0|0:0,0:0:0:0:
172,44,63152,1,0,0:0:0:0:
76,36,63593,1,0,0:0:0:0:
120,120,64034,6,0,P|140:200|96:256,1,160,2|2,0:0|0:0,0:0:0:0:
173,317,65358,2,0,L|152:356,2,40,0|0|2,0:0|0:0|0:0,0:0:0:0:
266,289,66240,2,0,P|312:276|340:243,2,80,0|2|2,0:0|0:0|0:0,0:0:0:0:
256,192,67564,5,2,0:0:0:0:
180,136,68005,1,2,0:0:0:0:
292,52,68667,2,0,L|324:20,1,40,0|2,0:0|0:0,0:0:0:0:
496,188,69991,6,0,L|456:204,1,40,0|2,0:0|0:0,0:0:0:0:
396,276,70652,1,2,0:0:0:0:
494,277,71094,6,0,P|466:343|388:374,1,160,4|2,0:0|0:0,0:0:0:0:
296,344,72417,2,0,L|252:360,2,40,0|2|0,0:0|0:0|0:0,0:0:0:0:
252,260,73300,2,0,P|203:279|176:304,2,80,2|10|0,0:0|0:0|0:0,0:0:0:0:
340,220,74623,6,0,P|364:180|368:140,1,80,2|0,0:0|0:0,0:0:0:0:
329,57,75506,2,0,P|290:32|256:28,1,80,2|0,0:0|0:0,0:0:0:0:
192,100,76388,2,0,P|132:152|52:148,1,160,2|8,0:0|0:0,0:0:0:0:
20,340,78153,6,0,P|56:364|96:368,1,80,2|0,0:0|0:0,0:0:0:0:
176,324,79035,2,0,P|178:280|162:244,1,80,2|0,0:0|0:0,0:0:0:0:
132,212,79697,2,0,L|248:240,1,120,2|0,0:0|0:0,0:0:0:0:
309,316,80800,2,0,P|357:306|385:288,1,80,8|2,0:0|0:0,0:0:0:0:
436,208,81683,6,0,P|464:177|472:140,2,80,2|2|0,0:0|0:0|0:0,0:0:0:0:
376,132,83006,2,0,L|220:184,1,160,2|0,0:0|1:2,0:0:0:0:
132,164,84330,2,0,L|100:192,2,40,2|8|8,0:0|3:0|3:0,0:0:0:0:
92,76,85212,6,0,P|144:24|224:32,1,160,4|2,0:0|0:0,0:0:0:0:
308,80,86536,2,0,L|352:64,2,40,0|2|0,0:0|0:0|0:0,0:0:0:0:
364,156,87418,2,0,P|411:131|430:103,2,80,2|8|0,0:0|0:0|0:0,0:0:0:0:
288,216,88742,6,0,P|276:258|256:288,1,80,2|0,0:0|0:0,0:0:0:0:
180,348,89624,2,0,P|138:335|108:316,1,80,2|0,0:0|0:0,0:0:0:0:
48,240,90507,2,0,P|60:198|80:168,1,80,2|0,0:0|0:0,0:0:0:0:
120,140,91169,2,0,L|152:164,1,40,2|8,0:0|0:0,0:0:0:0:
196,76,91830,2,0,L|233:149,1,80,2|4,0:0|0:0,0:0:0:0:
360,212,92933,5,0,0:0:0:0:
360,212,93154,2,0,P|405:216|435:236,1,80,2|0,0:0|0:0,0:0:0:0:
460,276,93816,2,0,P|444:341|404:372,1,120,2|0,0:0|0:0,0:0:0:0:
356,292,94919,2,0,L|280:324,1,80,10|2,0:0|0:0,0:0:0:0:
196,360,95801,6,0,P|116:364|56:312,1,160,2|2,0:0|0:0,0:0:0:0:
120,244,97125,2,0,L|140:284,2,40,0|2|0,0:0|0:0|0:0,0:0:0:0:
88,60,98449,2,0,L|48:80,2,40,2|8|4,3:0|3:0|3:0,0:0:0:0:
176,92,99331,6,0,P|216:108|256:104,1,80,4|0,0:0|0:0,0:0:0:0:
324,44,100213,2,0,P|360:41|400:57,1,80,2|0,0:0|0:0,0:0:0:0:
436,88,100875,2,0,P|432:164|400:196,1,120,2|0,0:0|0:0,0:0:0:0:
392,240,101758,2,0,P|444:272|472:324,1,120,2|0,0:0|0:0,0:0:0:0:
384,364,102861,6,0,P|348:332|316:320,1,80,2|0,0:0|0:0,0:0:0:0:
228,344,103743,2,0,P|192:312|180:272,1,80,2|0,0:0|0:0,0:0:0:0:
135,198,104625,2,0,P|174:178|199:142,1,80,2|0,0:0|0:0,0:0:0:0:
244,148,105287,2,0,P|264:164|280:172,1,40,2|4,0:0|0:0,0:0:0:0:
368,144,105949,2,0,L|342:220,1,80,2|4,0:0|0:0,0:0:0:0:
236,56,107273,6,0,L|268:32,2,40,2|0|8,0:0|0:0|3:0,0:0:0:0:
148,100,108155,2,0,P|113:125|95:160,1,80,4|0,0:0|0:0,0:0:0:0:
95,205,108817,1,2,0:0:0:0:
139,289,109258,2,0,L|183:309,1,40,2|0,0:0|0:0,0:0:0:0:
256,192,109699,12,0,111685,0:0:0:0:
256,192,120509,12,0,124039,0:0:0:0:
256,192,124921,6,0,P|288:228|316:244,1,80,2|0,0:0|0:0,0:0:0:0:
340,284,125583,2,0,L|240:356,1,120,2|0,0:0|0:0,0:0:0:0:
148,336,126686,2,0,P|96:324|72:304,2,80,2|0|2,0:0|0:0|0:0,0:0:0:0:
76,152,128451,6,0,P|44:100|56:44,2,120,0|2|2,0:0|0:0|0:0,0:0:0:0:
168,180,130216,1,0,0:0:0:0:
244,236,130657,2,0,L|280:264,2,40,0|2|0,0:0|0:0|0:0,0:0:0:0:
436,260,131980,6,0,P|421:300|392:336,1,80,2|0,0:0|0:0,0:0:0:0:
360,360,132642,2,0,P|292:368|236:364,1,120,2|2,0:0|0:0,0:0:0:0:
148,344,133745,2,0,P|108:329|72:300,1,80,2|0,0:0|0:0,0:0:0:0:
48,268,134407,2,0,P|40:200|44:144,1,120,2|2,0:0|0:0,0:0:0:0:
108,80,135510,6,0,P|140:52|184:36,1,80,2|0,0:0|0:0,0:0:0:0:
224,40,136172,2,0,L|260:64,1,40,2|0,0:0|0:0,0:0:0:0:
232,156,136834,5,2,0:0:0:0:
164,223,137275,1,2,0:0:0:0:
232,291,137716,1,2,0:0:0:0:
299,223,138157,6,0,P|325:143|288:80,1,160,2|2,0:0|0:0,0:0:0:0:
380,48,139481,1,0,0:0:0:0:
380,48,139702,2,0,P|413:148|397:239,1,200,2|2,0:0|0:0,0:0:0:0:
456,316,141246,1,0,0:0:0:0:
368,352,141687,6,0,P|316:360|276:364,1,80,2|0,0:0|0:0,0:0:0:0:
196,336,142569,2,0,P|164:304|148:264,1,80,2|0,0:0|0:0,0:0:0:0:
160,224,143231,2,0,L|48:288,1,120,2|0,0:0|0:0,0:0:0:0:
36,188,144334,1,0,0:0:0:0:
12,96,144775,1,0,0:0:0:0:
68,20,145217,6,0,P|136:68|152:144,1,160,2|2,0:0|0:0,0:0:0:0:
240,176,146540,2,0,L|280:204,2,40,0|2|0,0:0|0:0|0:0,0:0:0:0:
280,88,147423,2,0,L|360:144,2,80,0|2|2,0:0|0:0|0:0,0:0:0:0:
364,44,148746,5,2,0:0:0:0:
433,110,149188,2,0,B|443:173|397:210|397:210|388:264,1,160,4|4,0:0|0:0,0:0:0:0:
144,248,151173,6,0,L|176:280,1,40,2|8,0:0|3:0,0:0:0:0:
240,208,151835,1,6,3:0:0:0:
264,300,152276,6,0,P|223:357|136:363,1,160,4|10,0:0|0:0,0:0:0:0:
72,296,153600,2,0,L|36:316,2,40,0|2|0,0:0|0:0|0:0,0:0:0:0:
164,264,154482,2,0,P|137:226|106:203,2,80,2|8|2,0:0|0:0|0:0,0:0:0:0:
200,172,155806,6,0,P|212:128|236:104,1,80,2|0,0:0|0:0,0:0:0:0:
320,60,156688,2,0,P|352:92|360:125,1,80,10|0,0:0|0:0,0:0:0:0:
452,160,157571,2,0,P|408:215|324:225,1,160,2|10,0:0|0:0,0:0:0:0:
452,360,159335,6,0,L|496:376,2,40,2|0|0,0:0|0:0|0:0,0:0:0:0:
372,308,160218,2,0,P|327:308|297:328,1,80,10|0,0:0|0:0,0:0:0:0:
300,376,160880,2,0,L|196:296,1,120,2|0,0:0|0:0,0:0:0:0:
112,328,161983,2,0,P|72:308|48:280,1,80,2|2,1:2|0:0,0:0:0:0:
48,184,162865,6,0,P|11:153|0:120,2,80,2|2|10,0:0|0:0|0:0,0:0:0:0:
133,233,164189,2,0,P|144:156|95:97,1,160,4|2,0:0|3:0,0:0:0:0:
176,48,165512,2,0,L|220:16,2,40,2|8|4,3:0|3:0|3:0,0:0:0:0:
232,124,166395,6,0,P|271:117|304:92,1,80,4|0,0:0|0:0,0:0:0:0:
372,28,167277,2,0,P|394:68|396:103,1,80,10|0,0:0|0:0,0:0:0:0:
424,140,167939,2,0,L|464:164,1,40,2|0,0:0|0:0,0:0:0:0:
432,253,168601,2,0,P|476:256|509:242,2,80,2|10|2,0:0|0:0|0:0,0:0:0:0:
360,316,169924,6,0,P|312:324|284:312,1,80,2|0,0:0|0:0,0:0:0:0:
224,236,170807,2,0,P|200:284|176:308,1,80,10|0,0:0|0:0,0:0:0:0:
124,224,171689,2,0,P|148:176|172:152,1,80,2|0,0:0|0:0,0:0:0:0:
200,124,172351,2,0,L|240:136,1,40,2|12,0:0|0:0,0:0:0:0:
312,72,173013,2,0,P|315:118|322:161,1,80,2|4,0:0|0:0,0:0:0:0:
160,44,174336,6,0,P|122:62|84:64,1,80,2|0,3:0|0:0,0:0:0:0:
68,20,174998,2,0,L|32:144,1,120,2|0,0:0|0:0,0:0:0:0:
80,220,176101,1,2,3:0:0:0:
148,288,176543,1,2,0:0:0:0:
60,324,176984,6,0,P|120:380|192:372,1,160,4|10,0:0|0:0,0:0:0:0:
264,308,178307,1,2,0:0:0:0:
264,308,178528,2,0,L|365:371,1,120,0|0,0:0|1:0,0:0:0:0:
456,340,179631,2,0,L|472:376,2,40,2|8|4,3:0|3:0|3:0,0:0:0:0:
476,244,180513,6,0,P|478:202|464:168,1,80,4|0,0:0|0:0,0:0:0:0:
380,216,181396,2,0,P|366:182|368:140,1,80,10|0,0:0|0:0,0:0:0:0:
360,92,182058,2,0,L|320:108,1,40,2|0,0:0|0:0,0:0:0:0:
252,44,182719,2,0,L|289:29,2,40,2|2|2,0:0|0:0|3:0,0:0:0:0:
220,136,183602,1,0,0:0:0:0:
136,88,184043,6,0,L|100:44,2,40,2|0|0,0:0|0:0|0:0,0:0:0:0:
124,184,184925,2,0,P|104:228|76:248,1,80,10|0,0:0|0:0,0:0:0:0:
4,308,185808,2,0,P|42:325|72:352,1,80,2|2,0:0|0:0,0:0:0:0:
116,340,186470,2,0,L|156:344,1,40,2|4,0:0|0:0,0:0:0:0:
236,288,187132,2,0,P|234:336|234:367,1,80,2|4,0:0|0:0,0:0:0:0:
248,176,188455,6,0,L|240:136,2,40,10|0|2,0:0|0:0|0:0,0:0:0:0:
324,232,189338,2,0,P|368:252|408:248,1,80,4|0,0:0|0:0,0:0:0:0:
432,216,189999,1,2,0:0:0:0:
388,128,190441,2,0,L|352:96,1,40,8|4,3:0|3:0,0:0:0:0:
256,192,190882,12,2,192867,0:0:0:0:
428,112,205221,5,4,0:0:0:0:
256,192,206104,2,0,P|211:176|184:148,1,80,2|0,3:0|0:0,0:0:0:0:
204,108,206765,2,0,L|116:192,1,120,2|0,0:0|0:0,0:0:0:0:
52,120,207868,1,2,3:0:0:0:
112,44,208310,1,2,0:0:0:0:
204,16,208751,6,0,P|246:28|280:54,1,80,2|0,0:0|0:0,0:0:0:0:
312,80,209413,2,0,L|356:84,1,40,2|2,0:0|3:0,0:0:0:0:
432,28,210074,1,0,0:0:0:0:
412,220,210957,1,0,0:0:0:0:
428,316,211398,2,0,L|472:352,2,40,2|0|0,3:0|0:0|0:0,0:0:0:0:
348,368,212280,6,0,P|300:376|268:368,1,80,2|0,0:0|0:0,0:0:0:0:
220,288,213163,2,0,P|190:280|142:288,1,80,0|0,1:0|0:0,0:0:0:0:
104,320,213825,1,2,0:0:0:0:
36,192,214486,1,0,0:0:0:0:
120,144,214928,1,2,3:0:0:0:
36,96,215369,1,0,0:0:0:0:
120,48,215810,6,2,P|166:60|198:86,1,80,0|0,0:0|0:0,0:0:0:0:
172,124,216472,2,0,L|276:48,1,120,2|0,0:0|0:0,0:0:0:0:
364,44,217575,2,0,L|380:8,2,40,2|0|2,0:0|0:0|0:0,0:0:0:0:
436,108,218457,2,0,L|472:93,2,40,2|0|2,0:0|0:0|0:0,0:0:0:0:
452,204,219340,6,0,P|452:250|430:280,1,80,4|0,0:0|0:0,0:0:0:0:
356,336,220222,2,0,P|309:334|282:315,1,80,2|0,3:0|0:0,0:0:0:0:
304,272,220884,2,0,L|188:308,1,120,2|0,0:0|0:0,0:0:0:0:
116,368,221987,1,2,3:0:0:0:
48,300,222428,1,0,0:0:0:0:
24,208,222869,6,0,P|20:156|28:128,1,80,2|0,0:0|0:0,0:0:0:0:
48,88,223531,2,0,P|132:44|229:83,1,200,2|2,0:0|0:0,0:0:0:0:
236,176,225075,1,2,0:0:0:0:
140,160,225517,1,2,0:0:0:0:
173,251,225958,1,0,0:0:0:0:
173,251,226179,6,0,B|240:296|300:248|300:248|428:312,1,280,2|0,0:0|0:0,0:0:0:0:
496,376,228164,1,0,0:0:0:0:
508,280,228605,1,2,0:0:0:0:
496,184,229046,1,2,3:0:0:0:
444,102,229488,1,2,0:0:0:0:
368,44,229929,6,0,P|340:24|292:16,2,80,4|0|2,0:0|0:0|3:0,0:0:0:0:
300,112,231252,2,0,L|248:148,1,40,0|2,0:0|0:0,0:0:0:0:
256,192,231694,12,4,233458,0:0:0:0:
296,120,239415,6,0,L|336:140,1,40,2|0,0:0|0:0,0:0:0:0:
392,64,240077,1,2,0:0:0:0:
428,152,240518,6,0,P|416:197|387:216,1,80,2|0,0:0|0:0,0:0:0:0:
301,258,241400,2,0,P|329:294|367:307,1,80,2|0,0:0|0:0,0:0:0:0:
408,312,242062,1,2,0:0:0:0:
276,364,242724,1,2,0:0:0:0:
196,308,243165,1,2,0:0:0:0:
120,368,243606,1,2,0:0:0:0:
40,312,244047,6,0,P|20:268|16:232,1,80,2|0,0:0|0:0,0:0:0:0:
52,148,244930,2,0,P|100:152|133:167,1,80,2|0,0:0|0:0,0:0:0:0:
164,252,245812,2,0,P|188:233|217:193,1,80,2|0,0:0|0:0,0:0:0:0:
210,145,246474,2,0,L|288:236,1,120,2|0,0:0|0:0,0:0:0:0:
380,212,247577,6,0,L|432:228,2,40,2|0|0,0:0|0:0|0:0,0:0:0:0:
348,120,248460,1,2,0:0:0:0:
280,52,248901,1,0,0:0:0:0:
280,52,249121,2,0,P|226:23|168:23,1,120,2|2,0:0|0:0,0:0:0:0:
76,53,250224,2,0,P|84:93|112:121,1,80,0|2,0:0|0:0,0:0:0:0:
203,120,251107,5,2,0:0:0:0:
271,187,251548,1,2,0:0:0:0:
338,254,251989,1,2,0:0:0:0:
405,321,252430,2,0,P|349:348|264:312,1,160,2|4,0:0|0:0,0:0:0:0:
168,324,253754,2,0,L|132:352,2,40,2|0|0,1:2|0:0|0:0,0:0:0:0:
196,232,254636,6,0,L|176:196,1,40,4|0,0:0|0:0,0:0:0:0:
152,156,255078,2,0,P|129:150|109:137,1,40,2|2,0:0|0:0,0:0:0:0:
80,108,255519,1,10,0:0:0:0:
162,60,255960,2,0,L|142:16,2,40,0|2|0,0:0|0:0|0:0,0:0:0:0:
244,112,256843,1,2,0:0:0:0:
312,44,257284,1,10,0:0:0:0:
352,132,257725,1,2,0:0:0:0:
420,64,258166,6,0,P|435:83|444:104,1,40,2|0,0:0|0:0,0:0:0:0:
476,132,258607,2,0,L|464:172,1,40,2|2,0:0|0:0,0:0:0:0:
460,220,259049,2,0,P|421:243|384:243,1,80,2|0,1:2|0:0,0:0:0:0:
328,320,259931,1,2,0:0:0:0:
236,348,260372,1,0,0:0:0:0:
236,348,260593,2,0,P|208:336|196:328,1,40,2|2,0:0|1:2,0:0:0:0:
124,272,261255,2,0,P|120:320|114:355,1,80,2|4,0:0|0:0,0:0:0:0:
16,248,262358,6,0,L|48:216,1,40,2|10,0:0|0:0,0:0:0:0:
40,124,263019,1,0,0:0:0:0:
40,124,263240,2,0,P|96:148|156:140,1,120,2|0,0:0|0:0,0:0:0:0:
216,68,264343,1,2,1:2:0:0:
304,108,264784,1,2,0:0:0:0:
383,164,265226,6,0,P|316:203|241:182,1,160,2|2,0:0|3:0,0:0:0:0:
144,196,266549,1,2,0:0:0:0:
144,196,266770,2,0,P|172:248|168:312,1,120,2|8,0:0|0:0,0:0:0:0:
256,352,267873,2,0,L|284:380,2,40,2|8|4,1:3|3:0|3:0,0:0:0:0:
256,256,268755,6,0,L|296:256,1,40,4|0,0:0|0:0,0:0:0:0:
332,288,269196,2,0,P|345:303|362:312,1,40,2|2,0:0|0:0,0:0:0:0:
411,320,269638,1,2,1:2:0:0:
444,228,270079,2,0,L|476:252,2,40,0|2|0,0:0|0:0|0:0,0:0:0:0:
456,132,270961,2,0,L|488:156,2,40,0|2|10,0:0|0:0|0:0,0:0:0:0:
420,44,271844,1,2,0:0:0:0:
356,116,272285,6,0,L|335:123|317:129,1,40,4|0,0:0|0:0,0:0:0:0:
268,128,272726,2,0,L|228:152,1,40,2|2,0:0|0:0,0:0:0:0:
196,176,273167,2,0,P|144:164|116:132,1,80,2|0,1:2|0:0,0:0:0:0:
124,52,274050,1,2,0:0:0:0:
48,112,274491,1,2,0:0:0:0:
48,112,274711,2,0,L|12:132,1,40,2|2,0:0|1:2,0:0:0:0:
40,224,275373,2,0,P|36:272|40:312,1,80,2|4,0:0|0:0,0:0:0:0:
232,288,276697,5,2,1:2:0:0:
372,324,277359,1,0,0:0:0:0:
372,324,277579,2,0,P|420:316|448:300,1,80,2|0,0:0|0:0,0:0:0:0:
472,260,278241,2,0,P|464:212|448:184,1,80,2|0,0:0|0:0,0:0:0:0:
416,152,278903,1,2,0:0:0:0:
256,192,279124,12,2,281109,1:2:0:0:
272,264,281991,6,0,L|308:248,2,40,2|8|4,1:2|3:0|3:0,0:0:0:0:
206,333,282874,6,0,P|186:334|166:337,1,40,4|0,0:0|0:0,0:0:0:0:
125,360,283315,2,0,L|98:347|79:334,1,40,2|0,0:0|0:0,0:0:0:0:
60,304,283756,1,2,0:0:0:0:
40,208,284197,1,0,0:0:0:0:
40,208,284418,2,0,P|32:160|40:124,1,80,2|0,0:0|0:0,0:0:0:0:
68,92,285080,2,0,L|104:72,2,40,2|2|2,0:0|0:0|1:2,0:0:0:0:
136,160,285962,1,0,0:0:0:0:
232,156,286404,6,0,P|264:143|280:132,1,40,4|0,0:0|0:0,0:0:0:0:
304,108,286845,2,0,P|336:116|352:124,1,40,2|2,0:0|0:0,0:0:0:0:
379,148,287286,2,0,P|386:187|380:226,1,80,2|2,1:2|0:0,0:0:0:0:
316,300,288168,1,2,0:0:0:0:
224,332,288610,2,0,L|208:368,2,40,4|0|4,1:2|0:0|1:2,0:0:0:0:
176,248,289492,2,0,P|154:291|128:324,1,80,2|4,0:0|0:0,0:0:0:0:
112,128,290816,6,0,L|72:116,2,40,2|8|4,3:0|3:0|3:0,0:0:0:0:
192,76,291698,2,0,P|232:56|272:56,1,80,4|0,0:0|0:0,0:0:0:0:
312,68,292360,1,2,0:0:0:0:
368,148,292801,2,0,L|348:188,1,40,2|0,0:0|0:0,0:0:0:0:
256,192,293242,12,0,295228,0:0:0:0:
