osu file format v12

[General]
AudioFilename: .mp3
AudioLeadIn: 0
PreviewTime: 69782
Countdown: 0
SampleSet: Soft
StackLeniency: 0.7
Mode: 0
LetterboxInBreaks: 0
WidescreenStoryboard: 1

[Editor]
DistanceSpacing: 0.1
BeatDivisor: 4
GridSize: 4

[Metadata]
Title:Taisetsu na Basho
TitleUnicode:大切な場所
Artist:Yuuki Aoi, Matayoshi Ai & Saitou Momoko
ArtistUnicode:悠木碧, 又吉愛 & 斎藤桃子
Creator:Zero__wind
Version:Hard
Source:A Channel + smile
Tags:insert song meetmeetdee Azure Ichii Tooru Imai Yutaka Noyama Miho
BeatmapID:323965
BeatmapSetID:101579

[Difficulty]
HPDrainRate:5
CircleSize:4
OverallDifficulty:5
ApproachRate:6
SliderMultiplier:2
SliderTickRate:2

[Events]
//Background and Video events
0,0,"bg.jpg",0,0
//Break Periods
2,111885,122989
2,193067,204171
2,240718,252704
//Storyboard Layer 0 (Background)
//Storyboard Layer 1 (Fail)
//Storyboard Layer 2 (Pass)
//Storyboard Layer 3 (Foreground)
//Storyboard Sound Samples
//Background Colour Transformations
3,100,163,162,255

[TimingPoints]
7560,882.417824840062,4,2,1,20,1,0
15060,-100,4,2,1,30,0,0
27855,-100,4,2,1,27,0,0
28296,-100,4,2,1,24,0,0
29179,-100,4,2,1,30,0,0
37782,-100,4,2,1,10,0,0
38003,-100,4,2,1,30,0,0
41312,-100,4,2,1,20,0,0
42856,-100,4,2,1,30,0,0
56092,-100,4,2,1,27,0,0
56534,-100,4,2,1,24,0,0
71094,-100,4,2,1,40,0,1
83006,-133.333333333333,4,2,1,40,0,1
84330,-100,4,2,1,30,0,0
85212,-100,4,2,1,40,0,1
98669,-100,4,2,1,30,0,1
99331,-100,4,2,1,40,0,1
109699,-100,4,2,1,30,0,1
109920,-100,4,2,1,30,0,0
111685,-100,4,2,1,10,0,0
124039,-100,4,2,1,40,0,0
124921,-100,4,2,1,30,0,0
137275,-100,4,2,1,27,0,0
137716,-100,4,2,1,24,0,0
138157,-100,4,2,1,21,0,0
138599,-100,4,2,1,30,0,0
149188,-133.333333333333,4,2,1,30,0,0
149849,-133.333333333333,4,2,1,10,0,0
150070,-133.333333333333,4,2,1,30,0,0
151173,-100,4,2,1,30,0,0
152276,-100,4,2,1,40,0,1
164189,-133.333333333333,4,2,1,40,0,1
165512,-100,4,2,1,30,0,0
166395,-100,4,2,1,40,0,1
179852,-100,4,2,1,30,0,1
180513,-100,4,2,1,40,0,1
189999,-100,4,2,1,30,0,1
191102,-100,4,2,1,40,0,0
205221,-100,4,2,1,30,0,0
223311,-100,4,2,1,10,0,0
223531,-100,4,2,1,30,0,0
238312,-133.333333333333,4,2,1,30,0,0
238753,-133.333333333333,4,2,1,10,0,0
253754,-100,4,2,1,30,0,0
254636,-100,4,2,1,40,0,1
281771,-100,4,2,1,25,0,1
281991,-100,4,2,1,40,0,1
293242,-100,4,2,1,20,0,1
293463,-100,4,2,1,40,0,0
295228,-100,4,2,0,5,0,0

[Colours]
Combo1 : 139,188,38
Combo2 : 151,124,188
Combo3 : 247,250,112
Combo4 : 78,119,156
Combo5 : 199,198,215

[HitObjects]
100,88,14619,2,0,P|156:76|200:84,1,100,2|0,0:0|0:0,0:0:0:0:
264,120,15281,1,0,0:0:0:0:
268,197,15501,2,0,P|247:214|224:225,1,50,0|2,0:0|0:0,0:0:0:0:
72,255,16163,2,0,P|99:323|166:352,1,150,2|2,0:0|0:0,0:0:0:0:
300,288,17266,1,2,0:0:0:0:
300,288,17487,2,0,L|396:324,1,100
468,308,18149,5,2,0:0:0:0:
472,160,18590,2,0,L|500:116,1,50,0|2,0:0|0:0,0:0:0:0:
484,44,19031,5,0,0:0:0:0:
416,8,19252,1,0,0:0:0:0:
268,40,19693,2,0,P|271:86|308:121,1,100,2|0,0:0|0:0,0:0:0:0:
380,151,20355,1,2,0:0:0:0:
317,259,20796,1,0,0:0:0:0:
220,184,21237,2,0,L|171:166,1,50,2|0,0:0|0:0,0:0:0:0:
126,109,21678,6,0,P|119:86|117:61,1,50,2|0,0:0|0:0,0:0:0:0:
66,157,22119,2,0,P|44:146|26:130,1,50,0|2,0:0|0:0,0:0:0:0:
43,230,22561,5,0,0:0:0:0:
95,286,22781,1,0,0:0:0:0:
43,342,23002,1,0,0:0:0:0:
111,374,23222,2,0,P|165:342|180:261,1,150,2|2,0:0|0:0,0:0:0:0:
332,272,24325,2,0,P|335:322|365:364,1,100,2|0,0:0|0:0,0:0:0:0:
424,292,24987,6,0,P|413:224|351:179,1,150,2|0,0:0|0:0,0:0:0:0:
184,108,26090,2,0,P|180:47|198:14,1,100,2|0,0:0|0:0,0:0:0:0:
264,72,26752,2,0,B|283:103|264:144|264:144|246:176|264:216,1,150,0|2,0:0|0:0,0:0:0:0:
216,304,27855,5,2,0:0:0:0:
128,352,28296,1,2,0:0:0:0:
128,352,28517,1,0,0:0:0:0:
128,352,28738,6,0,P|71:346|36:320,1,100,2|0,0:0|0:0,0:0:0:0:
24,172,29620,2,0,P|81:178|116:204,1,100,2|0,0:0|0:0,0:0:0:0:
176,160,30282,1,2,0:0:0:0:
228,104,30502,6,0,P|237:79|240:56,1,50,0|2,0:0|0:0,0:0:0:0:
160,11,30944,2,0,P|151:35|148:60,1,50,2|0,0:0|0:0,0:0:0:0:
176,160,31385,2,0,P|194:179|220:196,1,50,2|2,0:0|0:0,0:0:0:0:
268,276,31826,2,0,P|293:269|321:255,1,50,0|0,0:0|0:0,0:0:0:0:
332,160,32267,6,0,P|377:178|407:219,1,100,2|2,0:0|0:0,0:0:0:0:
432,340,33150,1,0,0:0:0:0:
312,360,33591,2,0,L|260:364,1,50,2|0,0:0|0:0,0:0:0:0:
166,337,34032,6,0,P|134:341|112:351,1,50,0|2,0:0|0:0,0:0:0:0:
112,240,34473,2,0,P|86:259|72:279,1,50,2|0,0:0|0:0,0:0:0:0:
20,184,34914,5,2,0:0:0:0:
20,32,35356,1,2,0:0:0:0:
151,107,35797,2,0,P|251:99|248:20,1,200,2|0,0:0|0:0,0:0:0:0:
151,107,37120,1,2,0:0:0:0:
151,107,37341,6,0,P|136:156|146:203,1,100,0|0,0:0|0:0,0:0:0:0:
151,287,38003,2,0,P|197:270|228:232,2,100,2|0|2,0:0|0:0|0:0,0:0:0:0:
4,252,39327,5,2,0:0:0:0:
4,252,39768,1,2,0:0:0:0:
104,360,40430,1,0,0:0:0:0:
104,360,40650,2,0,L|204:376,1,100,2|0,0:0|0:0,0:0:0:0:
304,356,41533,5,2,0:0:0:0:
400,288,41974,1,2,0:0:0:0:
356,176,42415,1,2,0:0:0:0:
448,100,42856,6,0,P|464:78|472:52,1,50,2|0,0:0|0:0,0:0:0:0:
382,36,43297,2,0,P|354:33|328:39,1,50,0|2,0:0|0:0,0:0:0:0:
222,85,43739,6,0,P|247:88|272:83,2,50,0|0|0,0:0|0:0|0:0,0:0:0:0:
156,52,44400,2,0,P|91:71|24:28,1,150,2|0,0:0|0:0,0:0:0:0:
112,152,45503,1,2,0:0:0:0:
108,228,45724,2,0,P|100:268|56:312,1,100
31,239,46386,5,2,0:0:0:0:
176,288,46827,2,0,P|207:293|228:292,1,50,0|2,0:0|0:0,0:0:0:0:
300,280,47268,2,0,P|320:288|344:304,1,50
492,320,47930,2,0,P|454:261|472:184,1,150,2|0,0:0|0:0,0:0:0:0:
504,40,49033,1,2,0:0:0:0:
360,8,49474,2,0,P|332:14|312:24,1,50,0|0,0:0|0:0,0:0:0:0:
272,88,49916,6,0,P|227:114|181:113,1,100,2|0,0:0|0:0,0:0:0:0:
116,76,50577,1,2,0:0:0:0:
52,40,50798,2,0,P|34:24|11:13,2,50
116,76,51460,2,0,P|104:149|40:180,1,150,2|0,0:0|0:0,0:0:0:0:
80,324,52563,2,0,L|184:344,1,100,2|0,0:0|0:0,0:0:0:0:
252,328,53225,1,0,0:0:0:0:
252,328,53445,5,2,0:0:0:0:
360,224,53886,1,0,0:0:0:0:
395,370,54328,2,0,P|449:361|482:333,1,100,2|0,0:0|0:0,0:0:0:0:
504,260,54989,2,0,P|500:229|489:204,1,50,0|2,0:0|0:0,0:0:0:0:
480,64,55651,5,2,0:0:0:0:
360,224,56092,1,2,0:0:0:0:
268,48,56534,1,2,0:0:0:0:
268,48,56754,1,0,0:0:0:0:
268,48,56975,6,0,P|224:73|196:116,1,100,2|0,0:0|0:0,0:0:0:0:
132,252,57857,2,0,P|179:228|202:181,1,100,2|0,0:0|0:0,0:0:0:0:
126,174,58519,2,0,L|78:158,1,50,0|2,0:0|0:0,0:0:0:0:
48,308,59181,6,0,L|12:344,1,50,0|2,0:0|0:0,0:0:0:0:
196,344,59843,2,0,P|224:348|248:348,2,50,2|0|0,0:0|0:0|0:0,0:0:0:0:
227,274,60505,6,0,P|281:283|314:314,1,100,2|0,0:0|0:0,0:0:0:0:
448,252,61387,2,0,P|490:217|503:173,1,100,2|0,0:0|0:0,0:0:0:0:
476,104,62049,1,0,0:0:0:0:
416,56,62269,6,0,P|384:51|360:52,1,50,2|0,0:0|0:0,0:0:0:0:
262,99,62711,2,0,P|287:103|311:103,1,50,2|0,0:0|0:0,0:0:0:0:
220,36,63152,5,2,0:0:0:0:
80,88,63593,1,2,0:0:0:0:
28,228,64034,6,0,P|66:301|161:261,1,200,2|2,0:0|0:0,0:0:0:0:
272,164,65358,1,0,0:0:0:0:
347,159,65578,2,0,P|371:161|397:172,1,50,0|2,0:0|0:0,0:0:0:0:
496,284,66240,5,0,0:0:0:0:
328,328,66681,1,2,0:0:0:0:
272,164,67123,1,2,0:0:0:0:
320,20,67564,5,2,0:0:0:0:
320,20,68005,2,0,P|242:44|184:16,1,150,2|0,0:0|0:0,0:0:0:0:
112,44,68888,1,2,0:0:0:0:
400,340,69991,5,2,0:0:0:0:
444,280,70211,2,0,P|459:224|444:180,1,100,2|8,0:0|3:0,0:0:0:0:
212,96,71094,5,4,0:0:0:0:
204,172,71314,1,0,0:0:0:0:
216,248,71535,2,0,P|216:271|208:300,1,50,2|0,0:0|0:0,0:0:0:0:
160,356,71976,2,0,P|105:361|66:341,1,100,2|0,0:0|0:0,0:0:0:0:
24,280,72638,2,0,L|53:239,1,50,0|2,0:0|0:0,0:0:0:0:
132,112,73300,5,2,0:0:0:0:
16,16,73741,1,10,0:0:0:0:
168,12,74182,1,2,0:0:0:0:
44,96,74623,6,0,P|41:125|44:145,1,50,4|0,0:0|0:0,0:0:0:0:
124,208,75064,2,0,P|127:232|124:257,1,50,2|0,0:0|0:0,0:0:0:0:
132,112,75506,2,0,P|185:107|230:127,1,100,2|0,0:0|0:0,0:0:0:0:
312,248,76388,1,2,0:0:0:0:
424,348,76829,1,2,0:0:0:0:
424,348,77050,2,0,P|453:336|471:319,1,50,2|10,0:0|0:0,0:0:0:0:
506,177,77712,1,0,0:0:0:0:
464,29,78153,6,0,P|432:33|413:42,1,50,4|0,0:0|0:0,0:0:0:0:
364,97,78594,2,0,P|340:106|315:108,1,50,2|0,0:0|0:0,0:0:0:0:
248,144,79035,2,0,P|224:188|232:236,1,100,2|0,0:0|0:0,0:0:0:0:
192,301,79697,2,0,P|264:303|307:245,1,150,2|0,0:0|0:0,0:0:0:0:
364,97,80800,1,10,0:0:0:0:
244,12,81241,1,0,0:0:0:0:
96,16,81683,5,2,0:0:0:0:
96,16,82124,2,0,P|63:59|65:103,1,100,2|0,0:0|0:0,0:0:0:0:
120,200,83006,6,0,B|120:236|84:262|84:262|52:281|48:324,1,150,2|2,0:0|1:2,0:0:0:0:
200,348,84330,6,0,P|247:350|292:325,1,100,2|8,0:0|3:0,0:0:0:0:
460,212,85212,6,0,L|421:180,1,50,4|0,0:0|0:0,0:0:0:0:
360,136,85653,2,0,L|342:89,1,50,2|0,0:0|0:0,0:0:0:0:
276,52,86095,2,0,P|322:18|364:17,1,100,2|0,0:0|0:0,0:0:0:0:
430,54,86756,2,0,P|458:51|479:44,1,50,0|2,0:0|0:0,0:0:0:0:
460,212,87418,5,2,0:0:0:0:
334,307,87860,1,10,0:0:0:0:
178,296,88301,1,2,0:0:0:0:
52,212,88742,6,0,P|48:188|48:160,1,50,4|0,0:0|0:0,0:0:0:0:
84,299,89183,2,0,P|65:315|44:328,1,50,2|0,0:0|0:0,0:0:0:0:
178,296,89624,2,0,P|227:315|251:358,1,100,2|0,0:0|0:0,0:0:0:0:
396,372,90507,2,0,P|442:350|468:304,1,100,2|0,0:0|0:0,0:0:0:0:
476,236,91169,2,0,L|448:192,1,50,2|10,0:0|0:0,0:0:0:0:
316,44,91830,2,0,L|328:144,1,100,2|4,0:0|0:0,0:0:0:0:
184,240,92933,5,0,0:0:0:0:
124,284,93154,2,0,P|72:292|24:272,1,100,2|0,0:0|0:0,0:0:0:0:
20,200,93816,2,0,P|0:132|44:72,1,150,2|0,0:0|0:0,0:0:0:0:
188,116,94919,1,10,0:0:0:0:
312,32,95360,1,2,0:0:0:0:
420,136,95801,6,0,P|424:187|404:232,2,100,4|0|0,0:0|0:0|0:0,0:0:0:0:
276,172,97125,1,2,0:0:0:0:
276,172,97346,2,0,B|257:203|276:244|276:244|294:276|276:316,1,150,0|2,0:0|0:0,0:0:0:0:
128,340,98449,5,2,3:0:0:0:
124,343,98669,1,8,0:3:0:0:
120,346,98890,1,8,0:3:0:0:
32,112,99331,6,0,P|37:88|48:64,1,50,4|0,0:0|0:0,0:0:0:0:
148,48,99772,2,0,P|143:72|132:96,1,50,2|0,0:0|0:0,0:0:0:0:
96,188,100213,2,0,P|136:228|184:232,1,100,2|0,0:0|0:0,0:0:0:0:
236,184,100875,2,0,P|304:148|376:172,1,150,2|2,0:0|0:0,0:0:0:0:
432,212,101758,2,0,P|460:220|484:224,1,50,2|10,0:0|0:0,0:0:0:0:
488,72,102419,1,0,0:0:0:0:
348,16,102861,6,0,L|300:28,1,50,4|0,0:0|0:0,0:0:0:0:
200,40,103302,2,0,L|242:68,1,50,2|0,0:0|0:0,0:0:0:0:
336,104,103743,2,0,P|308:142|260:165,1,100,2|0,0:0|0:0,0:0:0:0:
183,257,104625,2,0,P|135:249|99:215,1,100,2|0,0:0|0:0,0:0:0:0:
112,142,105287,2,0,L|136:98,1,50,0|4,0:0|0:0,0:0:0:0:
16,192,105949,2,0,L|28:296,1,100,2|4,0:0|0:0,0:0:0:0:
244,352,107052,5,0,0:0:0:0:
244,352,107273,2,0,P|272:360|304:364,2,50,2|0|8,0:0|0:0|3:0,0:0:0:0:
200,292,107935,1,0,0:0:0:0:
192,216,108155,6,0,P|200:164|228:128,1,100,4|0,0:0|0:0,0:0:0:0:
300,102,108817,1,2,0:0:0:0:
439,162,109258,2,0,P|467:153|487:138,1,50
368,136,109699,1,2,0:0:0:0:
256,192,109920,12,2,111685,0:0:0:0:
296,128,124039,6,0,P|325:115|340:104,2,50,2|0|0,0:0|0:0|0:0,0:0:0:0:
220,124,124700,1,2,0:0:0:0:
144,120,124921,6,0,P|115:133|100:144,1,50,0|0,0:0|0:0,0:0:0:0:
104,220,125362,1,0,0:0:0:0:
128,292,125583,2,0,P|104:352|24:376,1,150,2|0,0:0|0:0,0:0:0:0:
128,292,126686,1,2,3:0:0:0:
201,268,126907,2,0,P|253:258|296:273,1,100,2|0,0:0|0:0,0:0:0:0:
344,332,127568,5,2,0:0:0:0:
476,148,128230,1,0,0:0:0:0:
476,148,128451,6,0,P|486:121|488:100,1,50,2|0,0:0|0:0,0:0:0:0:
368,12,129113,2,0,P|316:8|272:28,1,100,2|0,0:0|0:0,0:0:0:0:
216,75,129774,1,0,0:0:0:0:
328,172,130216,1,2,3:0:0:0:
216,272,130657,2,0,L|168:284,1,50,0|0,0:0|0:0,0:0:0:0:
72,319,131098,6,0,P|63:343|59:368,1,50,2|0,0:0|0:0,0:0:0:0:
36,252,131539,2,0,P|45:228|48:204,1,50,0|2,0:0|0:0,0:0:0:0:
38,130,131980,6,0,L|12:88,2,50
112,116,132642,2,0,P|181:89|247:123,1,150,2|2,0:0|0:0,0:0:0:0:
304,260,133745,2,0,P|337:273|358:274,2,50,2|0|0,3:0|0:0|0:0,0:0:0:0:
232,240,134407,2,0,P|208:248|184:260,1,50,2|0,0:0|0:0,0:0:0:0:
288,368,135069,5,0,0:0:0:0:
432,328,135510,1,2,0:0:0:0:
488,188,135951,1,2,0:0:0:0:
488,188,136172,2,0,L|496:136,1,50
416,20,136834,5,2,0:0:0:0:
264,19,137275,1,2,0:0:0:0:
339,149,137716,1,2,0:0:0:0:
339,149,137937,1,0,0:0:0:0:
339,149,138157,6,0,P|344:208|327:247,1,100,2|0,0:0|0:0,0:0:0:0:
248,372,139040,2,0,P|243:313|260:274,1,100,2|0,0:0|0:0,0:0:0:0:
328,244,139702,2,0,P|359:250|384:256,1,50
254,188,140143,5,2,0:0:0:0:
188,224,140363,2,0,L|161:234|140:240,1,50,0|2,0:0|0:0,0:0:0:0:
136,360,140805,2,0,P|117:344|96:332,1,50,2|0,1:2|0:0,0:0:0:0:
39,249,141246,1,0,0:0:0:0:
15,179,141466,1,0,0:0:0:0:
12,104,141687,6,0,P|24:52|60:20,1,100,2|0,0:0|0:0,0:0:0:0:
204,44,142569,2,0,P|255:28|300:43,1,100,2|0,0:0|0:0,0:0:0:0:
352,96,143231,1,0,0:0:0:0:
395,156,143452,6,0,P|415:172|439:180,1,50
512,165,143893,1,2,0:0:0:0:
481,18,144334,1,2,3:0:0:0:
352,96,144775,1,0,0:0:0:0:
304,240,145217,6,0,P|307:293|336:328,1,100,2|0,0:0|0:0,0:0:0:0:
196,374,146099,2,0,P|142:366|110:333,1,100,2|0,0:0|0:0,0:0:0:0:
76,268,146761,2,0,P|80:244|95:218,1,50,0|2,0:0|0:0,0:0:0:0:
226,148,147423,5,2,0:0:0:0:
149,16,147864,1,2,1:2:0:0:
18,92,148305,1,2,0:0:0:0:
92,221,148746,5,2,0:0:0:0:
92,221,149188,2,0,L|172:304,1,112.500004291535,4|0,0:0|0:0,0:0:0:0:
240,336,150070,2,0,P|319:301|376:324,1,150.000005722046,4|10,0:0|0:0,0:0:0:0:
432,272,151173,6,0,P|456:256|468:240,1,50,2|8,0:0|3:0,0:0:0:0:
484,164,151614,1,8,3:0:0:0:
480,88,151835,1,4,3:0:0:0:
236,24,152276,6,0,L|184:36,1,50,4|0,0:0|0:0,0:0:0:0:
132,88,152717,2,0,L|80:72,1,50,2|0,0:0|0:0,0:0:0:0:
28,124,153158,2,0,P|21:176|45:221,1,100,2|0,3:0|0:0,0:0:0:0:
112,236,153820,2,0,P|135:253|148:272,1,50,2|0,0:0|0:0,0:0:0:0:
16,324,154482,5,2,0:0:0:0:
112,160,154923,1,10,0:0:0:0:
276,248,155364,1,0,0:0:0:0:
424,336,155806,6,0,P|453:329|472:320,1,50,4|0,0:0|0:0,0:0:0:0:
304,340,156247,2,0,P|329:324|349:317,1,50,2|0,0:0|0:0,0:0:0:0:
216,318,156688,2,0,P|186:270|188:225,1,100,2|0,3:0|0:0,0:0:0:0:
232,84,157571,1,2,0:0:0:0:
368,148,158012,1,2,0:0:0:0:
368,148,158232,2,0,P|395:154|422:155,1,50,0|10,0:0|0:0,0:0:0:0:
504,36,158894,5,2,0:0:0:0:
504,36,159115,1,0,0:0:0:0:
504,36,159335,2,0,P|480:32|454:32,1,50,4|0,0:0|0:0,0:0:0:0:
372,48,159777,2,0,P|347:48|322:43,1,50,2|0,0:0|0:0,0:0:0:0:
246,83,160218,2,0,P|233:61|224:38,2,50,2|0|0,3:0|0:0|0:0,0:0:0:0:
248,172,160880,2,0,P|284:232|267:306,1,150,2|0,0:0|0:0,0:0:0:0:
131,363,161983,2,0,L|36:334,1,100,10|2,0:0|0:0,0:0:0:0:
192,248,162865,5,4,0:0:0:0:
40,164,163306,1,2,0:0:0:0:
196,84,163747,1,10,0:0:0:0:
31,27,164189,6,0,P|8:97|40:164,1,150.000005722046,4|2,0:0|1:2,0:0:0:0:
192,168,165512,6,0,L|241:173,1,50,2|8,3:0|3:0,0:0:0:0:
315,158,165953,1,4,3:0:0:0:
472,32,166395,6,0,P|491:51|502:74,1,50,4|0,0:0|0:0,0:0:0:0:
456,144,166836,2,0,P|456:170|447:194,1,50,2|0,0:0|0:0,0:0:0:0:
376,240,167277,2,0,P|363:292|376:336,1,100,2|0,3:0|0:0,0:0:0:0:
448,288,167939,1,2,0:0:0:0:
376,240,168160,6,0,L|274:249,1,100,0|2,0:0|0:0,0:0:0:0:
160,344,169042,1,10,0:0:0:0:
12,320,169483,1,0,0:0:0:0:
32,168,169924,6,0,P|39:142|40:116,1,50,4|0,0:0|0:0,0:0:0:0:
108,23,170366,2,0,P|101:47|100:72,1,50,2|0,0:0|0:0,0:0:0:0:
148,147,170807,2,0,P|191:167|239:151,1,100,2|0,3:0|0:0,0:0:0:0:
360,64,171689,2,0,P|406:48|450:68,1,100,2|0,0:0|0:0,0:0:0:0:
403,126,172351,2,0,L|403:178,1,50,2|4,0:0|0:0,0:0:0:0:
276,260,173013,2,0,L|308:356,1,100,2|4,0:0|0:0,0:0:0:0:
108,356,174336,6,0,P|62:328|44:288,1,100,2|0,3:0|0:0,0:0:0:0:
60,200,174998,2,0,P|71:128|24:72,1,150,2|0,0:0|0:0,0:0:0:0:
168,20,176101,1,10,0:0:0:0:
288,112,176543,1,2,0:0:0:0:
400,12,176984,6,0,P|481:58|500:156,1,200,4|2,0:0|3:0,0:0:0:0:
432,288,178307,1,2,0:0:0:0:
432,288,178528,2,0,L|384:300,1,50
248,240,179190,1,2,1:2:0:0:
128,340,179631,5,2,3:0:0:0:
124,343,179851,1,8,0:3:0:0:
120,346,180072,1,4,0:3:0:0:
32,168,180513,6,0,P|56:156|80:152,1,50,4|0,0:0|0:0,0:0:0:0:
168,168,180955,2,0,P|192:163|214:152,1,50,2|0,0:0|0:0,0:0:0:0:
260,72,181396,2,0,P|298:114|306:156,1,100,2|0,3:0|0:0,0:0:0:0:
385,192,182058,2,0,P|413:200|433:204,1,50,2|0,0:0|0:0,0:0:0:0:
496,64,182719,1,0,0:0:0:0:
496,64,182940,2,0,P|468:56|448:52,1,50,2|10,0:0|0:0,0:0:0:0:
312,112,183602,1,0,0:0:0:0:
236,240,184043,6,0,L|248:292,1,50,4|0,0:0|0:0,0:0:0:0:
188,352,184484,2,0,L|176:303,1,50,2|0,0:0|0:0,0:0:0:0:
252,204,184925,2,0,L|275:307,1,100,2|2,3:0|0:0,0:0:0:0:
412,364,185808,2,0,P|468:356|504:328,1,100,2|0,0:0|0:0,0:0:0:0:
488,256,186470,2,0,L|454:219,1,50,2|4,0:0|0:0,0:0:0:0:
252,204,187132,2,0,L|275:307,1,100,2|4,0:0|0:0,0:0:0:0:
56,360,188235,5,2,0:0:0:0:
24,292,188455,2,0,P|20:264|20:236,1,50,2|0,3:0|0:0,0:0:0:0:
40,168,188896,1,2,0:0:0:0:
92,112,189117,1,0,0:0:0:0:
92,112,189338,6,0,P|148:100|192:116,1,100,4|0,0:0|0:0,0:0:0:0:
252,152,189999,2,0,L|280:148,2,25,0|8|8,0:0|3:0|3:0,0:0:0:0:
186,188,190441,1,8,3:0:0:0:
152,256,190661,1,4,3:0:0:0:
164,332,190882,2,0,P|179:353|200:368,1,50,2|4,0:0|0:0,0:0:0:0:
256,192,191323,12,2,192867,0:0:0:0:
256,192,205221,5,4,0:0:0:0:
100,316,206104,2,0,P|48:304|16:272,1,100,2|0,3:0|0:0,0:0:0:0:
8,196,206765,2,0,B|12:152|44:133|44:133|80:107|80:71,1,150,2|0,0:0|0:0,0:0:0:0:
220,16,207868,1,2,3:0:0:0:
368,16,208310,1,0,0:0:0:0:
472,124,208751,6,0,P|493:171|481:218,1,100,2|0,0:0|0:0,0:0:0:0:
420,260,209413,2,0,L|368:272,1,50,2|2,0:0|3:0,0:0:0:0:
224,232,210074,1,0,0:0:0:0:
224,232,210516,5,2,0:0:0:0:
371,271,210957,2,0,L|420:260,1,50,2|2,0:0|0:0,0:0:0:0:
484,304,211398,5,2,3:0:0:0:
487,307,211619,1,2,0:0:0:0:
489,311,211839,1,0,0:0:0:0:
352,372,212280,1,0,0:0:0:0:
152,324,213163,6,0,P|96:323|55:344,1,100,2|0,1:2|0:0,0:0:0:0:
40,256,213825,2,0,P|36:229|28:204,1,50,2|0,0:0|0:0,0:0:0:0:
80,64,214486,1,0,0:0:0:0:
224,16,214928,1,2,3:0:0:0:
364,72,215369,1,0,0:0:0:0:
364,72,215590,1,0,0:0:0:0:
364,72,215810,6,0,P|385:119|380:168,1,100,2|0,0:0|0:0,0:0:0:0:
344,232,216472,1,2,0:0:0:0:
357,306,216693,2,0,P|378:350|418:379,1,100,2|0,3:0|0:0,3:0:0:0:
292,132,217575,5,2,0:0:0:0:
224,100,217796,1,2,0:0:0:0:
152,124,218016,2,0,P|124:128|100:128,1,50
24,208,218457,5,2,3:0:0:0:
92,240,218678,1,2,0:0:0:0:
164,216,218898,2,0,P|192:212|216:212,1,50
288,280,219340,6,0,P|285:338|260:372,1,100,4|0,0:0|0:0,0:0:0:0:
65,330,220222,2,0,P|65:281|92:240,1,100,2|0,3:0|0:0,0:0:0:0:
152,196,220884,2,0,P|190:137|171:63,1,150,2|0,0:0|0:0,0:0:0:0:
28,12,221987,1,2,3:0:0:0:
104,120,222428,1,0,0:0:0:0:
104,120,222649,1,0,0:0:0:0:
104,120,222869,6,0,L|204:136,1,100,2|0,0:0|0:0,0:0:0:0:
276,116,223531,2,0,P|353:144|416:126,1,150,2|0,0:0|0:0,0:0:0:0:
352,4,224634,1,2,0:0:0:0:
276,116,225075,1,2,0:0:0:0:
248,248,225517,2,0,P|245:301|268:343,1,100,2|0,3:0|0:0,0:0:0:0:
336,280,226179,2,0,P|364:284|388:292,1,50,2|0,0:0|0:0,0:0:0:0:
168,360,226840,6,0,P|140:356|116:348,1,50,0|2,0:0|0:0,0:0:0:0:
112,197,227282,2,0,P|97:178|86:156,1,50,2|0,3:0|0:0,0:0:0:0:
79,272,227723,2,0,P|56:281|32:287,1,50,0|2,0:0|0:0,0:0:0:0:
164,264,228164,1,2,0:0:0:0:
164,264,228605,6,0,P|198:222|198:173,1,100,0|2,0:0|3:0,0:0:0:0:
140,40,229488,1,0,0:0:0:0:
199,177,229929,2,0,P|286:200|380:145,1,200,4|2,0:0|3:0,0:0:0:0:
272,64,231252,1,2,0:0:0:0:
272,64,231473,6,0,L|284:116,1,50
328,240,231988,2,0,P|356:265|384:276,2,66.6666666666667,2|2|2,0:0|0:0|3:0,0:0:0:0:
400,112,233017,1,0,0:0:0:0:
400,112,233238,1,0,0:0:0:0:
400,112,233458,6,0,P|430:50|501:13,1,150,4|0,0:0|0:0,0:0:0:0:
488,112,234341,2,0,P|508:156|508:207,1,100,2|0,3:0|0:0,0:0:0:0:
436,336,235223,2,0,L|480:368,2,50,2|0|2,0:0|0:0|0:0,0:0:0:0:
344,216,236106,1,2,3:0:0:0:
204,272,236547,1,0,0:0:0:0:
80,356,236988,5,2,0:0:0:0:
80,356,237429,2,0,P|41:328|28:280,1,100,2|2,0:0|0:0,0:0:0:0:
88,140,238312,6,0,P|145:73|88:11,2,187.500007152558,4|0|0,0:0|0:0|0:0,0:0:0:0:
112,304,253754,6,0,P|136:308|164:308,1,50,2|8,3:0|3:0,0:0:0:0:
248,256,254195,1,4,3:0:0:0:
372,68,254636,6,0,L|416:92,1,50,4|0,0:0|0:0,0:0:0:0:
318,141,255078,2,0,P|298:121|286:101,1,50,2|0,0:0|0:0,0:0:0:0:
394,168,255519,2,0,P|406:224|398:266,1,100,2|0,3:0|0:0,0:0:0:0:
428,336,256181,1,2,0:0:0:0:
428,336,256401,1,0,0:0:0:0:
276,332,256843,5,2,0:0:0:0:
120,204,257284,1,10,0:0:0:0:
16,372,257725,1,2,0:0:0:0:
196,280,258166,6,0,P|211:258|220:232,1,50,4|0,0:0|0:0,0:0:0:0:
276,152,258607,2,0,P|284:128|299:108,1,50,2|0,0:0|0:0,0:0:0:0:
240,12,259049,2,0,P|200:56|192:96,1,100,2|0,1:2|0:0,0:0:0:0:
56,160,259931,2,0,P|15:126|5:83,1,100,2|0,0:0|0:0,0:0:0:0:
84,84,260593,2,0,L|124:52,1,50,2|4,0:0|0:0,0:0:0:0:
304,104,261255,2,0,L|324:204,1,100,2|4,0:0|0:0,0:0:0:0:
323,202,262358,5,0,0:0:0:0:
380,252,262578,2,0,P|438:268|476:256,1,100,2|0,3:0|0:0,0:0:0:0:
457,152,263240,2,0,P|439:169|430:192,1,50,2|0,0:0|0:0,0:0:0:0:
376,360,263902,1,0,0:0:0:0:
208,368,264343,1,2,1:2:0:0:
68,304,264784,1,2,0:0:0:0:
120,112,265226,6,0,P|178:174|133:268,1,200,4|2,0:0|3:0,0:0:0:0:
24,188,266549,1,2,0:0:0:0:
16,112,266770,2,0,P|16:84|28:56,1,50
164,12,267432,1,8,0:0:0:0:
276,112,267873,5,2,1:3:0:0:
376,124,268093,1,8,3:0:0:0:
462,72,268314,1,4,3:0:0:0:
276,112,268755,6,0,P|266:138|264:164,1,50,4|0,0:0|0:0,0:0:0:0:
212,216,269196,2,0,P|229:237|251:252,1,50,2|0,0:0|0:0,0:0:0:0:
272,324,269638,2,0,P|324:320|360:292,1,100,2|0,3:0|0:0,0:0:0:0:
384,214,270299,2,0,P|436:266|425:341,1,150,2|0,0:0|0:0,0:0:0:0:
340,312,271182,6,0,P|305:319|286:329,1,50,2|2,0:0|1:2,0:0:0:0:
212,356,271623,1,0,0:0:0:0:
144,304,271844,1,2,0:0:0:0:
72,352,272064,1,0,0:0:0:0:
12,289,272285,6,0,P|9:261|4:233,1,50,4|0,0:0|0:0,0:0:0:0:
92,188,272726,2,0,P|118:177|144:165,1,50,2|0,0:0|0:0,0:0:0:0:
248,252,273167,2,0,P|245:198|218:163,1,100,2|0,3:0|0:0,0:0:0:0:
176,88,273829,1,0,0:0:0:0:
176,88,274050,2,0,P|196:39|236:12,1,100,2|0,0:0|0:0,0:0:0:0:
312,52,274711,2,0,L|341:54|365:48,1,50,2|4,0:0|0:0,0:0:0:0:
480,148,275373,2,0,L|456:248,1,100,2|4,0:0|0:0,0:0:0:0:
352,352,276476,5,0,0:0:0:0:
284,320,276697,2,0,P|261:306|240:296,2,50,2|2|0,1:2|0:0|0:0,0:0:0:0:
225,366,277359,1,0,0:0:0:0:
149,365,277579,6,0,P|117:330|111:280,1,100,4|0,0:0|0:0,0:0:0:0:
132,200,278241,2,0,L|176:176,1,50,2|4,0:0|0:0,0:0:0:0:
120,108,278682,2,0,L|164:84,1,50,2|0,0:0|0:0,0:0:0:0:
56,44,279124,6,0,L|12:68,1,50,2|4,0:0|0:0,0:0:0:0:
52,288,280006,2,0,L|37:336,1,50,2|4,0:0|1:2,0:0:0:0:
260,304,280888,6,0,L|284:347,1,50,2|4,0:0|1:2,0:0:0:0:
368,344,281330,1,2,0:0:0:0:
443,308,281550,2,0,P|468:307|493:310,1,50,8|8,3:0|3:0,0:0:0:0:
396,215,281991,2,0,P|382:235|376:259,1,50,2|8,1:2|3:0,0:0:0:0:
487,176,282433,1,4,3:0:0:0:
340,36,282874,6,0,P|316:31|288:32,1,50,4|0,0:0|0:0,0:0:0:0:
220,80,283315,2,0,P|195:80|170:75,1,50,2|0,0:0|0:0,0:0:0:0:
106,20,283756,2,0,P|89:77|99:118,1,100,2|0,1:2|0:0,0:0:0:0:
104,200,284418,2,0,L|84:223|68:236,1,50,2|0,0:0|0:0,0:0:0:0:
160,352,285080,1,2,0:0:0:0:
160,352,285301,2,0,L|208:364,1,50,0|2,0:0|1:2,0:0:0:0:
356,332,285962,1,0,0:0:0:0:
408,192,286404,6,0,L|412:140,1,50,4|0,0:0|0:0,0:0:0:0:
328,136,286845,2,0,L|284:106,1,50,2|0,0:0|0:0,0:0:0:0:
240,175,287286,2,0,L|145:220,1,100,2|0,1:2|0:0,0:0:0:0:
248,332,288168,1,2,0:0:0:0:
320,356,288389,2,0,L|372:352,1,50,0|4,0:0|1:2,0:0:0:0:
440,280,288830,2,0,L|480:252,1,50,0|4,0:0|1:2,0:0:0:0:
496,152,289271,1,8,3:0:0:0:
468,56,289492,1,8,3:0:0:0:
468,56,289933,6,0,P|417:61|376:94,1,100,4|0,0:0|0:0,0:0:0:0:
356,176,290595,2,0,L|380:193,2,25,0|8|8,0:0|3:0|3:0,0:0:0:0:
280,224,291036,1,8,3:0:0:0:
192,252,291257,1,4,3:0:0:0:
117,243,291477,1,2,0:0:0:0:
117,243,291698,6,0,P|84:200|80:156,1,100,4|0,0:0|0:0,0:0:0:0:
100,84,292360,1,2,0:0:0:0:
232,12,292801,2,0,P|260:16|284:28,1,50,2|0,0:0|0:0,0:0:0:0:
336,76,293242,1,2,0:0:0:0:
256,192,293463,12,0,295228,0:0:0:0:
