osu file format v12

[General]
AudioFilename: .mp3
AudioLeadIn: 0
PreviewTime: 69782
Countdown: 0
SampleSet: Soft
StackLeniency: 0.7
Mode: 0
LetterboxInBreaks: 0
WidescreenStoryboard: 1

[Editor]
Bookmarks: 14635,42871,71106,85224,124047,152282,152607,166400,191106,205224,240518,254635,268753,293459
DistanceSpacing: 1.5
BeatDivisor: 4
GridSize: 4

[Metadata]
Title:Taisetsu na Basho
TitleUnicode:大切な場所
Artist:Yuuki Aoi, Matayoshi Ai & Saitou Momoko
ArtistUnicode:悠木碧, 又吉愛 & 斎藤桃子
Creator:Zero__wind
Version:Collab
Source:A Channel + smile
Tags:insert song meetmeetdee Azure Ichii Tooru Imai Yutaka Noyama Miho
BeatmapID:269053
BeatmapSetID:101579

[Difficulty]
HPDrainRate:6
CircleSize:4
OverallDifficulty:6
ApproachRate:7
SliderMultiplier:2.4
SliderTickRate:2

[Events]
//Background and Video events
0,0,"bg.jpg",0,0
//Break Periods
2,111885,116079
//Storyboard Layer 0 (Background)
//Storyboard Layer 1 (Fail)
//Storyboard Layer 2 (Pass)
//Storyboard Layer 3 (Foreground)
Sprite,Foreground,Centre,"meN.png",320,240 M,0,42415,,180,380 F,0,42415,42856,0,1 R,0,42415,42856,0.101,0 F,0,42856,70652,1 F,0,70652,71094,1,0 R,0,70652,71094,0,-0.101
Sprite,Foreground,Centre,"zwN.png",320,240 M,0,14178,,180,380 F,0,14178,14619,0,1 R,0,14178,14619,0.099,0 F,0,14619,42415,1 F,0,42415,42856,1,0 R,0,42415,42856,0,-0.099
Sprite,Foreground,Centre,"zwN.png",320,240 F,0,70652,71094,0,1 R,0,70652,71094,0.101,0 M,0,71094,,180,380 F,0,71094,,1 F,0,71094,84771,1 F,0,84771,85212,1,0 R,0,84771,85212,0,-0.101
Sprite,Foreground,Centre,"meN.png",320,240 M,0,84771,,180,380 F,0,84771,85212,0,1 R,0,84771,85212,0.099,0 F,0,85212,111244,1 F,0,111244,111685,1,0 R,0,111244,111685,0,-0.099
Sprite,Foreground,Centre,"meN.png",320,240 M,0,116538,,180,380 F,0,116538,116979,0,1 R,0,116538,116979,0.101,0 F,0,116979,123597,1 F,0,123597,124039,1,0 R,0,123597,124039,0,-0.101
Sprite,Foreground,Centre,"zwN.png",320,240 M,0,123597,,180,380 F,0,123597,124039,0,1 R,0,123597,124039,0.099,0 F,0,124039,151835,1 F,0,151835,152276,1,0 R,0,151835,152276,0,-0.099
Sprite,Foreground,Centre,"meN.png",320,240 M,0,151835,,180,380 F,0,151835,152276,0,1 R,0,151835,152276,0.101,0 F,0,152276,165953,1 F,0,165953,166395,1,0 R,0,165953,166395,0,-0.101
Sprite,Foreground,Centre,"zwN.png",320,240 M,0,165953,,180,380 F,0,165953,166395,0,1 R,0,165953,166395,0.099,0 F,0,166395,190661,1 F,0,190661,191102,1,0 R,0,190661,191102,0,-0.099
Sprite,Foreground,Centre,"meN.png",320,240 M,0,190661,,180,380 F,0,190661,191102,0,1 R,0,190661,191102,0.101,0 F,0,191102,204780,1 F,0,204780,205221,1,0 R,0,204780,205221,0,-0.101
Sprite,Foreground,Centre,"zwN.png",320,240 M,0,204780,,180,380 F,0,204780,205221,0,1 R,0,204780,205221,0.099,0 F,0,205221,240077,1 F,0,240077,240518,1,0 R,0,240077,240518,0,-0.099
Sprite,Foreground,Centre,"meN.png",320,240 M,0,240077,,180,380 F,0,240077,240518,0,1 R,0,240077,240518,0.101,0 F,0,240518,254195,1 F,0,254195,254636,1,0 R,0,254195,254636,0,-0.101
Sprite,Foreground,Centre,"zwN.png",320,240 M,0,254195,,180,380 F,0,254195,254636,0,1 R,0,254195,254636,0.099,0 F,0,254636,268314,1 F,0,268314,268755,1,0 R,0,268314,268755,0,-0.099
Sprite,Foreground,Centre,"meN.png",320,240 M,0,268314,,180,380 F,0,268314,268755,0,1 R,0,268314,268755,0.101,0 F,0,268755,294787,1 F,0,294787,295228,1,0 R,0,294787,295228,0,-0.101
//Storyboard Sound Samples
//Background Colour Transformations
3,100,163,162,255

[TimingPoints]
7560,882.417824840062,4,2,1,20,1,0
15060,-100,4,2,1,30,0,0
27855,-100,4,2,1,27,0,0
28296,-100,4,2,1,24,0,0
28738,-100,4,2,1,21,0,0
29179,-100,4,2,1,30,0,0
41312,-100,4,2,1,20,0,0
42856,-100,4,2,1,30,0,0
71094,-100,4,2,1,40,0,1
83006,-133.333333333333,4,2,1,40,0,1
84330,-100,4,2,1,30,0,0
85212,-100,4,2,1,40,0,1
109699,-100,4,2,1,30,0,1
109920,-100,4,2,1,30,0,0
111685,-100,4,2,1,10,0,0
116979,-100,4,2,1,30,0,0
124039,-100,4,2,1,40,0,0
124921,-100,4,2,1,30,0,0
137275,-100,4,2,1,27,0,0
137716,-100,4,2,1,24,0,0
138157,-100,4,2,1,21,0,0
138819,-100,4,2,1,30,0,0
149188,-133.333333333333,4,2,1,30,0,0
151173,-100,4,2,1,30,0,0
152276,-100,4,2,1,40,0,1
165512,-100,4,2,1,40,0,0
166395,-100,4,2,1,40,0,1
189999,-100,4,2,1,30,0,1
191102,-100,4,2,1,40,0,0
205221,-100,4,2,1,30,0,0
223311,-100,4,2,1,10,0,0
223531,-100,4,2,1,30,0,0
238312,-133.333333333333,4,2,1,30,0,0
239194,-100,4,2,1,20,0,0
251107,-100,4,2,1,30,0,0
253754,-100,4,2,1,35,0,0
254636,-100,4,2,1,40,0,1
293242,-100,4,2,1,20,0,1
293463,-100,4,2,1,40,0,0
295228,-100,4,2,0,5,0,0

[Colours]
Combo1 : 139,188,38
Combo2 : 151,124,188
Combo3 : 247,250,112
Combo4 : 78,119,156
Combo5 : 199,198,215

[HitObjects]
301,108,14619,2,0,P|325:87|338:63,1,60,2|0,0:0|0:0,0:0:0:0:
254,31,15060,1,0,0:0:0:0:
168,60,15281,1,0,0:0:0:0:
148,148,15501,6,0,P|166:169|195:182,1,60,2|0,0:0|0:0,0:0:0:0:
284,204,15942,1,0,0:0:0:0:
404,172,16163,2,0,P|396:272|336:318,1,180,2|0,0:0|0:0,0:0:0:0:
180,324,17266,1,2,0:0:0:0:
180,324,17487,2,0,P|119:314|79:273,1,120
137,126,18149,5,2,0:0:0:0:
156,244,18369,1,0,0:0:0:0:
12,247,18590,1,0,0:0:0:0:
24,128,18810,1,2,0:0:0:0:
113,47,19031,5,0,0:0:0:0:
113,47,19252,2,0,P|139:30|172:20,1,60
288,32,19693,2,0,P|268:88|224:128,1,120,2|0,0:0|0:0,0:0:0:0:
320,244,20355,2,0,P|344:272|368:284,1,60
386,136,20796,1,2,0:0:0:0:
386,136,21237,2,0,L|329:154,1,60
320,244,21678,5,2,0:0:0:0:
386,136,21899,1,0,0:0:0:0:
458,240,22119,1,0,0:0:0:0:
390,348,22340,1,2,0:0:0:0:
304,312,22561,5,0,0:0:0:0:
228,364,22781,2,0,P|193:370|169:369,1,60
109,208,23222,2,0,P|164:228|192:280,1,120,2|0,0:0|0:0,0:0:0:0:
84,320,23884,2,0,P|53:330|24:336,1,60
179,213,24325,2,0,P|204:189|231:178,1,60,2|0,0:0|0:0,0:0:0:0:
332,120,24767,1,0,0:0:0:0:
220,116,24987,6,0,P|223:159|270:216,1,120,2|0,0:0|0:0,0:0:0:0:
92,204,25649,2,0,B|64:179|50:159,1,60
156,98,26090,2,0,P|215:115|270:97,1,120,2|0,0:0|0:0,0:0:0:0:
296,24,26752,6,0,L|348:52,1,60
374,77,27414,1,2,0:0:0:0:
399,102,27855,1,2,0:0:0:0:
424,127,28296,5,2,0:0:0:0:
424,127,28517,1,0,0:0:0:0:
424,127,28738,2,0,P|440:192|420:240,1,120,2|0,0:0|0:0,0:0:0:0:
192,320,29620,2,0,P|221:348|245:361,1,60,2|0,0:0|0:0,0:0:0:0:
144,184,30061,2,0,P|116:193|90:213,1,60,0|2,0:0|0:0,0:0:0:0:
120,328,30502,5,0,0:0:0:0:
192,320,30723,1,2,0:0:0:0:
257,288,30944,1,0,0:0:0:0:
307,236,31164,1,0,0:0:0:0:
272,51,31385,5,0,2:0:0:0:
236,114,31605,1,2,2:0:0:0:
256,184,31826,1,0,2:0:0:0:
307,236,32047,1,2,2:0:0:0:
372,268,32267,6,0,P|435:274|480:240,1,120,2|0,0:0|0:0,0:0:0:0:
222,121,33150,2,0,P|186:126|156:120,1,60,0|2,0:0|0:0,0:0:0:0:
307,236,33591,2,0,P|317:201|330:182,1,60
156,240,34032,2,0,P|181:266|191:286,1,60,0|2,0:0|0:0,0:0:0:0:
56,332,34473,1,0,0:0:0:0:
25,247,34694,1,0,0:0:0:0:
44,160,34914,5,2,0:0:0:0:
69,134,35356,1,0,0:0:0:0:
94,108,35797,2,0,P|172:53|253:50,1,180,2|0,0:0|0:0,0:0:0:0:
208,168,36679,2,0,P|204:196|196:228,1,60
284,124,37120,1,0,0:0:0:0:
344,48,37341,2,0,P|380:112|375:158,1,120,2|0,0:0|0:0,0:0:0:0:
412,272,38003,6,0,P|460:316|512:312,2,120,0|2|0,0:0|0:0|0:0,0:0:0:0:
256,192,39327,1,2,0:0:0:0:
256,192,39768,1,2,0:0:0:0:
144,320,40430,1,0,0:0:0:0:
144,320,40650,6,0,P|68:284|44:196,1,180,2|0,0:0|0:0,0:0:0:0:
76,112,41533,1,2,0:0:0:0:
272,24,41974,1,2,0:0:0:0:
312,236,42415,1,2,0:0:0:0:
272,24,42856,5,2,0:0:0:0:
432,104,43297,1,0,0:0:0:0:
312,236,43739,2,0,L|360:284,2,60,8|0|0,0:0|0:0|0:0,0:0:0:0:
224,256,44400,2,0,P|129:286|60:252,1,180,0|0,0:0|0:0,0:0:0:0:
61,253,45503,2,0,L|69:193,1,60,8|0,0:0|0:0,0:0:0:0:
60,104,45945,1,2,0:0:0:0:
132,48,46165,1,0,0:0:0:0:
220,24,46386,2,0,P|276:16|340:28,1,120,2|0,0:0|0:0,0:0:0:0:
352,208,47268,6,0,L|391:163,2,60,8|0|0,0:0|0:0|0:0,0:0:0:0:
284,292,47930,2,0,L|240:252,1,60,0|2,0:0|0:0,0:0:0:0:
60,284,48592,1,0,0:0:0:0:
116,112,49033,2,0,P|180:92|228:112,1,120,8|0,0:0|0:0,0:0:0:0:
244,196,49695,1,0,0:0:0:0:
312,136,49916,1,2,0:0:0:0:
464,260,50357,1,0,0:0:0:0:
288,300,50798,6,0,L|232:332,2,60,8|0|0,0:0|0:0|0:0,0:0:0:0:
224,236,51460,2,0,P|172:204|156:144,1,120,2|0,0:0|0:0,0:0:0:0:
68,56,52122,2,0,L|82:114,1,60
84,204,52563,2,0,P|56:220|24:224,2,60,8|2|2,0:0|0:0|0:0,0:0:0:0:
156,148,53225,2,0,P|220:132|276:148,1,120
352,288,53886,6,0,P|320:296|288:288,1,60,0|0,0:0|0:0,0:0:0:0:
220,240,54328,2,0,P|160:224|104:240,1,120,8|0,0:0|0:0,0:0:0:0:
36,208,54989,1,0,0:0:0:0:
36,208,55210,2,0,P|12:152|36:100,1,120,2|2,0:0|0:0,0:0:0:0:
35,102,56092,1,8,0:0:0:0:
180,64,56534,5,0,0:0:0:0:
260,20,56754,1,0,0:0:0:0:
332,76,56975,2,0,P|360:136|344:192,1,120,2|2,0:0|0:0,0:0:0:0:
164,300,57857,2,0,P|136:240|152:184,1,120,8|0,0:0|0:0,0:0:0:0:
232,160,58519,1,0,0:0:0:0:
168,100,58740,1,2,0:0:0:0:
384,48,59181,2,0,L|452:48,1,60,0|2,0:0|0:0,0:0:0:0:
384,48,59622,1,8,0:0:0:0:
324,116,59843,5,2,0:0:0:0:
328,204,60063,1,0,0:0:0:0:
404,252,60284,1,0,0:0:0:0:
464,320,60505,2,0,P|408:344|352:324,1,120,2|0,0:0|0:0,0:0:0:0:
96,268,61387,2,0,P|152:244|208:264,1,120,8|0,0:0|0:0,0:0:0:0:
280,312,62049,1,0,0:0:0:0:
348,256,62269,2,0,P|388:212|388:152,1,120,2|0,0:0|0:0,0:0:0:0:
112,48,63152,6,0,P|72:92|72:152,1,120,8|0,0:0|0:0,0:0:0:0:
92,232,63814,1,0,0:0:0:0:
144,300,64034,2,0,L|196:332,1,60,2|0,0:0|0:0,0:0:0:0:
232,248,64475,2,0,L|292:256,1,60,2|0,0:0|0:0,0:0:0:0:
300,168,64917,2,0,L|364:152,2,60,8|0|2,0:0|0:0|0:0,0:0:0:0:
188,100,65578,1,2,0:0:0:0:
188,100,66240,6,0,P|152:152|100:172,1,120,2|8,0:0|0:0,0:0:0:0:
48,244,66902,1,0,0:0:0:0:
136,252,67123,2,0,P|172:276|188:300,1,60,2|0,0:0|0:0,0:0:0:0:
280,344,67564,5,2,0:0:0:0:
426,200,68005,1,2,0:0:0:0:
426,200,68446,2,0,P|425:164|431:139,1,60,0|0,0:0|0:0,0:0:0:0:
504,60,68888,2,0,B|454:22|390:40|390:40|326:57|276:20,1,240,2|0,0:0|0:0,0:0:0:0:
276,20,69991,6,0,P|251:36|230:58,1,60,2|8,0:0|0:0,0:0:0:0:
176,136,70432,1,8,3:0:0:0:
256,192,70652,1,8,3:0:0:0:
256,192,71094,6,0,P|222:210|196:216,1,60,4|0,0:0|0:0,0:0:0:0:
76,140,71535,2,0,P|110:122|136:116,1,60,0|0,0:0|0:0,0:0:0:0:
202,227,71976,2,0,P|203:298|177:336,1,120,2|0,0:0|0:0,0:0:0:0:
68,304,72638,2,0,P|91:283|117:273,1,60,0|2,0:0|0:0,0:0:0:0:
352,340,73300,5,0,0:0:0:0:
500,184,73741,1,10,0:0:0:0:
348,32,74182,1,0,0:0:0:0:
348,32,74623,6,0,P|312:40|288:52,1,60,2|0,0:0|0:0,0:0:0:0:
356,152,75064,2,0,P|385:166|413:171,1,60
280,292,75506,2,0,P|222:268|197:213,1,120,2|0,0:0|0:0,0:0:0:0:
196,40,76388,1,0,0:0:0:0:
104,200,76829,1,2,0:0:0:0:
104,200,77050,2,0,P|75:216|48:224,1,60,0|10,0:0|0:0,0:0:0:0:
40,28,77712,1,2,0:0:0:0:
137,106,78153,6,0,P|169:127|189:132,1,60,4|0,0:0|0:0,0:0:0:0:
352,176,78594,1,0,0:0:0:0:
248,240,78815,1,0,0:0:0:0:
280,116,79035,2,0,P|329:86|390:90,1,120,2|0,0:0|0:0,0:0:0:0:
348,280,79697,2,0,P|296:331|191:331,1,180,2|0,0:0|0:0,0:0:0:0:
100,112,80800,1,10,0:0:0:0:
239,247,81241,1,0,0:0:0:0:
44,260,81683,5,2,0:0:0:0:
248,56,82124,1,2,0:0:0:0:
248,56,82565,1,0,0:0:0:0:
276,176,83006,6,0,P|356:116|368:40,1,180.000006866455,4|2,0:0|1:2,0:0:0:0:
244,248,84330,6,0,P|273:270|297:277,1,60,0|8,0:0|3:0,0:0:0:0:
392,192,84771,1,8,3:0:0:0:
136,64,85212,5,4,0:0:0:0:
76,132,85433,1,0,0:0:0:0:
72,224,85653,1,2,0:0:0:0:
136,288,85874,1,0,0:0:0:0:
220,320,86095,2,0,P|276:336|336:316,1,120,8|0,0:0|0:0,0:0:0:0:
440,216,86756,1,0,0:0:0:0:
392,76,86977,2,0,P|336:60|276:80,1,120,2|2,0:0|0:0,0:0:0:0:
132,76,87639,5,0,0:0:0:0:
88,216,87860,2,0,P|144:248|200:236,1,120,8|0,0:0|0:0,0:0:0:0:
392,76,88742,5,2,0:0:0:0:
420,164,88963,1,0,0:0:0:0:
412,252,89183,1,0,0:0:0:0:
348,316,89404,1,0,0:0:0:0:
260,340,89624,2,0,L|192:344,1,60,8|0,0:0|0:0,0:0:0:0:
184,240,90066,2,0,L|248:236,1,60,2|0,0:0|0:0,0:0:0:0:
352,220,90507,6,0,P|380:164|356:112,1,120,2|0,0:0|0:0,0:0:0:0:
272,48,91169,2,0,L|212:51,1,60,0|8,0:0|0:0,0:0:0:0:
184,240,91830,2,0,P|204:208|212:184,1,60,2|0,0:0|0:0,0:0:0:0:
352,220,92272,6,0,P|308:264|252:264,1,120,4|0,0:0|0:0,0:0:0:0:
136,172,92933,1,0,0:0:0:0:
52,48,93154,1,8,0:0:0:0:
52,48,93595,2,0,L|32:104,1,60,0|0,0:0|0:0,0:0:0:0:
92,172,94036,1,2,0:0:0:0:
208,312,94478,2,0,P|228:256|208:200,1,120,0|8,0:0|0:0,0:0:0:0:
376,88,95360,1,2,0:0:0:0:
248,32,95801,6,0,P|228:88|247:142,1,120,4|0,0:0|0:0,0:0:0:0:
324,324,96684,2,0,P|344:270|324:214,1,120,8|0,0:0|0:0,0:0:0:0:
244,270,97346,1,0,0:0:0:0:
164,324,97566,2,0,P|144:270|164:214,1,120,2|2,0:0|0:0,0:0:0:0:
236,44,98449,5,2,0:0:0:0:
368,80,98669,1,2,0:0:0:0:
324,212,98890,1,2,0:0:0:0:
108,232,99331,5,4,0:0:0:0:
124,140,99552,1,0,0:0:0:0:
40,172,99772,1,2,0:0:0:0:
108,232,99993,1,0,0:0:0:0:
192,240,100213,2,0,P|256:236|312:256,1,120,8|0,0:0|0:0,0:0:0:0:
396,236,100875,2,0,P|380:176|400:124,1,120
344,52,101537,1,2,0:0:0:0:
344,52,101758,2,0,P|256:32|164:52,1,180,0|0,0:0|0:0,0:0:0:0:
56,204,102861,5,2,0:0:0:0:
144,224,103081,1,0,0:0:0:0:
188,300,103302,1,2,0:0:0:0:
240,228,103522,1,0,0:0:0:0:
192,152,103743,2,0,P|182:114|187:95,1,60,8|0,0:0|0:0,0:0:0:0:
312,8,104184,2,0,P|322:46|310:74,1,60
388,164,104625,2,0,L|328:164,1,60,2|0,0:0|0:0,0:0:0:0:
212,240,105067,2,0,L|276:240,1,60,2|2,0:0|0:0,0:0:0:0:
344,292,105508,1,8,0:0:0:0:
120,272,105949,6,0,L|56:296,1,60,2|0,0:0|0:0,0:0:0:0:
100,188,106390,2,0,P|128:136|116:72,1,120,4|0,0:0|0:0,0:0:0:0:
232,116,107052,2,0,L|288:80,1,60,0|8,0:0|0:0,0:0:0:0:
232,116,107493,1,2,0:0:0:0:
284,200,107714,1,0,0:0:0:0:
376,164,107935,5,2,0:0:0:0:
436,96,108155,2,0,P|468:148|456:204,1,120,4|2,0:0|0:0,0:0:0:0:
376,164,108817,1,0,0:0:0:0:
288,296,109258,2,0,P|256:288|228:296,2,60
256,192,109920,12,0,111685,0:0:0:0:
176,88,116979,5,0,0:0:0:0:
115,186,117200,1,0,0:0:0:0:
84,100,117421,1,2,0:0:0:0:
206,182,117641,1,0,0:0:0:0:
206,182,118082,5,0,0:0:0:0:
315,282,118303,1,2,0:0:0:0:
286,137,118524,1,0,0:0:0:0:
224,271,118744,2,0,L|176:316,1,60,2|0,0:0|0:0,0:0:0:0:
353,200,119185,2,0,L|396:156,1,60,0|2,0:0|0:0,0:0:0:0:
395,157,119847,5,0,0:0:0:0:
288,136,120068,1,2,0:0:0:0:
240,244,120288,1,0,0:0:0:0:
136,148,120509,2,0,P|112:132|104:104,2,60,2|0|0,0:0|0:0|0:0,0:0:0:0:
240,245,121171,1,2,0:0:0:0:
240,245,121612,5,2,0:0:0:0:
356,139,121833,1,0,0:0:0:0:
200,156,122053,1,0,0:0:0:0:
336,234,122274,1,2,0:0:0:0:
272,91,122494,1,0,0:0:0:0:
88,92,122936,6,0,P|52:88|32:68,1,60,0|8,0:0|0:0,0:0:0:0:
48,168,123377,1,2,0:0:0:0:
256,192,123818,1,0,0:0:0:0:
256,192,124039,1,0,0:0:0:0:
439,279,124921,6,0,P|415:298|388:308,1,60,2|0,3:0|0:0,0:0:0:0:
332,224,125362,1,0,0:0:0:0:
240,172,125583,2,0,P|229:250|294:323,1,180,2|0,0:0|0:0,0:0:0:0:
64,308,126686,1,2,3:0:0:0:
64,308,126907,2,0,P|99:316|126:332,1,60,0|0,0:0|0:0,0:0:0:0:
144,184,127348,2,0,P|119:210|92:225,1,60,0|2,0:0|0:0,0:0:0:0:
236,48,128010,1,0,0:0:0:0:
340,180,128451,5,0,0:0:0:0:
340,180,128671,2,0,P|377:179|400:172,1,60
432,44,129113,2,0,P|476:80|492:144,1,120,2|0,0:0|0:0,0:0:0:0:
436,256,129774,2,0,P|460:280|484:288,1,60
348,328,130216,2,0,P|331:303|321:269,1,60,2|0,3:0|0:0,0:0:0:0:
231,211,130657,2,0,P|253:188|279:173,1,60
322,275,131098,5,2,0:0:0:0:
184,276,131319,1,0,0:0:0:0:
277,173,131539,1,0,0:0:0:0:
262,324,131760,1,2,0:0:0:0:
122,372,131980,6,0,P|90:350|76:330,1,60
28,232,132422,1,0,0:0:0:0:
36,128,132642,2,0,P|117:163|128:248,1,180,2|2,0:0|0:0,0:0:0:0:
288,172,133745,1,2,3:0:0:0:
348,104,133966,1,0,0:0:0:0:
412,168,134186,1,0,0:0:0:0:
437,81,134407,6,0,P|391:23|348:12,1,120,2|0,0:0|0:0,0:0:0:0:
240,76,135069,1,0,0:0:0:0:
372,196,135510,1,2,0:0:0:0:
264,336,135951,1,2,0:0:0:0:
176,352,136172,6,0,P|141:347|118:337,1,60
93,311,136834,1,2,0:0:0:0:
67,285,137275,1,2,0:0:0:0:
41,259,137716,5,2,0:0:0:0:
41,259,137937,1,0,0:0:0:0:
41,259,138157,2,0,P|3:183|31:93,1,180,2|0,0:0|0:0,0:0:0:0:
117,171,139040,2,0,P|141:115|129:43,1,120,2|0,0:0|0:0,0:0:0:0:
240,148,139702,2,0,P|272:168|300:176,1,60,0|2,0:0|0:0,0:0:0:0:
184,196,140143,5,0,0:0:0:0:
306,86,140363,1,0,0:0:0:0:
168,88,140584,1,0,0:0:0:0:
240,216,140805,1,2,1:2:0:0:
172,276,141025,1,0,0:0:0:0:
396,220,141246,1,0,0:0:0:0:
320,172,141466,1,0,0:0:0:0:
408,312,141687,6,0,P|472:276|490:235,1,120,2|0,0:0|0:0,0:0:0:0:
196,326,142569,2,0,P|132:290|114:249,1,120,2|0,0:0|0:0,0:0:0:0:
272,192,143231,2,0,L|332:216,1,60,0|0,0:0|0:0,0:0:0:0:
196,326,143893,1,2,0:0:0:0:
40,176,144334,1,2,3:0:0:0:
188,20,144775,1,0,0:0:0:0:
160,208,145217,6,0,P|108:279|21:299,1,180,2|0,0:0|0:0,0:0:0:0:
48,187,146099,2,0,P|95:212|160:208,1,120,2|0,0:0|0:0,0:0:0:0:
79,77,146761,2,0,P|100:96|118:123,1,60,2|0,0:0|0:0,0:0:0:0:
396,120,147423,2,0,P|452:88|476:32,2,120,0|2|0,0:0|1:2|0:0,0:0:0:0:
192,36,148746,5,2,0:0:0:0:
372,240,149188,2,0,P|308:304|216:308,2,180.000006866455,4|4|8,0:0|0:0|0:0,0:0:0:0:
256,192,151173,6,0,L|200:216,1,60,2|8,0:0|3:0,0:0:0:0:
192,224,151614,1,8,3:0:0:0:
183,232,151835,1,4,3:0:0:0:
183,232,152276,6,0,P|192:201|187:174,1,60,4|0,0:0|0:0,0:0:0:0:
365,90,152717,2,0,P|334:97|312:114,1,60,2|0,0:0|0:0,0:0:0:0:
301,254,153158,2,0,P|344:300|396:320,1,120,8|0,0:0|0:0,0:0:0:0:
416,232,153820,1,0,0:0:0:0:
302,253,154041,1,2,0:0:0:0:
302,253,154482,2,0,P|344:204|344:142,1,120,2|8,0:0|0:0,0:0:0:0:
272,40,155364,1,0,0:0:0:0:
144,152,155806,6,0,L|88:184,1,60,2|0,0:0|0:0,0:0:0:0:
140,72,156247,2,0,L|96:28,1,60,2|0,0:0|0:0,0:0:0:0:
214,107,156688,2,0,P|272:128|328:112,1,120,8|0,0:0|0:0,0:0:0:0:
392,52,157350,1,0,0:0:0:0:
412,140,157571,2,0,P|380:192|324:212,1,120,2|0,0:0|0:0,0:0:0:0:
244,244,158232,2,0,P|208:236|184:216,1,60,2|8,0:0|0:0,0:0:0:0:
326,224,158674,2,0,P|362:232|386:252,1,60,2|0,0:0|0:0,0:0:0:0:
292,316,159115,5,0,0:0:0:0:
195,312,159335,1,2,0:0:0:0:
168,219,159556,1,0,0:0:0:0:
248,165,159777,1,2,0:0:0:0:
325,224,159997,1,0,0:0:0:0:
404,272,160218,2,0,L|468:224,1,60,8|0,0:0|0:0,0:0:0:0:
436,148,160659,2,0,L|372:196,1,60
248,40,161100,5,2,0:0:0:0:
248,40,161541,2,0,L|196:68,1,60,0|0,0:0|0:0,0:0:0:0:
148,192,161983,2,0,L|149:132,1,60,8|0,0:0|0:0,0:0:0:0:
72,252,162424,2,0,L|122:283,1,60,0|0,0:0|0:0,0:0:0:0:
348,272,162865,6,0,P|368:236|376:208,1,60,4|0,0:0|0:0,0:0:0:0:
268,156,163306,2,0,P|273:173|293:209,1,60,0|0,0:0|0:0,0:0:0:0:
404,120,163747,2,0,P|372:124|340:136,1,60,8|0,0:0|0:0,0:0:0:0:
428,268,164189,2,0,P|388:344|304:336,1,180,4|0,0:0|0:0,0:0:0:0:
304,336,165071,1,0,0:0:0:0:
208,188,165512,6,0,P|252:192|284:180,1,60,2|8,3:0|3:0,0:0:0:0:
232,56,165953,2,0,P|272:68|296:92,1,60,4|0,3:0|0:0,0:0:0:0:
148,88,166395,6,0,P|120:77|88:75,1,60,4|0,0:0|0:0,0:0:0:0:
208,188,166836,2,0,P|238:158|250:132,1,60,2|0,0:0|0:0,0:0:0:0:
196,288,167277,2,0,P|248:316|309:314,1,120,10|0,0:0|0:0,0:0:0:0:
404,200,167939,2,0,P|424:180|436:152,1,60
464,340,168601,5,2,0:0:0:0:
304,196,169042,1,10,0:0:0:0:
508,124,169483,1,0,0:0:0:0:
372,292,169924,6,0,P|341:308|316:314,1,60,2|0,0:0|0:0,0:0:0:0:
144,228,170366,2,0,P|120:202|111:174,1,60,0|0,0:0|0:0,0:0:0:0:
248,256,170807,2,0,P|212:312|164:336,1,120,10|0,0:0|0:0,0:0:0:0:
120,60,171689,2,0,P|65:80|23:126,1,120,0|2,0:0|0:0,0:0:0:0:
128,176,172351,2,0,L|180:208,1,60,0|12,0:0|0:0,0:0:0:0:
320,372,173013,1,2,0:0:0:0:
476,224,173454,6,0,P|504:168|484:112,1,120,4|0,0:0|0:0,0:0:0:0:
236,112,174336,2,0,P|192:68|200:16,1,120,2|0,3:0|0:0,0:0:0:0:
236,112,174998,2,0,P|180:140|120:144,1,120,2|0,0:0|0:0,0:0:0:0:
52,64,175660,1,0,0:0:0:0:
72,204,176101,1,2,3:0:0:0:
0,328,176543,1,2,0:0:0:0:
140,296,176984,6,0,P|234:289|288:226,1,180,4|0,0:0|0:0,0:0:0:0:
140,296,177866,2,0,L|232:372,1,120,10|0,0:0|0:0,0:0:0:0:
104,372,178528,2,0,L|44:364,1,60
180,188,179190,1,2,1:2:0:0:
348,332,179631,2,0,L|404:312,2,60,2|8|4,3:0|3:0|3:0,0:0:0:0:
424,168,180513,6,0,P|444:142|452:116,1,60,4|0,0:0|0:0,0:0:0:0:
301,188,180955,2,0,P|317:209|344:227,1,60,2|0,0:0|0:0,0:0:0:0:
209,252,181396,2,0,P|260:240|301:188,1,120,10|0,0:0|0:0,0:0:0:0:
216,64,182058,2,0,L|164:36,1,60,2|0,0:0|0:0,0:0:0:0:
92,240,182719,1,2,0:0:0:0:
92,240,182940,2,0,P|111:318|191:369,1,180
184,112,184043,6,0,P|151:114|120:108,1,60,2|0,0:0|0:0,0:0:0:0:
52,20,184484,2,0,P|30:43|16:72,1,60
168,204,184925,2,0,P|224:197|270:149,1,120,10|0,0:0|0:0,0:0:0:0:
468,32,185808,2,0,P|460:100|420:132,1,120,2|0,0:0|0:0,0:0:0:0:
308,72,186470,2,0,L|364:48,1,60,0|4,0:0|0:0,0:0:0:0:
440,212,187132,1,0,0:0:0:0:
312,340,187573,6,0,P|232:376|140:364,1,180,4|0,0:0|0:0,0:0:0:0:
141,191,188455,1,2,0:3:0:0:
200,292,188676,1,0,0:0:0:0:
48,312,188896,1,2,0:0:0:0:
10,172,189117,1,0,0:0:0:0:
10,172,189338,6,0,P|27:139|46:118,1,60,4|0,0:0|0:0,0:0:0:0:
144,24,189779,2,0,P|168:56|176:76,1,60
200,112,190110,2,0,L|232:132,1,30,8|8,3:0|3:0,0:0:0:0:
308,200,190441,1,8,3:0:0:0:
432,248,190661,1,6,3:0:0:0:
407,122,190882,1,2,0:0:0:0:
380,192,191102,5,4,0:0:0:0:
244,344,191985,1,2,0:0:0:0:
256,192,192867,1,2,0:0:0:0:
328,136,193088,1,0,0:0:0:0:
248,92,193308,1,0,0:0:0:0:
384,248,193750,2,0,L|412:316,1,60,2|0,0:0|0:0,0:0:0:0:
260,352,194191,2,0,L|237:296,1,60
80,192,194632,6,0,L|136:148,1,60,4|0,0:0|0:0,0:0:0:0:
272,156,195073,2,0,L|224:193,1,60,2|2,0:0|0:0,0:0:0:0:
320,48,195735,1,0,0:0:0:0:
412,40,195956,2,0,P|408:80|388:112,1,60,2|2,0:0|0:0,0:0:0:0:
228,40,196397,2,0,P|232:80|252:112,1,60,0|2,0:0|0:0,0:0:0:0:
120,260,197059,5,0,0:0:0:0:
172,188,197279,2,0,L|240:188,2,60,2|2|0,0:0|0:0|0:0,0:0:0:0:
120,260,197941,1,0,0:0:0:0:
84,180,198162,6,0,P|56:128|68:68,1,120,4|0,0:0|0:0,0:0:0:0:
312,304,199044,2,0,P|340:252|328:192,1,120,8|0,0:0|0:0,0:0:0:0:
196,40,199927,6,0,P|185:97|213:149,1,120,2|0,0:0|0:0,0:0:0:0:
444,240,200809,2,0,L|488:180,1,60,8|0,0:0|0:0,0:0:0:0:
332,124,201250,2,0,L|362:177,1,60
432,104,201691,6,0,L|402:51,2,60,2|0|0,0:0|0:0|0:0,0:0:0:0:
444,240,202353,1,0,0:0:0:0:
332,124,202574,2,0,L|272:120,2,60,8|0|0,0:0|0:0|0:0,0:0:0:0:
320,264,203236,1,0,0:0:0:0:
192,208,203456,6,0,L|260:200,2,60,2|0|0,0:0|0:0|0:0,0:0:0:0:
132,132,204118,2,0,P|96:188|104:248,1,120,2|0,0:0|1:0,0:0:0:0:
268,284,204780,2,0,P|304:228|296:168,1,120,2|4,0:0|0:0,0:0:0:0:
408,68,206104,6,0,P|384:124|332:152,1,120
216,40,206765,2,0,P|161:113|193:188,1,180,2|0,0:0|0:0,0:0:0:0:
312,324,207868,1,2,3:0:0:0:
244,120,208310,1,0,0:0:0:0:
48,208,208751,6,0,P|8:252|12:312,1,120,2|0,0:0|0:0,0:0:0:0:
112,344,209413,2,0,L|168:368,1,60,0|2,0:0|3:0,0:0:0:0:
372,296,210074,1,0,0:0:0:0:
372,296,210957,5,0,0:0:0:0:
168,368,211398,2,0,L|112:344,1,60,2|0,3:0|0:0,0:0:0:0:
64,248,211839,1,0,0:0:0:0:
64,248,212280,6,0,P|92:180|76:136,1,120
264,28,213163,2,0,P|199:65|154:65,1,120,2|0,1:2|0:0,0:0:0:0:
92,145,213825,2,0,L|149:172,1,60,2|0,0:0|0:0,0:0:0:0:
308,319,214486,2,0,P|355:274|362:220,2,120,0|2|0,0:0|3:0|0:0,0:0:0:0:
340,39,215810,6,0,P|400:51|440:91,1,120,2|2,0:0|0:0,0:0:0:0:
432,200,216472,2,0,L|365:221,1,60,0|2,0:0|3:0,0:0:0:0:
212,140,217134,1,0,0:0:0:0:
112,256,217465,6,0,L|80:248,1,30,0|2,0:0|0:0,0:0:0:0:
40,168,217796,1,0,0:0:0:0:
190,304,218016,1,2,0:0:0:0:
109,347,218237,1,0,0:0:0:0:
239,226,218457,1,2,3:0:0:0:
282,307,218678,1,0,0:0:0:0:
160,178,218899,1,2,0:0:0:0:
241,135,219119,1,0,0:0:0:0:
318,231,219340,6,0,P|351:189|363:123,1,120,4|0,0:0|0:0,0:0:0:0:
356,332,220222,2,0,P|412:366|464:363,1,120,2|0,3:0|0:0,0:0:0:0:
456,244,220884,2,0,L|400:263,1,60,2|0,0:0|0:0,0:0:0:0:
172,172,221546,2,0,P|189:109|232:72,2,120,2|2|0,0:0|3:0|0:0,0:0:0:0:
212,374,222869,6,0,P|261:342|284:284,1,120,0|0,0:0|0:0,0:0:0:0:
154,288,223531,2,0,L|94:312,1,60,2|2,0:0|3:0,0:0:0:0:
172,172,224193,1,0,0:0:0:0:
56,36,224634,1,0,0:0:0:0:
64,216,225075,2,0,P|100:264|156:288,2,120,2|2|0,0:0|3:0|0:0,0:0:0:0:
210,126,226179,6,0,L|172:172,1,60,2|0,0:0|0:0,0:0:0:0:
300,320,226840,1,0,0:0:0:0:
376,356,227061,1,0,0:0:0:0:
388,226,227282,1,2,3:0:0:0:
442,306,227502,1,0,0:0:0:0:
481,130,227723,1,0,0:0:0:0:
489,239,227943,1,2,0:0:0:0:
356,64,228164,1,0,0:0:0:0:
356,64,228605,6,0,P|424:60|464:24,2,120,0|2|0,0:0|3:0|0:0,0:0:0:0:
128,32,229929,2,0,P|56:96|56:176,1,180,4|0,0:0|0:0,0:0:0:0:
128,228,230811,1,2,3:0:0:0:
348,320,231252,1,2,0:0:0:0:
348,320,231473,6,0,L|397:285,1,60
224,288,231988,2,0,P|210:328|215:366,2,80,2|2|2,0:0|0:0|3:0,0:0:0:0:
328,104,233017,5,0,0:0:0:0:
328,104,233458,2,0,P|264:69|218:62,1,120,4|0,0:0|0:0,0:0:0:0:
112,16,234120,1,0,0:0:0:0:
112,108,234341,2,0,P|92:172|48:200,1,120,2|0,3:0|0:0,0:0:0:0:
24,320,235003,2,0,L|80:356,1,60,0|2,0:0|0:0,0:0:0:0:
264,248,235665,1,2,0:0:0:0:
456,344,236106,2,0,L|504:308,2,60,2|0|2,3:0|0:0|0:0,0:0:0:0:
264,248,236988,5,2,0:0:0:0:
264,248,237429,2,0,P|220:204|216:148,1,120,2|0,0:0|0:0,0:0:0:0:
384,272,238312,6,0,P|336:344|247:370,1,180.000006866455,4|0,0:0|0:0,0:0:0:0:
212,279,239415,2,0,L|264:248,1,60,2|0,0:0|0:0,0:0:0:0:
300,120,240077,1,0,0:0:0:0:
300,120,240518,5,2,0:0:0:0:
136,48,240959,1,0,0:0:0:0:
152,228,241400,1,8,0:0:0:0:
300,120,241841,2,0,L|408:60,1,120,0|2,0:0|0:0,0:0:0:0:
152,228,242724,2,0,L|28:232,1,120,0|8,0:0|0:0,0:0:0:0:
328,272,243606,2,0,L|432:336,1,120,0|2,0:0|0:0,0:0:0:0:
484,264,244268,5,0,0:0:0:0:
424,196,244489,1,2,0:0:0:0:
340,164,244709,1,0,0:0:0:0:
252,152,244930,2,0,P|216:140|200:120,1,60,8|0,0:0|0:0,0:0:0:0:
216,268,245371,2,0,P|276:288|332:268,1,120,0|2,0:0|0:0,0:0:0:0:
424,80,246254,1,2,0:0:0:0:
312,152,246474,2,0,L|232:152,1,60,0|8,0:0|0:0,0:0:0:0:
252,152,247136,1,0,0:0:0:0:
96,99,247577,5,2,0:0:0:0:
194,69,247798,1,0,0:0:0:0:
252,152,248018,1,2,0:0:0:0:
192,236,248239,1,0,0:0:0:0:
94,202,248460,1,8,0:0:0:0:
94,202,248901,2,0,P|52:248|68:308,1,120,0|2,0:0|0:0,0:0:0:0:
418,182,249783,2,0,P|460:136|450:83,1,120,0|8,0:0|0:0,0:0:0:0:
256,192,250666,1,0,0:0:0:0:
256,40,251107,5,0,0:0:0:0:
256,344,251548,1,0,0:0:0:0:
104,192,251989,1,8,0:0:0:0:
408,192,252430,1,0,0:0:0:0:
256,192,252872,1,2,0:0:0:0:
256,192,253092,6,0,L|256:124,1,60
188,260,253533,1,0,0:0:0:0:
128,192,253754,6,0,L|128:132,1,60,8|0,0:0|0:0,0:0:0:0:
376,192,254195,2,0,L|376:252,1,60
344,104,254636,6,0,P|376:96|396:80,1,60,4|0,0:0|0:0,0:0:0:0:
240,100,255078,1,0,0:0:0:0:
313,214,255298,1,0,0:0:0:0:
352,344,255519,2,0,P|285:370|234:363,1,120,10|0,0:0|0:0,0:0:0:0:
261,244,256181,2,0,L|313:214,1,60,2|0,0:0|0:0,0:0:0:0:
76,360,256843,5,0,0:0:0:0:
252,232,257284,1,10,0:0:0:0:
188,24,257725,1,0,0:0:0:0:
92,216,258166,6,0,P|60:236|40:244,1,60,2|0,0:0|0:0,0:0:0:0:
104,104,258607,2,0,P|131:117|152:140,1,60
176,288,259049,2,0,P|228:324|282:322,1,120,2|0,1:2|0:0,0:0:0:0:
444,144,259931,2,0,P|480:80|472:36,1,120
277,140,260593,2,0,P|311:138|336:128,1,60,2|2,0:0|1:2,0:0:0:0:
104,84,261255,2,0,P|84:148|92:204,1,120,2|4,0:0|0:0,0:0:0:0:
420,56,262358,5,0,0:0:0:0:
420,56,262578,2,0,P|404:124|368:160,1,120,10|0,0:0|0:0,0:0:0:0:
240,220,263240,2,0,P|292:280|390:300,1,180,2|0,0:0|0:0,0:0:0:0:
212,360,264343,1,2,1:2:0:0:
370,158,264784,1,0,0:0:0:0:
180,52,265226,6,0,P|112:60|52:152,1,180,2|0,0:0|0:0,0:0:0:0:
71,235,266108,1,10,0:0:0:0:
224,140,266549,1,2,0:0:0:0:
224,140,266770,2,0,L|284:168,1,60
448,300,267432,1,2,1:2:0:0:
232,328,267873,2,0,L|184:368,2,60,8|0|0,0:0|0:0|0:0,0:0:0:0:
372,211,268755,6,0,P|344:232|308:240,1,60,6|0,0:0|0:0,0:0:0:0:
284,108,269196,2,0,P|292:144|308:164,1,60,2|0,0:0|0:0,0:0:0:0:
178,192,269638,1,8,0:0:0:0:
178,192,270079,2,0,P|132:240|80:248,1,120,0|2,0:0|0:0,0:0:0:0:
319,145,270961,2,0,P|365:97|417:89,1,120,0|8,0:0|0:0,0:0:0:0:
300,280,271844,1,0,0:0:0:0:
214,72,272285,5,2,0:0:0:0:
160,145,272505,1,0,0:0:0:0:
214,219,272726,1,2,0:0:0:0:
300,191,272947,1,0,0:0:0:0:
300,100,273167,2,0,P|323:72|345:64,1,60,8|0,0:0|0:0,0:0:0:0:
348,224,273608,2,0,P|326:216|300:188,1,60,2|0,0:0|0:0,0:0:0:0:
448,148,274050,6,0,L|512:148,1,60,2|0,0:0|0:0,0:0:0:0:
424,40,274491,1,0,0:0:0:0:
300,100,274711,2,0,L|248:68,1,60,0|8,0:0|0:0,0:0:0:0:
424,40,275153,1,0,0:0:0:0:
440,240,275373,2,0,P|409:296|357:318,1,120,2|4,0:0|0:0,0:0:0:0:
108,88,276697,1,8,0:0:0:0:
328,248,277359,5,0,0:0:0:0:
328,248,277579,2,0,P|276:280|216:292,1,120,2|2,0:0|0:0,0:0:0:0:
160,164,278241,2,0,P|212:132|272:120,1,120,2|2,0:0|0:0,0:0:0:0:
269,120,278903,1,2,0:0:0:0:
256,192,279124,12,2,280668,0:0:0:0:
200,284,281109,6,0,P|256:304|312:284,1,120,2|0,1:2|0:0,0:0:0:0:
256,192,281771,1,0,0:0:0:0:
164,120,281991,6,0,P|184:84|204:68,1,60,4|0,0:0|0:0,0:0:0:0:
345,120,282433,2,0,P|325:84|312:72,1,60,8|0,0:0|0:0,0:0:0:0:
256,192,282874,6,0,L|256:252,1,60,4|0,0:0|0:0,0:0:0:0:
136,252,283315,2,0,L|136:332,1,60
44,304,283756,1,8,0:0:0:0:
160,96,284197,1,2,0:0:0:0:
240,44,284418,2,0,P|256:104|232:156,1,120
136,252,285080,1,0,0:0:0:0:
64,196,285301,1,0,0:0:0:0:
56,288,285521,2,0,P|90:332|150:340,1,120,8|0,0:0|0:0,0:0:0:0:
64,196,286404,6,0,P|100:124|104:72,1,120,2|2,0:0|0:0,0:0:0:0:
224,60,287065,1,0,0:0:0:0:
320,136,287286,2,0,P|284:208|280:260,1,120,8|2,0:0|0:0,0:0:0:0:
324,340,287948,1,0,0:0:0:0:
440,280,288168,2,0,L|492:212,1,60,2|0,0:0|0:0,0:0:0:0:
392,192,288610,2,0,L|416:132,1,60,4|0,0:0|0:0,0:0:0:0:
320,136,289051,2,0,L|304:68,1,60,4|0,0:0|0:0,0:0:0:0:
212,48,289492,6,0,P|176:40|144:12,1,60
144,116,289933,2,0,P|96:172|92:232,1,120,4|0,0:0|0:0,0:0:0:0:
164,280,290595,1,0,0:0:0:0:
164,280,290705,1,0,0:0:0:0:
164,280,290816,1,0,0:0:0:0:
252,304,291036,1,0,0:0:0:0:
232,216,291257,1,0,0:0:0:0:
336,52,291698,5,4,0:0:0:0:
160,16,292139,2,0,L|132:84,1,60,0|0,0:0|0:0,0:0:0:0:
224,252,292801,2,0,P|196:262|167:264,2,60
256,192,293463,12,0,295228,0:0:0:0:
