osu file format v11

[General]
AudioFilename: PLATINUM (Short Ver.) [Sekai-nyan].mp3
AudioLeadIn: 0
PreviewTime: 47927
Countdown: 0
SampleSet: Soft
StackLeniency: 0.7
Mode: 0
LetterboxInBreaks: 0

[Editor]
Bookmarks: 15732
DistanceSpacing: 1.1
BeatDivisor: 4
GridSize: 4

[Metadata]
Title:Platinum (Short Ver.)
TitleUnicode:プラチナ (Short Ver.)
Artist:Yuuki Aoi
ArtistUnicode:悠木 碧
Creator:Sekai-nyan
Version:Hard
Source:Card Captor Madoka
Tags:alacat Flask -kevincela- kevincela Hinacle Opening MAD Parody Puella Magi Magica Kaname Sakura Kami Nomi zo Shiru Sekai Aoyama Mio Sakamoto Maaya The World God Only Knows
BeatmapID:192763
BeatmapSetID:65981

[Difficulty]
HPDrainRate:5
CircleSize:4
OverallDifficulty:6
ApproachRate:7
SliderMultiplier:1.4
SliderTickRate:2

[Events]
//Background and Video events
Video,2000,"PLATINUM (Short Ver.).avi"
0,0,"BG.jpg"
//Break Periods
2,10079,14832
//Storyboard Layer 0 (Background)
//Storyboard Layer 1 (Fail)
//Storyboard Layer 2 (Pass)
//Storyboard Layer 3 (Foreground)
//Storyboard Sound Samples
//Background Colour Transformations
3,100,163,162,255

[TimingPoints]
4025,365.853658536585,4,2,0,70,1,0
4025,-133.333333333333,4,2,1,50,0,0
15732,-100,4,2,2,60,0,0
47927,-100,4,1,1,70,0,1
64390,-100,4,1,1,70,0,0
65488,-100,4,1,1,70,0,1
68232,-100,4,1,1,50,0,1
68598,-100,4,1,1,70,0,1
69604,-100,4,1,1,50,0,1
69787,-100,4,1,1,70,0,1
77561,-100,4,1,1,70,0,0
85976,400,4,1,1,70,1,0
87776,-100,4,1,1,60,0,0
88176,-100,4,1,1,50,0,0
88576,-100,4,1,1,40,0,0
88976,-100,4,1,1,30,0,0
89376,-100,4,1,1,20,0,0
89776,-100,4,1,1,10,0,0
90176,-100,4,1,1,5,0,0

[Colours]
Combo1 : 255,119,119
Combo2 : 238,195,204
Combo3 : 170,170,255
Combo4 : 255,255,145

[HitObjects]
124,316,4025,1,4,0:0:0
84,284,4208,1,0,0:0:0
60,236,4391,1,2,0:0:0
60,236,4574,2,0,P|64:152|124:104,1,157.500006008148,0|2,0:0|0:0,0:0:0
240,108,5488,1,0,0:0:0
292,100,5671,1,0,0:0:0
348,116,5854,2,0,P|396:124|452:168,1,105.000004005432,2|2,0:0|0:0,0:0:0
256,296,6952,5,0,0:0:0
212,336,7135,1,0,0:0:0
156,352,7318,1,2,0:0:0
156,352,7501,2,0,P|91:305|68:232,1,157.500006008148,0|2,0:0|0:0,0:0:0
256,192,8415,12,2,9879,0:0:0
100,308,15732,5,12,0:0:0
40,260,15915,2,0,P|48:224|28:172,1,70
40,116,16281,1,0,0:0:0
116,132,16464,2,0,P|184:152|264:120,1,140,8|2,0:0|0:0,0:0:0
292,68,17013,1,0,0:0:0
336,136,17196,2,0,P|364:192|348:292,1,140,8|0,0:0|0:0,0:0:0
280,304,17744,2,0,P|248:332|212:340,1,70,0|8,0:0|0:0,0:0:0
180,276,18110,1,0,0:0:0
140,344,18293,2,0,P|108:352|60:340,1,70
52,272,18659,6,0,P|88:224|80:140,1,140,8|0,0:0|0:0,0:0:0
80,68,19208,1,0,0:0:0
148,28,19391,1,8,0:0:0
184,96,19574,1,0,0:0:0
220,164,19757,2,0,P|276:208,1,70,2|0,0:0|0:0,0:0:0
224,268,20122,2,0,P|280:292|348:248,1,140,8|0,0:0|0:0,0:0:0
404,204,20671,1,0,0:0:0
356,135,20854,2,0,P|320:200|344:256,1,140,8|0,0:0|0:0,0:0:0
404,204,21403,1,0,0:0:0
444,120,21586,5,8,0:0:0
376,60,21769,2,0,P|340:48|292:56,1,70
232,52,22135,1,0,0:0:0
160,76,22318,2,0,P|132:144|156:228,1,140,8|2,0:0|0:0,0:0:0
92,264,22866,1,0,0:0:0
108,340,23049,5,8,0:0:0
164,288,23232,1,0,0:0:0
228,332,23415,2,0,P|244:268|216:200,1,140,0|8,0:0|0:0,0:0:0
172,140,23964,1,0,0:0:0
217,202,24147,2,0,P|302:188|326:132,1,140,0|8,0:0|0:0,0:0:0
336,68,24696,1,0,0:0:0
408,36,24879,1,0,0:0:0
472,80,25061,1,0,0:0:0
488,156,25244,6,0,P|480:228|412:264,1,140,8|2,0:0|0:0,0:0:0
388,328,25793,1,0,0:0:0
312,312,25976,2,0,P|252:300|164:328,1,140,8|0,0:0|0:0,0:0:0
100,332,26525,1,0,0:0:0
64,264,26708,2,0,P|52:188|84:120,1,140
68,56,27257,5,0,0:0:0
68,56,27348,1,0,0:0:0
68,56,27440,2,0,P|132:80|144:156,1,140,8|0,0:0|0:0,0:0:0
172,216,27988,1,0,0:0:0
220,280,28171,1,8,0:0:0
300,284,28354,1,0,0:0:0
352,224,28537,1,2,0:0:0
356,144,28720,1,0,0:0:0
356,144,28903,2,0,P|330:76|266:36,2,140,8|0|8,0:0|0:0|0:0,0:0:0
352,224,29818,1,0,0:0:0
412,276,30001,2,0,P|416:320|400:352,1,70,0|0,0:0|0:0,0:0:0
328,308,30366,6,0,P|260:300|188:344,1,140,8|0,0:0|0:0,0:0:0
128,364,30915,2,0,P|120:320|132:284,1,70,0|8,0:0|0:0,0:0:0
80,232,31281,1,0,0:0:0
48,164,31464,1,2,0:0:0
80,92,31647,1,0,0:0:0
156,96,31830,6,0,P|220:120|296:96,1,140,8|0,0:0|0:0,0:0:0
352,56,32379,1,0,0:0:0
412,104,32561,1,8,0:0:0
424,180,32744,1,0,0:0:0
424,180,32927,2,0,P|376:236|300:244,1,140,0|8,0:0|0:0,0:0:0
264,308,33476,6,0,P|216:317|185:299,1,70
228,240,33842,2,0,P|196:220|160:224,1,70,0|8,0:0|0:0,0:0:0
88,220,34208,2,0,P|92:256|117:281,2,70,0|2|0,0:0|0:0|0:0,0:0:0
60,152,34757,2,0,P|76:88|148:60,1,140,8|0,0:0|0:0,0:0:0
140,136,35305,1,0,0:0:0
216,124,35488,2,0,P|200:188|128:216,1,140,8|4,0:0|0:0,0:0:0
80,268,36037,1,0,0:0:0
44,336,36220,5,4,0:0:0
128,348,36403,2,0,P|196:296,1,70
208,196,36769,2,0,P|148:244,1,70,0|8,0:0|0:0,0:0:0
248,260,37135,2,0,P|312:204,1,70,0|2,0:0|0:0,0:0:0
328,140,37501,1,0,0:0:0
284,76,37683,2,0,P|220:44|132:72,1,140,0|0,0:0|0:0,0:0:0
80,40,38232,1,0,0:0:0
16,84,38415,1,0,0:0:0
36,160,38598,6,0,P|0:232|40:292,2,140,0|0|0,0:0|0:0|2:0,0:0:0
80,224,39513,2,0,P|116:216|152:224,2,70,0|0|0,1:0|0:0|0:0,0:0:0
116,292,40061,1,0,0:0:0
188,312,40244,1,2,0:0:0
244,260,40427,1,0,0:0:0
212,188,40610,6,0,P|280:180|356:216,1,140,12|0,0:0|0:0,0:0:0
420,196,41159,2,0,P|436:128|409:61,2,140,0|0|0,0:0|0:0|0:0,0:0:0
344,192,42074,1,2,0:0:0
280,152,42257,1,0,0:0:0
280,152,42440,2,0,P|216:132|128:156,1,140,0|0,1:0|0:0,0:0:0
84,192,42988,1,0,0:0:0
140,248,43171,2,0,P|204:268|292:236,1,140,2|4,0:0|0:0,0:0:0
308,320,43720,5,0,0:0:0
380,328,43903,1,8,0:0:0
436,272,44086,1,0,0:0:0
424,196,44269,1,0,0:0:0
448,124,44452,2,0,P|452:64|432:40,1,70,0|10,0:0|0:0,0:0:0
376,88,44818,1,0,0:0:0
376,88,45001,6,0,P|308:64|236:96,1,140,0|0,0:0|1:0,0:0:0
184,132,45549,1,0,0:0:0
192,208,45732,2,0,P|263:197|311:135,2,140,0|2|0,0:0|0:0|0:0,0:0:0
160,280,46647,2,0,P|126:254|107:214,2,70,0|0|0,0:0|1:0|0:0,0:0:0
256,300,47196,1,4,0:0:0
372,196,47562,1,4,0:0:0
64,148,47927,6,0,P|84:76|144:56,1,140,4|8,0:0|0:0,0:0:0
140,132,48476,2,0,P|184:144|200:176,1,70
132,204,48842,1,0,0:0:0
128,280,49025,1,8,0:0:0
60,236,49208,1,0,0:0:0
128,280,49391,6,0,P|153:356|213:344,1,140,0|8,0:0|0:0,0:0:0
256,288,49940,1,0,0:0:0
312,356,50122,2,0,P|368:348|384:273,1,140,2|8,0:2|0:0,0:0:0
404,204,50671,1,0,0:0:0
460,152,50854,5,4,0:0:0
404,100,51037,1,0,0:0:0
340,56,51220,2,0,P|272:36|200:72,1,140,8|0,0:0|0:0,0:0:0
136,44,51769,1,0,0:0:0
116,120,51952,2,0,P|48:148|-16:112,1,140,8|0,0:0|0:0,0:0:0
52,72,52501,5,0,0:0:0
136,44,52683,2,0,P|184:76|176:160,1,140,8|2,0:0|0:2,0:0:0
136,212,53232,2,0,P|104:244|104:292,1,70,0|8,0:0|0:0,0:0:0
176,276,53598,1,0,0:0:0
132,336,53781,6,0,P|168:376|260:340,1,140,4|8,0:0|0:0,0:0:0
292,300,54330,1,0,0:0:0
244,240,54513,2,0,P|312:224|364:272,1,140,0|8,0:0|0:0,0:0:0
380,340,55062,1,0,0:0:0
380,340,55244,2,0,P|432:296|408:208,1,140,0|8,0:0|0:0,0:0:0
432,144,55793,1,0,0:0:0
484,80,55976,1,0,0:0:0
412,36,56159,1,0,0:0:0
412,36,56342,2,0,P|336:28|272:84,1,140,8|0,0:0|0:0,0:0:0
244,128,56891,5,0,0:0:0
244,128,57074,2,0,P|204:172|120:180,1,140,8|0,0:0|0:0,0:0:0
88,252,57622,1,0,0:0:0
80,328,57805,1,8,0:0:0
152,304,57988,6,0,P|198:282|216:280,1,70,0|0,0:0|0:0,0:0:0
292,252,58354,1,0,0:0:0
292,252,58537,2,0,P|343:229|359:187,2,70,8|0|0,0:0|0:0|0:0,0:0:0
292,176,59086,1,0,0:0:0
336,112,59269,1,8,0:0:0
412,116,59452,1,0,0:0:0
464,172,59635,6,0,P|496:232|472:324,1,140,4|8,0:0|0:0,0:0:0
416,332,60183,1,0,0:0:0
416,332,60366,2,0,P|336:320|284:356,1,140,0|8,0:0|0:0,0:0:0
212,340,60915,1,0,0:0:0
136,324,61098,6,0,P|79:277|72:203,1,140,0|8,0:0|0:0,0:0:0
44,140,61647,1,0,0:0:0
56,64,61830,1,2,0:2:0
132,56,62013,1,0,0:0:0
132,56,62104,1,0,0:0:0
132,56,62196,2,0,P|212:76|280:52,1,140,8|0,0:0|0:0,0:0:0
340,40,62744,5,0,0:0:0
392,96,62927,2,0,P|428:160|412:240,1,140,8|0,0:0|0:0,0:0:0
384,292,63476,1,0,0:0:0
308,272,63659,1,8,0:0:0
284,344,63842,1,0,0:0:0
212,320,64025,2,0,P|144:300|72:336,1,140,0|8,0:0|0:0,0:0:0
44,260,64574,1,0,0:0:0
92,200,64757,6,0,P|152:220|236:196,1,140,8|8,0:0|0:0,0:0:0
228,128,65305,1,0,0:0:0
304,108,65488,2,0,P|424:56|476:176,1,280,4|0,0:0|0:0,0:0:0
416,212,66403,1,0,0:0:0
476,260,66586,1,0,0:0:0
416,312,66769,6,0,P|352:348|352:348|280:300,1,140,8|2,0:0|0:2,0:0:0
224,284,67318,1,0,0:0:0
276,228,67501,2,0,P|252:164|280:84,1,140,8|0,0:0|0:0,0:0:0
204,64,68049,1,0,0:0:0
204,64,68232,6,0,P|156:24|68:40,1,140,8|4,0:0|0:0,0:0:0
72,108,68781,1,0,0:0:0
128,164,68964,2,0,P|176:204|264:188,2,140,8|0|8,0:0|0:0|0:0,0:0:0
52,184,69879,2,0,P|12:244|32:324,1,140,0|8,0:0|0:0,0:0:0
88,348,70427,5,0,0:0:0
124,356,70519,1,0,0:0:0
164,348,70610,1,0,0:0:0
220,296,70793,1,0,0:0:0
284,256,70976,2,0,P|312:204|276:128,1,140,8|4,0:0|0:0,0:0:0
308,60,71525,5,0,0:0:0
384,80,71708,2,0,P|424:124|420:212,1,140,8|0,0:0|0:0,0:0:0
388,272,72257,1,0,0:0:0
388,272,72440,1,8,0:0:0
360,344,72622,1,0,0:0:0
284,336,72805,6,0,P|228:360|136:352,1,140,0|8,0:0|0:0,0:0:0
72,356,73354,1,0,0:0:0
60,280,73537,2,0,P|36:200|60:140,1,140,0|8,0:0|0:0,0:0:0
100,88,74086,1,0,0:0:0
144,152,74269,2,0,P|168:232|144:292,1,140,4|8,0:0|0:0,0:0:0
228,292,74818,1,0,0:0:0
284,240,75001,2,0,P|332:216|436:236,1,140,0|8,0:0|0:0,0:0:0
448,156,75549,5,4,0:0:0
340,48,75915,1,8,0:0:0
188,72,76281,1,0,0:0:0
120,108,76464,1,0,0:0:0
184,148,76647,2,0,P|220:200,2,35,8|0|0,0:0|0:0|0:0,0:0:0
120,192,77012,1,0,0:0:0
76,260,77196,5,4,0:0:0
100,332,77379,1,0,0:0:0
176,344,77561,2,0,P|244:308|332:336,1,140,12|0,0:0|0:0,0:0:0
380,296,78110,1,0,0:0:0
452,272,78293,1,8,0:0:0
468,196,78476,2,0,P|472:144|448:108,1,70
408,76,78842,5,0,0:0:0
332,60,79025,2,0,P|248:92|272:120,1,140,8|0,0:0|0:0,0:0:0
184,140,79574,1,0,0:0:0
108,132,79757,1,8,0:0:0
120,248,80122,6,0,P|119:327|185:233,1,280
264,196,81037,2,0,P|288:228|296:276,1,70,0|8,0:0|0:0,0:0:0
376,264,81403,2,0,P|360:196|320:136,1,140,0|8,0:0|0:0,0:0:0
248,112,81952,1,0,0:0:0
260,32,82134,1,0,0:0:0
184,52,82317,1,0,0:0:0
108,68,82501,6,0,P|68:28,4,35
164,128,83049,1,0,0:0:0
40,212,83415,6,0,P|28:280|72:344,1,140,12|0,0:0|0:0,0:0:0
136,364,83964,1,0,0:0:0
212,340,84147,1,8,0:0:0
216,264,84330,2,0,P|252:220|328:192,1,140,0|0,0:0|0:0,0:0:0
376,132,84879,1,8,0:0:0
416,204,85061,1,0,0:0:0
416,204,85153,1,0,0:0:0
416,204,85244,2,0,P|476:244|500:312,1,140,0|8,0:0|0:0,0:0:0
348,340,85976,5,4,0:0:0
296,284,86176,1,0,0:0:0
216,284,86376,1,2,2:0:0
164,340,86576,1,0,0:0:0
88,320,86776,2,0,P|72:268|88:224,2,70,0|0|4,0:0|0:0|0:0,0:0:0
256,192,87576,12,0,91976,0:0:0
