osu file format v12

[General]
AudioFilename: Platinum.mp3
AudioLeadIn: 0
PreviewTime: 47749
Countdown: 0
SampleSet: Soft
StackLeniency: 0.7
Mode: 0
LetterboxInBreaks: 0

[Editor]
Bookmarks: 3846,15554,36041,47749,59456,77383,88724,103359,123846,135554,147261,165188,176895,188237,199944,211651,229578
DistanceSpacing: 1
BeatDivisor: 2
GridSize: 4

[Metadata]
Title:Platinum
TitleUnicode:プラチナ
Artist:Yuuki Aoi
ArtistUnicode:悠木碧
Creator:Mythol
Version:Normal
Source:Cardcaptor Sakura
Tags:cRyo[iceeicee] xsrsbsns Rare puella magi magica opening
BeatmapID:229677
BeatmapSetID:83118

[Difficulty]
HPDrainRate:3
CircleSize:3
OverallDifficulty:3
ApproachRate:4
SliderMultiplier:0.899999999999999
SliderTickRate:1

[Events]
//Background and Video events
0,0,"BG.jpg",0,0
//Break Periods
2,9904,14238
2,88928,102043
2,165391,175579
//Storyboard Layer 0 (Background)
//Storyboard Layer 1 (Fail)
//Storyboard Layer 2 (Pass)
//Storyboard Layer 3 (Foreground)
//Storyboard Sound Samples
//Background Colour Transformations
3,100,0,0,0

[TimingPoints]
924,365.853658536585,4,1,0,60,1,0
3850,-125,4,2,0,60,0,0
15558,-100,4,2,1,55,0,0
36045,-100,4,2,2,55,0,0
47753,-100,4,2,2,65,0,1
77387,-100,4,2,2,55,0,0
103363,-100,4,2,1,55,0,0
123850,-100,4,2,2,55,0,0
135558,-100,4,2,2,65,0,1
165192,-100,4,2,2,55,0,0
199948,-100,4,2,2,65,0,1
229582,-100,4,2,2,55,0,0
237997,-100,4,2,2,45,0,0

[Colours]
Combo1 : 255,194,166
Combo2 : 166,255,255
Combo3 : 151,255,151
Combo4 : 255,164,255

[HitObjects]
300,308,3850,2,0,P|352:288|416:304,2,108,2|0|0,0:0|0:0|0:0,0:0:0:0:
224,268,5314,2,0,L|168:268,2,36,0|0|0,0:0|0:0|0:0,0:0:0:0:
284,208,6045,1,2,0:0:0:0:
156,92,6777,6,0,P|104:100|60:168,2,108,2|0|0,0:0|0:0|0:0,0:0:0:0:
228,140,8241,2,0,P|288:148|372:104,2,144,0|2|2,0:0|0:0|0:0,0:0:0:0:
336,272,15558,5,4,0:0:0:0:
256,316,15923,1,8,0:0:0:0:
176,272,16289,2,0,P|164:220|180:168,1,89.9999999999999,0|8,0:0|0:0,0:0:0:0:
220,108,17021,2,0,P|172:96|116:112,2,89.9999999999999,0|8|0,0:0|0:0|0:0,0:0:0:0:
288,52,18119,2,0,P|332:36|392:48,1,89.9999999999999,8|0,0:0|0:0,0:0:0:0:
344,128,18850,6,0,L|344:236,1,89.9999999999999,8|0,0:0|0:0,0:0:0:0:
316,304,19582,2,0,P|264:296|204:336,1,89.9999999999999,8|0,0:0|0:0,0:0:0:0:
144,340,20314,2,0,L|108:292,1,45,8|0,0:0|0:0,0:0:0:0:
148,220,20863,6,0,P|80:216|20:272,2,135,0|0|0,0:0|0:0|0:0,0:0:0:0:
224,268,22326,1,0,0:0:0:0:
300,220,22692,1,0,0:0:0:0:
300,220,22875,2,0,P|308:168|292:120,1,89.9999999999999,0|8,0:0|0:0,0:0:0:0:
220,92,23606,2,0,P|212:144|228:192,1,89.9999999999999,0|8,0:0|0:0,0:0:0:0:
300,220,24338,6,0,P|352:232|424:184,2,135,0|0|8,0:0|0:0|0:0,0:0:0:0:
260,196,25619,1,0,0:0:0:0:
184,148,25984,2,0,L|184:36,2,89.9999999999999,2|2|2,0:0|0:0|0:0,0:0:0:0:
112,264,27265,6,0,P|164:292|284:228,1,180,0|0,0:0|0:0,0:0:0:0:
316,176,28363,1,8,0:0:0:0:
404,200,28728,2,0,P|456:192|520:220,2,89.9999999999999,0|8|0,0:0|0:0|0:0,0:0:0:0:
336,260,29826,1,8,0:0:0:0:
272,324,30192,6,0,B|204:344|160:296|160:296|92:340,1,180,0|0,0:0|0:0,0:0:0:0:
36,276,31289,1,8,0:0:0:0:
60,188,31655,2,0,P|96:152|159:152,1,89.9999999999999,0|8,0:0|0:0,0:0:0:0:
176,224,32387,2,0,P|225:210|279:243,1,89.9999999999999,0|8,0:0|0:0,0:0:0:0:
296,308,33119,1,0,0:0:0:0:
456,228,33850,6,0,P|480:152|444:80,2,135,0|0|8,0:0|0:0|0:0,0:0:0:0:
392,164,35314,2,0,L|280:164,1,89.9999999999999,0|8,0:0|0:0,0:0:0:0:
211,164,36045,5,4,0:0:0:0:
211,164,36411,1,8,0:0:0:0:
136,116,36777,2,0,P|88:128|52:176,1,89.9999999999999,0|8,0:0|0:0,0:0:0:0:
136,208,37509,6,0,P|124:280|152:356,2,135,0|0|8,0:0|0:0|0:0,0:0:0:0:
188,132,38972,1,2,0:0:0:0:
256,192,39338,1,8,0:0:0:0:
320,132,39704,2,0,P|372:112|420:120,1,89.9999999999999,2|8,0:0|0:0,0:0:0:0:
380,200,40436,6,0,P|392:272|364:348,2,135,0|0|8,0:0|0:0|0:0,0:0:0:0:
320,132,41899,2,0,L|332:68,2,45,2|0|8,0:0|0:0|0:0,0:0:0:0:
284,216,42631,2,0,P|232:232|180:220,1,89.9999999999999,0|12,0:0|0:0,0:0:0:0:
128,168,43363,2,0,P|68:176|36:268,2,135,0|0|8,0:0|0:0|0:0,0:0:0:0:
212,132,44826,5,0,0:0:0:0:
300,132,45192,1,8,0:0:0:0:
256,212,45558,1,0,0:0:0:0:
316,280,45923,1,8,0:0:0:0:
316,280,46106,2,0,P|372:272|412:220,2,89.9999999999999,0|0|0,0:0|0:0|0:0,0:0:0:0:
276,264,47021,5,2,0:0:0:0:
200,220,47387,1,8,0:0:0:0:
124,268,47753,6,0,P|56:292|40:388,2,135,4|0|8,0:0|0:0|0:0,0:0:0:0:
200,320,49216,1,0,0:0:0:0:
256,248,49582,1,8,0:0:0:0:
312,320,49948,1,2,0:0:0:0:
256,248,50314,1,8,0:0:0:0:
188,188,50680,6,0,P|168:128|228:52,2,135,0|0|8,0:0|0:0|0:0,0:0:0:0:
256,248,52143,2,0,L|368:236,1,89.9999999999999,0|8,0:0|0:0,0:0:0:0:
420,188,52875,2,0,P|416:132|380:96,1,89.9999999999999,2|8,0:0|0:0,0:0:0:0:
332,44,53606,5,4,0:0:0:0:
256,96,53972,1,8,0:0:0:0:
256,96,54155,2,0,P|180:112|96:64,1,135,0|8,0:0|0:0,0:0:0:0:
44,128,55070,2,0,L|44:240,2,89.9999999999999,0|8|0,0:0|0:0|0:0,0:0:0:0:
100,56,56167,1,8,0:0:0:0:
184,88,56533,6,0,P|264:60|380:104,1,180,0|0,0:0|0:0,0:0:0:0:
392,164,57631,1,8,0:0:0:0:
392,164,57814,2,0,L|384:316,2,135,4|8|0,0:0|0:0|0:0,0:0:0:0:
272,224,59460,6,0,P|224:240|164:224,1,89.9999999999999,4|8,0:0|0:0,0:0:0:0:
112,184,60192,1,0,0:0:0:0:
44,244,60558,2,0,P|36:304|48:340,2,89.9999999999999,8|0|8,0:0|0:0|0:0,0:0:0:0:
120,288,61655,2,0,L|224:288,1,89.9999999999999,2|8,0:0|0:0,0:0:0:0:
284,340,62387,6,0,P|348:328|376:244,2,135,0|0|8,0:0|0:0|0:0,0:0:0:0:
256,256,63850,1,0,0:0:0:0:
304,180,64216,1,8,0:0:0:0:
252,108,64582,2,0,P|200:84|144:96,1,89.9999999999999,0|8,0:0|0:0,0:0:0:0:
84,120,65314,6,0,P|120:208|92:328,1,180,4|0,0:0|0:0,0:0:0:0:
184,344,66411,1,8,0:0:0:0:
184,344,66594,2,0,P|248:312|332:324,1,135,2|8,0:0|0:0,0:0:0:0:
348,340,67326,2,0,L|392:192,1,135,0|8,0:0|0:0,0:0:0:0:
440,136,68241,6,0,P|388:120|336:136,1,89.9999999999999,4|8,0:0|0:0,0:0:0:0:
320,156,68789,2,0,L|216:156,2,89.9999999999999,0|0|4,0:0|0:0|0:0,0:0:0:0:
248,40,70070,1,8,0:0:0:0:
164,76,70436,2,0,L|108:52,2,45,0|0|8,0:0|0:0|0:0,0:0:0:0:
228,140,71167,6,0,P|244:192|224:260,1,89.9999999999999,4|8,0:0|0:0,0:0:0:0:
320,268,71899,2,0,P|268:316|204:308,2,135,2|2|8,0:0|0:0|0:0,0:0:0:0:
396,216,73363,2,0,L|460:252,2,45,0|0|8,0:0|0:0|0:0,0:0:0:0:
348,140,74094,6,0,P|260:120|164:196,1,180,2|0,0:0|0:0,0:0:0:0:
260,272,75375,2,0,L|216:364,2,89.9999999999999,0|8|0,0:0|0:0|0:0,0:0:0:0:
328,212,76472,1,8,0:0:0:0:
300,128,76838,2,0,P|232:104|148:140,1,135,0|12,0:0|0:0,0:0:0:0:
44,164,77936,6,0,L|16:104,2,45,0|8|2,0:0|0:0|0:0,0:0:0:0:
164,220,78850,1,8,0:0:0:0:
236,168,79216,2,0,P|288:148|332:156,1,89.9999999999999,0|8,0:0|0:0,0:0:0:0:
396,204,79948,6,0,P|412:156|396:96,2,89.9999999999999,0|8|0,0:0|0:0|0:0,0:0:0:0:
380,248,80863,2,0,L|380:312,2,45,0|8|0,0:0|0:0|0:0,0:0:0:0:
320,128,81777,1,8,0:0:0:0:
240,172,82143,2,0,P|176:184|108:152,1,135,0|0,0:0|0:0,0:0:0:0:
24,260,83241,6,0,P|88:248|156:280,1,135,12|0,0:0|0:0,0:0:0:0:
216,336,84155,2,0,P|292:344|344:280,1,135,8|8,0:0|0:0,0:0:0:0:
392,240,85070,2,0,L|392:124,1,89.9999999999999,0|8,0:0|0:0,0:0:0:0:
256,192,85802,12,4,88728,0:0:0:0:
256,192,103363,5,4,0:0:0:0:
320,252,103728,2,0,P|372:252|412:212,2,89.9999999999999,8|0|8,0:0|0:0|0:0,0:0:0:0:
256,192,104826,2,0,P|172:188|128:280,1,180,0|0,0:0|0:0,0:0:0:0:
180,332,105923,2,0,L|160:372,2,45,8|0|0,0:0|0:0|0:0,0:0:0:0:
256,284,106655,5,8,0:0:0:0:
436,284,107387,1,8,0:0:0:0:
480,204,107753,2,0,L|512:112,2,89.9999999999999,0|8|0,0:0|0:0|0:0,0:0:0:0:
404,152,108850,1,8,0:0:0:0:
320,184,109216,6,0,P|236:204|144:144,1,180,0|0,0:0|0:0,0:0:0:0:
108,88,110314,1,8,0:0:0:0:
44,152,110680,2,0,L|24:244,2,89.9999999999999,0|8|0,0:0|0:0|0:0,0:0:0:0:
116,204,111777,1,8,0:0:0:0:
176,272,112143,6,0,L|216:372,1,89.9999999999999,0|8,0:0|0:0,0:0:0:0:
302,355,112875,2,0,L|336:272,1,89.9999999999999,0|8,0:0|0:0,0:0:0:0:
352,228,113423,2,0,P|396:216|452:236,2,89.9999999999999,0|2|2,0:0|0:0|0:0,0:0:0:0:
264,244,114521,2,0,P|216:184|228:92,1,135,2|0,0:0|0:0,0:0:0:0:
392,112,115802,6,0,P|436:100|488:112,2,89.9999999999999,0|8|0,0:0|0:0|0:0,0:0:0:0:
332,180,116899,1,8,0:0:0:0:
256,136,117265,2,0,L|148:136,1,89.9999999999999,0|8,0:0|0:0,0:0:0:0:
84,96,117997,6,0,P|40:164|76:268,1,180,0|0,0:0|0:0,0:0:0:0:
124,320,119094,1,8,0:0:0:0:
204,280,119460,2,0,P|216:324|200:376,2,89.9999999999999,0|8|0,0:0|0:0|0:0,0:0:0:0:
156,204,120558,1,8,0:0:0:0:
204,128,120923,6,0,P|280:144|376:88,1,180,0|0,0:0|0:0,0:0:0:0:
428,168,122021,1,8,0:0:0:0:
428,168,122204,2,0,L|508:124,2,89.9999999999999,0|0|0,0:0|0:0|0:0,0:0:0:0:
352,220,123302,2,0,P|288:240|220:220,1,135,0|4,0:0|0:0,0:0:0:0:
156,164,124216,5,8,0:0:0:0:
92,224,124582,2,0,P|84:264|96:316,1,89.9999999999999,0|8,0:0|0:0,0:0:0:0:
184,320,125314,2,0,P|248:320|308:368,2,135,0|0|8,0:0|0:0|0:0,0:0:0:0:
104,360,126777,5,0,0:0:0:0:
36,300,127143,1,8,0:0:0:0:
84,224,127509,2,0,L|84:120,1,89.9999999999999,2|8,0:0|0:0,0:0:0:0:
160,84,128241,2,0,P|124:48|36:52,2,135,0|0|8,0:0|0:0|0:0,0:0:0:0:
212,156,129704,6,0,L|212:212,2,45,0|2|8,0:0|0:0|0:0,0:0:0:0:
256,76,130436,1,0,0:0:0:0:
300,156,130802,1,4,0:0:0:0:
384,188,131167,2,0,P|452:172|520:192,2,135,0|0|8,0:0|0:0|0:0,0:0:0:0:
320,252,132631,6,0,P|228:264|160:208,1,180,0|0,0:0|0:0,0:0:0:0:
92,156,133728,1,8,0:0:0:0:
92,156,133911,2,0,L|92:60,2,89.9999999999999,0|8|0,0:0|0:0|0:0,0:0:0:0:
92,201,134826,5,2,0:0:0:0:
92,291,135192,1,8,0:0:0:0:
152,356,135558,6,0,P|236:368|308:288,1,180,4|0,0:0|0:0,0:0:0:0:
332,224,136655,1,8,0:0:0:0:
416,264,137021,2,0,P|460:272|512:260,2,89.9999999999999,0|8|2,0:0|0:0|0:0,0:0:0:0:
404,176,138119,1,8,0:0:0:0:
328,132,138484,6,0,P|268:128|196:176,2,135,2|0|8,0:0|0:0|0:0,0:0:0:0:
404,176,139948,1,0,0:0:0:0:
460,248,140314,1,8,0:0:0:0:
420,328,140680,2,0,P|364:340|320:320,1,89.9999999999999,2|8,0:0|0:0,0:0:0:0:
256,284,141411,5,4,0:0:0:0:
180,328,141777,1,8,0:0:0:0:
180,328,141960,2,0,P|128:272|120:196,1,135,0|8,0:0|0:0,0:0:0:0:
172,144,142875,2,0,L|172:40,2,89.9999999999999,0|8|0,0:0|0:0|0:0,0:0:0:0:
232,212,143972,1,8,0:0:0:0:
304,156,144338,6,0,P|348:140|408:148,1,89.9999999999999,0|8,0:0|0:0,0:0:0:0:
448,212,145070,1,0,0:0:0:0:
360,240,145436,1,8,0:0:0:0:
360,240,145619,2,0,P|352:300|396:368,2,135,8|8|0,0:0|0:0|0:0,0:0:0:0:
352,104,147265,6,0,P|304:88|248:104,1,89.9999999999999,4|8,0:0|0:0,0:0:0:0:
200,156,147997,1,0,0:0:0:0:
124,108,148363,2,0,P|112:64|128:12,2,89.9999999999999,8|0|8,0:0|0:0|0:0,0:0:0:0:
72,180,149460,2,0,P|82:222|70:266,1,89.9999999999999,2|8,0:0|0:0,0:0:0:0:
120,340,150192,6,0,P|164:320|228:328,1,89.9999999999999,0|8,0:0|0:0,0:0:0:0:
240,348,150741,2,0,L|384:348,1,135,0|8,0:0|0:0,0:0:0:0:
448,292,151655,1,0,0:0:0:0:
448,201,152021,1,8,0:0:0:0:
448,110,152387,2,0,P|404:96|356:106,1,89.9999999999999,0|8,0:0|0:0,0:0:0:0:
296,168,153119,6,0,P|212:184|128:124,1,180,4|0,0:0|0:0,0:0:0:0:
52,168,154216,1,8,0:0:0:0:
52,168,154399,2,0,L|76:332,1,135,2|8,0:0|0:0,0:0:0:0:
100,336,155131,2,0,P|168:320|236:336,1,135,0|8,0:0|0:0,0:0:0:0:
320,352,156045,6,0,P|360:324|372:256,1,89.9999999999999,4|8,0:0|0:0,0:0:0:0:
352,248,156594,2,0,L|340:140,2,89.9999999999999,0|0|0,0:0|0:0|0:0,0:0:0:0:
460,168,157875,1,8,0:0:0:0:
408,96,158241,2,0,P|364:72|304:80,1,89.9999999999999,0|8,0:0|0:0,0:0:0:0:
256,132,158972,6,0,P|208:148|148:136,1,89.9999999999999,4|8,0:0|0:0,0:0:0:0:
88,104,159704,2,0,P|36:156|52:248,2,135,2|0|8,0:0|0:0|0:0,0:0:0:0:
120,188,161167,2,0,L|216:188,1,89.9999999999999,0|8,0:0|0:0,0:0:0:0:
268,256,161899,2,0,P|364:256|392:160,1,180,0|0,0:0|0:0,0:0:0:0:
280,124,163180,6,0,L|280:32,2,89.9999999999999,4|0|0,0:0|0:0|0:0,0:0:0:0:
312,208,164277,1,8,0:0:0:0:
252,276,164643,2,0,P|180:284|124:240,1,135,0|12,0:0|0:0,0:0:0:0:
256,192,176899,5,8,0:0:0:0:
308,264,177265,2,0,P|364:272|416:248,1,89.9999999999999,0|8,0:0|0:0,0:0:0:0:
456,196,177997,2,0,L|492:108,2,89.9999999999999,0|8|0,0:0|0:0|0:0,0:0:0:0:
388,136,179094,5,8,0:0:0:0:
388,136,179277,2,0,P|328:108|256:124,1,135,0|8,0:0|0:0,0:0:0:0:
208,192,180192,2,0,L|112:192,1,89.9999999999999,0|8,0:0|0:0,0:0:0:0:
32,172,180923,5,0,0:0:0:0:
56,260,181289,1,8,0:0:0:0:
118,192,181655,1,8,0:0:0:0:
144,280,182021,2,0,L|244:260,1,89.9999999999999,8|4,0:0|0:0,0:0:0:0:
300,204,182753,6,0,P|380:200|436:280,1,180,8|8,0:0|0:0,0:0:0:0:
372,336,183850,2,0,B|348:288|348:288|296:328|208:284,1,180,0|0,0:0|0:0,0:0:0:0:
256,192,185131,12,4,188241,0:0:0:0:
328,252,190070,6,0,P|376:240|432:264,2,89.9999999999999,8|2|8,0:0|0:0|0:0,0:0:0:0:
256,304,191167,2,0,P|168:304|128:244,2,135,0|0|8,0:0|0:0|0:0,0:0:0:0:
328,252,192631,2,0,L|328:152,1,89.9999999999999,0|8,0:0|0:0,0:0:0:0:
328,72,193363,2,0,P|376:80|408:124,2,89.9999999999999,0|8|4,0:0|0:0|0:0,0:0:0:0:
256,124,194460,6,0,P|192:148|76:108,1,180,8|8,0:0|0:0,0:0:0:0:
24,184,195558,1,0,0:0:0:0:
72,260,195923,2,0,B|104:332|104:332|152:304|232:328,1,180,8|8,0:0|0:0,0:0:0:0:
256,192,197021,12,0,199216,0:0:0:0:
388,268,199948,6,0,P|456:292|472:388,2,135,4|0|8,0:0|0:0|0:0,0:0:0:0:
312,320,201411,1,0,0:0:0:0:
256,248,201777,1,8,0:0:0:0:
200,320,202143,1,2,0:0:0:0:
256,248,202509,1,8,0:0:0:0:
324,188,202875,6,0,P|344:128|284:52,2,135,0|0|8,0:0|0:0|0:0,0:0:0:0:
256,248,204338,2,0,L|144:236,1,89.9999999999999,0|8,0:0|0:0,0:0:0:0:
92,188,205070,2,0,P|96:132|132:96,1,89.9999999999999,2|8,0:0|0:0,0:0:0:0:
180,44,205802,5,4,0:0:0:0:
256,96,206167,1,8,0:0:0:0:
256,96,206350,2,0,P|332:112|416:64,1,135,0|8,0:0|0:0,0:0:0:0:
468,128,207265,2,0,L|468:240,2,89.9999999999999,0|8|0,0:0|0:0|0:0,0:0:0:0:
412,56,208363,1,8,0:0:0:0:
328,88,208728,6,0,P|248:60|132:104,1,180,0|0,0:0|0:0,0:0:0:0:
120,164,209826,1,8,0:0:0:0:
120,164,210009,2,0,L|128:316,2,135,4|8|0,0:0|0:0|0:0,0:0:0:0:
240,224,211655,6,0,P|288:240|348:224,1,89.9999999999999,4|8,0:0|0:0,0:0:0:0:
400,184,212387,1,0,0:0:0:0:
468,244,212753,2,0,P|476:304|464:340,2,89.9999999999999,8|0|8,0:0|0:0|0:0,0:0:0:0:
392,288,213850,2,0,L|288:288,1,89.9999999999999,2|8,0:0|0:0,0:0:0:0:
228,340,214582,6,0,P|164:328|136:244,2,135,0|0|8,0:0|0:0|0:0,0:0:0:0:
256,256,216045,1,0,0:0:0:0:
208,180,216411,1,8,0:0:0:0:
260,108,216777,2,0,P|312:84|368:96,1,89.9999999999999,0|8,0:0|0:0,0:0:0:0:
428,120,217509,6,0,P|392:208|420:328,1,180,4|0,0:0|0:0,0:0:0:0:
328,344,218606,1,8,0:0:0:0:
328,344,218789,2,0,P|264:312|180:324,1,135,2|8,0:0|0:0,0:0:0:0:
164,340,219521,2,0,L|120:192,1,135,0|8,0:0|0:0,0:0:0:0:
72,136,220436,6,0,P|124:120|176:136,1,89.9999999999999,4|8,0:0|0:0,0:0:0:0:
192,156,220984,2,0,L|296:156,2,89.9999999999999,0|0|0,0:0|0:0|0:0,0:0:0:0:
264,40,222265,1,8,0:0:0:0:
348,76,222631,2,0,L|404:52,2,45,0|0|8,0:0|0:0|0:0,0:0:0:0:
284,140,223363,6,0,P|268:192|288:260,1,89.9999999999999,4|8,0:0|0:0,0:0:0:0:
192,268,224094,2,2,P|244:316|308:308,2,135,2|2|8,0:0|0:0|0:0,0:0:0:0:
116,216,225558,2,0,L|52:252,2,45,0|0|8,0:0|0:0|0:0,0:0:0:0:
164,140,226289,6,0,P|252:120|348:196,1,180,0|0,0:0|0:0,0:0:0:0:
252,272,227570,2,0,L|296:364,2,89.9999999999999,4|8|0,0:0|0:0|0:0,0:0:0:0:
184,212,228667,1,8,0:0:0:0:
212,128,229033,2,0,P|280:104|364:140,1,135,0|12,0:0|0:0,0:0:0:0:
464,168,230131,6,0,L|504:108,2,45,0|8|2,0:0|0:0|0:0,0:0:0:0:
368,76,231045,2,0,P|324:60|264:76,1,89.9999999999999,8|0,0:0|0:0,0:0:0:0:
212,124,231777,1,8,0:0:0:0:
132,80,232143,6,0,L|92:184,1,89.9999999999999,0|8,0:0|0:0,0:0:0:0:
152,288,233058,2,0,L|152:348,2,45,0|10|6,0:0|0:0|0:0,0:0:0:0:
272,348,233972,2,0,P|316:352|368:312,2,89.9999999999999,8|0|8,0:0|0:0|0:0,0:0:0:0:
300,260,235070,1,0,0:0:0:0:
300,260,235436,6,0,P|340:208|328:124,1,135,12|0,0:0|0:0,0:0:0:0:
296,60,236350,2,0,P|236:80|148:56,1,135,10|8,0:0|0:0,0:0:0:0:
88,116,237265,2,0,L|120:216,1,89.9999999999999,2|8,0:0|0:0,0:0:0:0:
256,192,237997,12,0,242753,0:0:0:0:
