osu file format v11

[General]
AudioFilename: PLATINUM (Short Ver.).mp3
AudioLeadIn: 0
PreviewTime: 47927
Countdown: 0
SampleSet: Normal
StackLeniency: 0.7
Mode: 1
LetterboxInBreaks: 0

[Editor]
DistanceSpacing: 1
BeatDivisor: 4
GridSize: 16

[Metadata]
Title:PLATINUM (Short Ver.)
TitleUnicode:PLATINUM (Short Ver.)
Artist:Yuuki Aoi
ArtistUnicode:Yuuki Aoi
Creator:DJPop
Version:Taiko Oni
Source:Card Captor Madoka
Tags:Opening MAD Parody Puella Magi Madoka Magica Kaname Madoka Kinomoto Sakura Kami Nomi zo Shiru Sekai Aoyama Mio SUBSTAC9
BeatmapID:192012
BeatmapSetID:64967

[Difficulty]
HPDrainRate:5
CircleSize:5
OverallDifficulty:5
ApproachRate:5
SliderMultiplier:1.4
SliderTickRate:1

[Events]
//Background and Video events
0,0,"Taiko BG.jpg"
//Break Periods
//Storyboard Layer 0 (Background)
//Storyboard Layer 1 (Fail)
//Storyboard Layer 2 (Pass)
//Storyboard Layer 3 (Foreground)
//Storyboard Sound Samples
//Background Colour Transformations
3,100,255,0,255

[TimingPoints]
2562,365.853658536585,4,1,0,70,1,0
2562,-166.666666666667,4,1,0,70,0,0
15549,-125,4,1,0,80,0,0
36129,-125,4,1,0,90,0,0
47744,-100,4,1,0,100,0,0
47927,-100,4,1,0,100,0,1
77196,-100,4,1,0,100,0,0
86343,389.61038961039,4,1,0,100,1,0
86732,461.538461538462,4,1,0,100,1,0
87193,600,4,1,0,100,1,0

[Colours]
Combo1 : 0,255,255
Combo2 : 255,128,0

[HitObjects]
304,192,4025,5,0,0:0:0
304,192,4208,1,0,0:0:0
304,112,4391,5,8,0:0:0
304,192,4574,5,0,0:0:0
304,192,4940,1,0,0:0:0
304,112,5305,5,8,0:0:0
304,192,5671,5,0,0:0:0
304,192,5854,1,0,0:0:0
304,192,6037,1,0,0:0:0
304,112,6220,5,8,0:0:0
304,192,6586,5,0,0:0:0
304,112,6952,5,8,0:0:0
304,112,7135,1,8,0:0:0
304,192,7318,5,0,0:0:0
304,112,7501,5,8,0:0:0
304,192,7866,5,0,0:0:0
304,112,8232,5,8,0:0:0
304,192,8415,5,0,0:0:0
304,192,8598,1,0,0:0:0
304,112,8781,5,8,0:0:0
304,192,8964,5,0,0:0:0
304,112,9330,5,8,0:0:0
304,192,9513,5,0,0:0:0
304,192,9879,1,0,0:0:0
304,112,10244,5,8,0:0:0
304,112,10427,1,8,0:0:0
304,192,10793,5,0,0:0:0
304,112,10976,5,8,0:0:0
304,112,11159,1,8,0:0:0
304,192,11525,5,0,0:0:0
304,112,11708,5,8,0:0:0
304,112,11891,1,8,0:0:0
304,192,12074,5,0,0:0:0
304,192,12257,1,0,0:0:0
304,112,12440,5,8,0:0:0
304,112,12805,1,8,0:0:0
304,192,12927,5,0,0:0:0
304,192,13049,1,0,0:0:0
304,112,13171,5,8,0:0:0
304,192,13293,5,0,0:0:0
304,192,13415,1,0,0:0:0
304,112,13537,5,8,0:0:0
304,192,13659,5,0,0:0:0
304,192,13781,1,0,0:0:0
304,112,13903,5,8,0:0:0
304,112,14025,1,8,0:0:0
304,192,14147,5,0,0:0:0
304,112,14269,5,8,0:0:0
304,192,14452,5,0,0:0:0
304,192,14635,1,0,0:0:0
304,112,14818,5,8,0:0:0
304,192,15183,5,0,0:0:0
304,192,15366,1,0,0:0:0
304,112,15732,5,8,0:0:0
304,112,16098,1,8,0:0:0
304,112,16464,1,8,0:0:0
304,192,16647,5,0,0:0:0
304,112,16830,5,8,0:0:0
304,192,17013,5,0,0:0:0
304,112,17196,5,8,0:0:0
304,112,17561,1,8,0:0:0
304,112,17927,1,8,0:0:0
304,192,18110,5,0,0:0:0
304,112,18293,5,8,0:0:0
304,192,18476,5,0,0:0:0
304,112,18659,5,8,0:0:0
304,112,19025,1,8,0:0:0
304,112,19391,1,8,0:0:0
304,192,19574,5,0,0:0:0
304,112,19757,5,8,0:0:0
304,192,19940,5,0,0:0:0
304,112,20122,5,8,0:0:0
304,112,20488,1,8,0:0:0
304,192,20671,5,0,0:0:0
304,112,20854,5,8,0:0:0
304,112,21037,1,8,0:0:0
304,192,21220,5,0,0:0:0
304,192,21403,1,0,0:0:0
304,112,21586,5,8,0:0:0
304,112,21952,1,8,0:0:0
304,112,22318,1,8,0:0:0
304,192,22501,5,0,0:0:0
304,112,22683,5,8,0:0:0
304,192,22866,5,0,0:0:0
304,112,23049,5,8,0:0:0
304,112,23415,1,8,0:0:0
304,112,23781,1,8,0:0:0
304,192,23964,5,0,0:0:0
304,112,24147,5,8,0:0:0
304,192,24330,5,0,0:0:0
304,112,24513,5,8,0:0:0
304,112,24879,1,8,0:0:0
304,192,25061,5,0,0:0:0
304,112,25244,5,8,0:0:0
304,192,25427,5,0,0:0:0
304,112,25610,5,8,0:0:0
304,192,25793,5,0,0:0:0
304,112,25976,5,8,0:0:0
304,192,26159,5,0,0:0:0
304,112,26525,5,8,0:0:0
304,192,26891,5,0,0:0:0
304,112,27074,5,8,0:0:0
304,192,27257,5,0,0:0:0
304,112,27440,5,8,0:0:0
304,112,27805,1,8,0:0:0
304,112,28171,1,8,0:0:0
304,192,28354,5,0,0:0:0
304,112,28537,5,8,0:0:0
304,192,28720,5,0,0:0:0
304,112,28903,5,8,0:0:0
304,112,29269,1,8,0:0:0
304,112,29635,1,8,0:0:0
304,192,29818,5,0,0:0:0
304,112,30001,5,8,0:0:0
304,192,30183,5,0,0:0:0
304,112,30366,5,8,0:0:0
304,112,30732,1,8,0:0:0
304,112,31098,1,8,0:0:0
304,192,31281,5,0,0:0:0
304,112,31464,5,8,0:0:0
304,192,31647,5,0,0:0:0
304,192,31830,1,0,0:0:0
304,112,32013,5,8,0:0:0
304,112,32196,1,8,0:0:0
304,192,32379,5,0,0:0:0
304,192,32561,1,0,0:0:0
304,112,32744,5,8,0:0:0
304,112,32927,1,8,0:0:0
304,192,33110,5,0,0:0:0
304,192,33293,1,0,0:0:0
304,112,33659,5,8,0:0:0
304,112,34025,1,8,0:0:0
304,192,34208,5,0,0:0:0
304,112,34391,5,8,0:0:0
304,192,34574,5,0,0:0:0
304,112,34757,5,8,0:0:0
304,112,35122,1,8,0:0:0
304,112,35488,1,8,0:0:0
304,192,35671,5,0,0:0:0
304,112,35854,5,8,0:0:0
304,192,36037,5,0,0:0:0
304,192,36220,1,0,0:0:0
304,112,36586,5,8,0:0:0
304,192,36769,5,0,0:0:0
304,192,36952,1,0,0:0:0
304,192,37135,1,0,0:0:0
304,112,37318,5,8,0:0:0
304,192,37501,5,0,0:0:0
304,192,37683,1,0,0:0:0
304,112,38049,5,8,0:0:0
304,192,38232,5,0,0:0:0
304,192,38598,1,0,0:0:0
304,112,38781,5,8,0:0:0
304,192,38964,5,0,0:0:0
304,112,39147,1,8,0:0:0
304,192,39330,1,0,0:0:0
304,112,39513,5,8,0:0:0
208,192,39879,5,4,0:0:0
208,112,40244,5,12,0:0:0
304,192,40610,5,0,0:0:0
304,112,40976,5,8,0:0:0
304,192,41159,5,0,0:0:0
304,192,41525,1,0,0:0:0
304,112,41708,5,8,0:0:0
304,192,41891,5,0,0:0:0
304,112,42074,5,8,0:0:0
304,192,42257,5,0,0:0:0
304,112,42440,5,8,0:0:0
208,192,42805,5,4,0:0:0
208,112,43171,5,12,0:0:0
304,192,43537,5,0,0:0:0
304,112,43903,5,8,0:0:0
304,192,44086,5,0,0:0:0
304,192,44452,1,0,0:0:0
304,112,44635,5,8,0:0:0
304,192,44818,5,0,0:0:0
304,112,45001,5,8,0:0:0
304,112,45183,1,8,0:0:0
304,192,45366,5,0,0:0:0
304,112,45549,5,8,0:0:0
304,112,45915,1,8,0:0:0
304,192,46098,5,0,0:0:0
304,112,46281,5,8,0:0:0
208,192,46647,5,4,0:0:0
208,192,47013,1,4,0:0:0
208,112,47196,5,12,0:0:0
208,112,47561,1,12,0:0:0
304,192,47927,5,0,0:0:0
304,192,48110,1,0,0:0:0
304,112,48293,5,8,0:0:0
304,192,48476,5,0,0:0:0
304,192,48842,1,0,0:0:0
304,112,49025,5,8,0:0:0
304,112,49208,1,8,0:0:0
304,192,49574,5,0,0:0:0
304,112,49757,5,8,0:0:0
304,112,50031,1,8,0:0:0
304,192,50122,5,0,0:0:0
304,192,50305,1,0,0:0:0
304,112,50488,5,8,0:0:0
304,192,50854,5,0,0:0:0
304,192,51037,1,0,0:0:0
304,112,51220,5,8,0:0:0
304,192,51403,5,0,0:0:0
304,192,51769,1,0,0:0:0
304,112,51952,5,8,0:0:0
304,112,52135,1,8,0:0:0
304,192,52501,5,0,0:0:0
304,112,52683,5,8,0:0:0
304,112,52958,1,8,0:0:0
304,192,53049,5,0,0:0:0
304,192,53232,1,0,0:0:0
304,112,53415,5,8,0:0:0
304,192,53598,5,0,0:0:0
304,192,53690,1,0,0:0:0
304,192,53781,1,0,0:0:0
304,112,54147,5,8,0:0:0
304,192,54513,5,0,0:0:0
304,192,54696,1,0,0:0:0
304,112,54879,5,8,0:0:0
304,192,55244,5,0,0:0:0
304,112,55610,5,8,0:0:0
304,112,55885,1,8,0:0:0
304,192,55976,5,0,0:0:0
304,192,56159,1,0,0:0:0
304,112,56342,5,8,0:0:0
304,192,56708,5,0,0:0:0
304,192,56891,1,0,0:0:0
304,112,57074,5,8,0:0:0
304,112,57348,1,8,0:0:0
304,192,57440,5,0,0:0:0
304,192,57622,1,0,0:0:0
304,112,57805,5,8,0:0:0
304,192,57988,5,0,0:0:0
304,192,58354,1,0,0:0:0
304,112,58537,5,8,0:0:0
304,192,58720,5,0,0:0:0
304,192,58811,1,0,0:0:0
304,192,58903,1,0,0:0:0
304,112,59086,5,8,0:0:0
304,112,59177,1,8,0:0:0
304,112,59269,1,8,0:0:0
304,192,59452,5,0,0:0:0
304,192,59635,1,0,0:0:0
304,192,59818,1,0,0:0:0
304,112,60001,5,8,0:0:0
304,192,60183,5,0,0:0:0
304,192,60549,1,0,0:0:0
304,112,60732,5,8,0:0:0
304,192,60915,5,0,0:0:0
304,192,61098,1,0,0:0:0
304,112,61281,5,8,0:0:0
304,112,61464,1,8,0:0:0
304,112,61738,1,8,0:0:0
304,192,61830,5,0,0:0:0
304,192,62013,1,0,0:0:0
304,112,62196,5,8,0:0:0
304,192,62379,1,8,0:0:0
304,192,62561,5,0,0:0:0
304,192,62744,1,0,0:0:0
304,112,62927,5,8,0:0:0
304,192,63110,5,0,0:0:0
304,192,63476,1,0,0:0:0
304,112,63659,5,8,0:0:0
304,192,63842,5,0,0:0:0
304,192,64025,1,0,0:0:0
304,112,64208,5,8,0:0:0
304,112,64391,1,8,0:0:0
304,112,64665,1,8,0:0:0
304,192,64757,5,0,0:0:0
304,192,64940,1,0,0:0:0
304,112,65122,5,8,0:0:0
304,192,65305,5,0,0:0:0
304,192,65397,1,0,0:0:0
304,192,65488,1,0,0:0:0
304,192,65671,1,0,0:0:0
304,112,65854,5,8,0:0:0
304,112,66129,1,8,0:0:0
304,192,66220,5,0,0:0:0
304,192,66403,1,0,0:0:0
304,112,66586,5,8,0:0:0
208,192,66769,5,4,0:0:0
304,192,67135,1,0,0:0:0
304,112,67318,5,8,0:0:0
208,192,67501,5,4,0:0:0
304,192,67866,1,0,0:0:0
304,112,68049,5,8,0:0:0
304,192,68232,5,0,0:0:0
304,192,68324,1,0,0:0:0
304,192,68415,1,0,0:0:0
304,112,68781,5,8,0:0:0
208,192,68964,5,4,0:0:0
304,192,69330,1,0,0:0:0
304,112,69513,5,8,0:0:0
208,192,69696,5,4,0:0:0
304,192,70061,1,0,0:0:0
304,112,70244,5,8,0:0:0
304,192,70427,1,8,0:0:0
304,112,70519,1,8,0:0:0
304,112,70610,1,8,0:0:0
304,192,70793,5,0,0:0:0
304,112,70976,5,8,0:0:0
304,192,71159,5,0,0:0:0
208,192,71342,1,4,0:0:0
304,112,71708,5,8,0:0:0
304,192,72074,5,0,0:0:0
304,192,72257,1,0,0:0:0
304,112,72440,5,8,0:0:0
304,192,72622,5,0,0:0:0
304,192,72988,1,0,0:0:0
304,112,73171,5,8,0:0:0
304,192,73354,5,0,0:0:0
304,192,73537,5,8,0:0:0
304,192,73720,1,8,0:0:0
304,112,73903,1,8,0:0:0
304,192,74086,5,0,0:0:0
304,192,74177,1,0,0:0:0
304,192,74269,1,0,0:0:0
304,112,74635,5,8,0:0:0
304,192,74818,5,0,0:0:0
304,192,74909,1,0,0:0:0
304,192,75001,1,0,0:0:0
304,112,75183,5,8,0:0:0
304,112,75275,1,8,0:0:0
304,112,75366,1,8,0:0:0
304,112,75458,1,8,0:0:0
304,192,75549,5,0,0:0:0
304,112,75915,5,8,0:0:0
304,192,76281,5,0,0:0:0
304,192,76464,1,0,0:0:0
304,192,76555,1,0,0:0:0
304,192,76647,1,0,0:0:0
304,192,76738,1,0,0:0:0
304,112,76830,5,8,0:0:0
304,192,77013,5,0,0:0:0
304,192,77196,1,0,0:0:0
208,192,77561,5,4,0:0:0
304,192,77927,5,0,0:0:0
304,192,78110,1,0,0:0:0
304,112,78293,5,8,0:0:0
304,192,78476,5,0,0:0:0
304,192,78842,1,0,0:0:0
304,112,79025,5,8,0:0:0
304,112,79299,1,8,0:0:0
304,192,79391,5,0,0:0:0
304,192,79574,1,0,0:0:0
304,112,79757,5,8,0:0:0
304,192,79940,5,0,0:0:0
304,192,80031,1,0,0:0:0
304,192,80122,1,0,0:0:0
304,112,80488,5,8,0:0:0
304,192,80854,5,0,0:0:0
304,192,81037,1,0,0:0:0
304,112,81220,5,8,0:0:0
304,192,81403,5,0,0:0:0
304,192,81769,1,0,0:0:0
304,112,81952,5,8,0:0:0
304,192,82135,5,0,0:0:0
304,112,82318,5,8,0:0:0
304,112,82409,1,8,0:0:0
304,112,82501,1,8,0:0:0
304,112,82592,1,8,0:0:0
304,112,82683,1,8,0:0:0
304,192,82866,5,0,0:0:0
304,192,83049,1,0,0:0:0
208,192,83415,5,4,0:0:0
304,192,83781,5,0,0:0:0
304,192,83964,1,0,0:0:0
304,112,84147,5,8,0:0:0
304,192,84330,5,0,0:0:0
304,192,84696,1,0,0:0:0
304,112,84879,5,8,0:0:0
304,192,85061,5,0,0:0:0
304,192,85153,1,0,0:0:0
304,192,85244,1,0,0:0:0
304,192,85427,1,0,0:0:0
304,112,85610,5,8,0:0:0
208,192,85976,5,4,0:0:0
304,192,86159,1,0,0:0:0
304,112,86342,5,8,0:0:0
304,192,86537,5,0,0:0:0
304,112,86732,5,8,0:0:0
304,192,86962,5,0,0:0:0
208,192,87193,1,4,0:0:0
256,192,87493,12,0,90493,0:0:0
