osu file format v10

[General]
AudioFilename: PLATINUM (Short Ver.).mp3
AudioLeadIn: 0
PreviewTime: 47927
Countdown: 0
SampleSet: None
StackLeniency: 0.7
Mode: 0
LetterboxInBreaks: 0

[Editor]
DistanceSpacing: 1
BeatDivisor: 4
GridSize: 4

[Metadata]
Title:PLATINUM (Short Ver.)
TitleUnicode:PLATINUM (Short Ver.)
Artist:Yuuki Aoi
ArtistUnicode:Yuuki Aoi
Creator:DJPop
Version:Normal
Source:Card Captor Madoka
Tags:Opening MAD Parody Puella Magi Madoka Magica Kaname Madoka Kinomoto Sakura Kami Nomi zo Shiru Sekai Aoyama Mio SUBSTAC9
BeatmapID:190716
BeatmapSetID:64967

[Difficulty]
HPDrainRate:3
CircleSize:3
OverallDifficulty:4
ApproachRate:5
SliderMultiplier:1.28
SliderTickRate:2

[Events]
//Background and Video events
0,0,"PLATINUM (Short Ver.).jpg"
Video,2000,"PLATINUM (Short Ver.).avi"
//Break Periods
//Storyboard Layer 0 (Background)
//Storyboard Layer 1 (Fail)
//Storyboard Layer 2 (Pass)
//Storyboard Layer 3 (Foreground)
//Storyboard Sound Samples
//Background Colour Transformations
3,100,255,0,255

[TimingPoints]
2562,365.853658536585,4,2,1,90,1,0
5214,-100,4,1,2,90,0,0
5397,-100,4,2,1,90,0,0
5580,-100,4,1,2,90,0,0
5946,-100,4,2,1,90,0,0
6129,-100,4,1,1,90,0,0
6311,-100,4,2,1,90,0,0
6860,-100,4,1,1,90,0,0
7043,-100,4,2,1,90,0,0
8690,-100,4,1,2,90,0,0
8872,-100,4,2,1,90,0,0
9055,-100,4,1,3,90,0,0
9238,-100,4,1,2,90,0,0
9421,-100,4,2,1,90,0,0
9787,-100,4,1,1,90,0,0
9970,-100,4,2,1,90,0,0
10153,-100,4,1,2,90,0,0
10336,-100,4,2,1,90,0,0
11433,-100,4,1,2,90,0,0
11616,-100,4,1,3,90,0,0
11982,-100,4,1,1,90,0,0
12165,-100,4,1,2,90,0,0
12348,-100,4,2,1,90,0,0
12714,-100,4,1,1,90,0,0
12897,-100,4,1,2,90,0,0
13263,-100,4,2,1,90,0,0
13811,-100,4,3,3,90,0,0
14177,-100,4,1,1,90,0,0
14360,-100,4,1,2,90,0,0
14909,-100,4,2,1,90,0,0
15092,-100,4,3,4,90,0,0
15275,-100,4,1,2,90,0,0
15641,-100,4,2,2,90,0,0
18751,-100,4,2,1,90,0,0
18933,-100,4,2,2,90,0,0
19482,-100,4,2,1,90,0,0
19665,-100,4,2,2,90,0,0
20214,-100,4,2,1,90,0,0
20397,-100,4,2,2,90,0,0
20946,-100,4,2,3,90,0,0
21129,-100,4,2,2,90,0,0
24604,-100,4,2,1,90,0,0
24787,-100,4,2,2,90,0,0
25336,-100,4,2,1,90,0,0
25519,-100,4,2,2,90,0,0
26068,-100,4,2,1,90,0,0
26251,-100,4,2,2,90,0,0
26800,-100,4,2,3,90,0,0
26983,-100,4,2,2,90,0,0
28263,-100,4,2,1,90,0,0
28446,-100,4,2,2,90,0,0
29726,-100,4,2,1,90,0,0
29909,-100,4,2,2,90,0,0
31921,-100,4,2,1,90,0,0
32104,-100,4,2,2,90,0,0
32287,-100,4,2,1,90,0,0
32470,-100,4,2,2,90,0,0
32654,-100,4,2,3,90,0,0
32836,-100,4,2,2,90,0,0
33385,-100,4,2,1,90,0,0
33568,-100,4,2,2,90,0,0
34848,-100,4,2,1,90,0,0
35031,-100,4,2,2,90,0,0
36129,-100,4,2,1,100,0,0
36494,-100,4,2,2,100,0,0
37043,-100,4,2,1,100,0,0
37226,-100,4,2,2,100,0,0
37775,-100,4,2,1,100,0,0
37958,-100,4,2,2,100,0,0
38141,-100,4,2,1,100,0,0
38690,-100,4,2,2,100,0,0
39421,-100,4,1,1,100,0,0
40702,-100,4,2,1,100,0,0
40885,-100,4,2,2,100,0,0
41068,-100,4,2,1,100,0,0
41616,-100,4,2,2,100,0,0
42349,-100,4,1,1,100,0,0
43629,-100,4,2,1,100,0,0
43811,-100,4,2,2,100,0,0
44360,-100,4,2,1,100,0,0
44543,-100,4,2,2,100,0,0
44909,-100,4,1,1,100,0,0
45092,-100,4,1,3,100,0,0
45275,-100,4,2,1,100,0,0
45458,-100,4,1,3,100,0,0
46007,-100,4,2,2,100,0,0
46190,-100,4,1,1,100,0,0
46372,-100,4,2,1,100,0,0
46555,-100,4,3,2,100,0,0
46921,-100,4,1,1,100,0,0
47104,-100,4,3,2,100,0,0
47836,-100,4,3,1,100,0,0
47927,-100,4,3,1,100,0,1
48568,-100,4,3,3,100,0,1
48751,-100,4,2,2,100,0,1
49116,-100,4,3,1,100,0,1
49482,-100,4,1,1,100,0,1
50763,-100,4,3,1,100,0,1
51494,-100,4,3,3,100,0,1
51677,-100,4,2,2,100,0,1
52043,-100,4,3,1,100,0,1
52409,-100,4,1,1,100,0,1
53690,-100,4,3,1,100,0,1
54055,-100,4,2,2,100,0,1
54421,-100,4,3,3,100,0,1
54604,-100,4,3,1,100,0,1
55519,-100,4,2,2,100,0,1
55885,-100,4,3,3,100,0,1
56068,-100,4,3,1,100,0,1
57714,-100,4,3,3,100,0,1
57897,-100,4,1,4,100,0,1
58446,-100,4,3,3,100,0,1
58811,-100,4,3,4,100,0,1
59543,-100,4,3,1,100,0,1
60092,-100,4,1,3,100,0,1
60641,-100,4,2,2,100,0,1
60824,-100,4,3,1,100,0,1
61190,-100,4,1,1,100,0,1
61921,-100,4,2,1,100,0,1
62104,-100,4,1,1,100,0,1
62470,-100,4,3,1,100,0,1
63019,-100,4,1,3,100,0,1
63568,-100,4,2,2,100,0,1
63751,-100,4,3,1,100,0,1
64116,-100,4,1,1,100,0,1
64848,-100,4,2,1,100,0,1
65031,-100,4,1,1,100,0,1
65397,-100,4,3,1,100,0,1
66678,-100,4,3,2,100,0,1
66860,-100,4,2,1,100,0,1
67043,-100,4,3,3,100,0,1
67226,-100,4,3,1,100,0,1
67410,-100,4,3,2,100,0,1
67593,-100,4,2,1,100,0,1
67775,-100,4,3,3,100,0,1
67958,-100,4,3,1,100,0,1
68324,-100,4,2,4,100,0,1
68507,-100,4,3,1,100,0,1
68873,-100,4,3,2,100,0,1
69056,-100,4,3,1,100,0,1
69422,-100,4,2,2,100,0,1
69604,-100,4,3,1,100,0,1
70702,-100,4,1,2,100,0,1
71068,-100,4,3,1,100,0,1
71982,-100,4,1,1,100,0,1
72165,-100,4,2,5,100,0,1
72531,-100,4,1,1,100,0,1
72897,-100,4,2,5,100,0,1
73263,-100,4,3,4,100,0,1
73629,-100,4,2,5,100,0,1
73994,-100,4,1,1,100,0,1
74177,-100,4,3,3,100,0,1
74360,-100,4,3,1,100,0,1
75824,-100,4,1,1,100,0,1
76555,-100,4,2,3,100,0,1
76738,-100,4,2,1,100,0,1
76921,-100,4,1,2,100,0,1
77013,-100,4,1,2,100,0,0
77287,-100,4,3,1,100,0,0
77836,-100,4,3,3,100,0,0
78019,-100,4,3,1,100,0,0
78751,-100,4,3,3,100,0,0
79299,-100,4,3,1,100,0,0
80397,-100,4,1,4,100,0,0
80580,-100,4,3,1,100,0,0
81129,-100,4,2,2,100,0,0
81312,-100,4,3,2,100,0,0
81495,-100,4,3,1,100,0,0
81860,-100,4,2,2,100,0,0
82043,-100,4,1,3,100,0,0
82409,-100,4,2,3,100,0,0
82592,-100,4,2,1,100,0,0
82775,-100,4,2,5,100,0,0
82958,-100,4,1,2,100,0,0
83324,-100,4,3,1,100,0,0
84604,-100,4,3,3,100,0,0
85336,-100,4,2,1,100,0,0
85519,-100,4,3,1,100,0,0
86251,-100,4,3,3,100,0,0
86343,389.61038961039,4,3,3,100,1,0
86732,461.538461538462,4,3,3,100,1,0
86847,-100,4,3,1,100,0,0
87193,600,4,3,1,100,1,0
90493,-100,4,3,1,5,0,0

[Colours]
Combo1 : 255,64,64
Combo2 : 255,128,255
Combo3 : 0,192,255
Combo4 : 255,192,0
Combo5 : 192,0,255

[HitObjects]
192,128,4025,6,0,P|112:83|32:128,1,192,4|2,0:0|0:0,0:0:0
32,256,4940,2,0,P|112:301|192:256,2,192,0|0|2,0:0|0:0|0:0,0:0:0
48,192,6220,2,0,P|176:192,1,128,4|2,0:0|0:0,0:0:0
320,256,6952,6,0,P|400:301|480:256,1,192,4|2,0:0|0:0,0:0:0
336,192,7866,2,0,P|464:192,1,128,0|2,0:0|0:0,0:0:0
480,128,8415,2,0,P|400:83|320:128,2,192,0|2|2,0:0|0:0|0:0,0:0:0
480,256,9879,6,0,P|419:327|327:344,1,192,4|2,0:0|0:0,0:0:0
186,343,10793,1,2,0:0:0
186,343,10976,1,2,0:0:0
186,343,11159,2,0,P|93:327|32:256,1,192,2|8,0:0|0:0,0:0:0
156,228,12074,2,0,P|240:132,1,128,4|2,0:0|0:0,0:0:0
327,40,12805,6,0,P|419:56|480:128,2,192,4|2|4,0:0|0:0|0:0,0:0:0
184,40,14269,2,0,P|92:56|32:128,2,192,4|8|2,0:0|0:0|0:0,0:0:0
288,112,15732,5,8,0:0:0
288,112,16098,1,8,0:0:0
288,112,16464,1,8,0:0:0
408,168,16830,1,10,0:0:0
288,224,17196,5,8,0:0:0
288,224,17561,1,8,0:0:0
288,224,17927,1,8,0:0:0
168,168,18293,1,12,0:0:0
108,56,18659,6,0,P|62:99|48:160,1,128,8|8,0:0|0:0,0:0:0
84,284,19391,2,0,P|126:329|187:344,1,128,8|10,0:0|0:0,0:0:0
324,344,20122,6,0,P|385:329|428:284,1,128,8|8,0:0|0:0,0:0:0
464,160,20854,2,0,P|449:99|403:56,1,128,8|12,0:0|0:0,0:0:0
344,168,21586,5,8,0:0:0
344,168,21952,1,8,0:0:0
344,168,22318,1,8,0:0:0
256,72,22683,1,10,0:0:0
168,168,23049,5,8,0:0:0
168,168,23415,1,8,0:0:0
168,168,23781,1,8,0:0:0
256,264,24147,1,12,0:0:0
160,352,24513,6,0,P|104:322|75:267,1,128,8|8,0:0|0:0,0:0:0
168,168,25245,2,0,P|159:105|186:49,1,128,8|10,0:0|0:0,0:0:0
325,49,25976,6,0,P|352:105|344:168,1,128,8|8,0:0|0:0,0:0:0
436,267,26708,2,0,P|407:322|352:352,1,128,8|12,0:0|0:0,0:0:0
224,352,27440,5,8,0:0:0
224,352,27806,1,8,0:0:0
98,322,28171,2,0,P|64:270|98:222,1,128,8|10,0:0|0:0,0:0:0
224,192,28903,5,8,0:0:0
224,192,29269,1,8,0:0:0
350,162,29635,2,0,P|384:112|350:62,1,128,8|12,0:0|0:0,0:0:0
224,32,30366,5,8,0:0:0
224,32,30732,1,8,0:0:0
117,103,31098,1,8,0:0:0
117,103,31464,1,10,0:0:0
144,228,31830,6,0,P|173:283|228:312,3,128,8|8|8|12,0:0|0:0|0:0|0:0,0:0:0
352,352,33293,6,0,P|413:343|445:291,1,128,8|8,0:0|0:0,0:0:0
480,160,34025,1,8,0:0:0
480,160,34391,1,10,0:0:0
448,32,34757,6,0,P|386:40|354:92,1,128,8|8,0:0|0:0,0:0:0
320,224,35489,1,8,0:0:0
320,224,35855,1,12,0:0:0
216,304,36220,6,0,P|160:330|104:304,1,128,0|8,0:0|0:0,0:0:0
35,184,36952,2,0,P|40:122|91:87,1,128,0|2,0:0|0:0,0:0:0
228,87,37683,6,0,P|278:122|284:183,3,128,0|8|0|4,0:0|0:0|0:0|0:0,0:0:0
368,280,39147,5,0,0:0:0
368,280,39513,1,8,0:0:0
464,192,39879,1,4,0:0:0
368,104,40245,1,4,0:0:0
240,136,40610,6,0,P|266:192|240:248,3,128,0|8|0|4,0:0|0:0|0:0|0:0,0:0:0
140,328,42074,5,0,0:0:0
140,328,42440,1,8,0:0:0
32,256,42806,1,4,0:0:0
32,128,43172,1,4,0:0:0
140,56,43537,6,0,P|200:38|260:56,1,128,0|8,0:0|0:0,0:0:0
200,172,44269,2,0,P|260:190|320:172,1,128,0|4,0:0|0:0,0:0:0
392,80,45001,6,0,P|449:101|471:159,3,128,4|8|0|2,0:0|0:0|0:0|0:0,0:0:0
471,224,46281,2,0,P|449:282|392:304,1,128,4|6,0:0|0:0,0:0:0
320,192,47013,5,12,0:0:0
320,192,47196,1,12,0:0:0
192,192,47562,1,12,0:0:0
144,72,47927,6,0,P|93:107|88:168,1,128,6|8,0:0|0:0,0:0:0
98,230,48476,2,0,P|92:291|42:326,2,128,0|0|2,0:0|0:0|0:0,0:0:0
195,316,49574,6,0,P|214:255,1,64,6|12,0:0|0:0,0:0:0
256,136,50122,1,6,0:0:0
256,136,50488,1,12,0:0:0
368,72,50854,6,0,P|418:107|424:168,1,128,2|8,0:0|0:0,0:0:0
414,230,51403,2,0,P|419:291|470:326,2,128,0|0|2,0:0|0:0|0:0,0:0:0
317,316,52501,6,0,P|297:255,1,64,6|12,0:0|0:0,0:0:0
256,136,53049,1,6,0:0:0
256,136,53415,1,12,0:0:0
184,240,53781,6,0,P|123:168|31:152,2,192,6|0|8,0:0|0:0|0:0,0:0:0
328,240,55244,2,0,P|388:168|480:152,2,192,2|0|8,0:0|0:0|0:0,0:0:0
256,344,56708,5,2,0:0:0
130,322,57074,1,8,0:0:0
49,223,57440,1,2,0:0:0
32,96,57805,2,0,P|32:32,1,64,8|8,0:0|0:0,0:0:0
144,192,58537,5,10,0:0:0
144,192,58720,2,0,P|192:232|254:238,1,128,0|4,0:0|0:0,0:0:0
426,150,59635,6,0,P|366:164|338:220,1,128,6|8,0:0|0:0,0:0:0
330,284,60183,1,2,0:0:0
440,352,60549,2,0,P|447:289|420:233,1,128,0|2,0:0|0:0,0:0:0
304,96,61281,5,6,0:0:0
304,96,61464,1,12,0:0:0
186,46,61830,2,0,P|128:34|62:46,1,128,6|12,0:0|0:0,0:0:0
128,156,62561,6,0,P|183:182|199:242,1,128,2|8,0:0|0:0,0:0:0
193,308,63109,1,2,0:0:0
72,352,63475,2,0,P|77:289|115:239,1,128,0|2,0:0|0:0,0:0:0
264,140,64207,5,6,0:0:0
264,140,64391,1,12,0:0:0
376,80,64757,2,0,P|394:139|376:199,1,128,6|12,0:0|0:0,0:0:0
384,328,65488,6,0,P|438:297|467:243,2,128,6|8|2,0:0|0:0|0:0,0:0:0
256,344,66586,1,8,0:0:0
256,344,66769,6,0,P|164:327|104:256,1,192,10|8,0:0|0:0,0:0:0
88,192,67501,2,0,P|105:99|176:39,1,192,10|8,0:0|0:0,0:0:0
240,32,68232,2,0,P|333:48|393:120,1,192,0|8,0:0|0:0,0:0:0
416,176,68964,2,0,P|412:240|381:294,3,128,10|2|6|2,0:0|0:0|0:0|0:0,0:0:0
330,328,70244,5,8,0:0:0
256,224,70610,2,0,P|256:160,2,64,8|8|2,0:0|0:0|0:0,0:0:0
182,328,71342,2,0,P|133:289|128:228,1,128,6|8,0:0|0:0,0:0:0
153,103,72074,5,6,0:0:0
153,103,72257,1,8,0:0:0
256,28,72622,1,6,0:0:0
358,103,72988,1,10,0:0:0
319,224,73354,1,2,0:0:0
192,224,73720,1,8,0:0:0
80,288,74086,6,0,P|163:334|258:335,1,192,4|8,0:0|0:0,0:0:0
380,295,75001,2,0,P|426:252|440:192,1,128,2|8,0:0|0:0,0:0:0
432,128,75549,5,6,0:0:0
344,32,75916,1,12,0:0:0
344,160,76282,1,2,0:0:0
256,64,76647,2,0,P|256:192,1,128,4|8,0:0|0:0,0:0:0
256,320,77379,5,0,0:0:0
256,320,77561,2,0,P|136:296|64:192,1,256,12|8,0:0|0:0,0:0:0
64,128,78476,2,0,P|95:49|192:48,1,192,2|10,0:0|0:0,0:0:0
224,184,79391,1,2,0:0:0
224,184,79757,1,8,0:0:0
256,320,80122,6,0,P|376:296|448:192,1,256,2|2,0:0|0:0,0:0:0
448,128,81037,2,0,P|432:65|381:34,1,128,0|10,0:0|0:0,0:0:0
316,148,81769,2,0,P|256:166|196:148,1,128,2|2,0:0|0:0,0:0:0
136,32,82501,2,0,P|75:102|73:196,1,192,4|2,0:0|0:0,0:0:0
196,236,83415,6,0,P|256:218|316:236,2,128,12|2|8,0:0|0:0|0:0,0:0:0
136,256,84330,2,0,P|128:288|128:288|160:288|160:288|162:319|162:319|192:320|192:320|192:352|192:352|224:344,1,192,2|10,0:0|0:0,0:0:0
288,344,85061,2,0,P|320:352|320:352|320:320|320:320|350:319|350:319|352:288|352:288|384:288|384:288|376:256,1,192,0|8,0:0|0:0,0:0:0
312,164,85976,6,0,P|256:194|256:194|200:164,1,128,12|2,0:0|0:0,0:0:0
195,50,86732,6,0,P|256:34|317:50,1,128,2|4,0:0|0:0,0:0:0
256,192,87343,12,0,90493,0:0:0
