osu file format v11

[General]
AudioFilename: PLATINUM (Short Ver.).mp3
AudioLeadIn: 0
PreviewTime: 47927
Countdown: 0
SampleSet: None
StackLeniency: 0.7
Mode: 0
LetterboxInBreaks: 0

[Editor]
DistanceSpacing: 1
BeatDivisor: 4
GridSize: 8

[Metadata]
Title:PLATINUM (Short Ver.)
TitleUnicode:PLATINUM (Short Ver.)
Artist:Yuuki Aoi
ArtistUnicode:Yuuki Aoi
Creator:DJPop
Version:Insane
Source:Card Captor Madoka
Tags:Opening MAD Parody Puella Magi Madoka Magica Kaname Madoka Kinomoto Sakura Kami Nomi zo Shiru Sekai Aoyama Mio SUBSTAC9
BeatmapID:190715
BeatmapSetID:64967

[Difficulty]
HPDrainRate:8
CircleSize:4
OverallDifficulty:7
ApproachRate:8
SliderMultiplier:1.92
SliderTickRate:2

[Events]
//Background and Video events
0,0,"PLATINUM (Short Ver.).jpg"
Video,2000,"PLATINUM (Short Ver.).avi"
//Break Periods
//Storyboard Layer 0 (Background)
//Storyboard Layer 1 (Fail)
//Storyboard Layer 2 (Pass)
//Storyboard Layer 3 (Foreground)
//Storyboard Sound Samples
//Background Colour Transformations
3,100,255,0,255

[TimingPoints]
2562,365.853658536585,4,2,1,90,1,0
4026,-149.992500374981,4,2,1,90,0,0
6129,-149.992500374981,4,1,1,90,0,0
6311,-149.992500374981,4,2,1,90,0,0
6860,-149.992500374981,4,1,1,90,0,0
7043,-149.992500374981,4,2,1,90,0,0
9055,-149.992500374981,4,1,1,90,0,0
9238,-149.992500374981,4,2,1,90,0,0
9787,-149.992500374981,4,1,1,90,0,0
9970,-149.992500374981,4,2,1,90,0,0
11982,-149.992500374981,4,1,1,90,0,0
12165,-149.992500374981,4,1,2,90,0,0
12348,-149.992500374981,4,2,3,90,0,0
12714,-149.992500374981,4,1,1,90,0,0
12866,-149.992500374981,4,2,1,90,0,0
14208,-149.992500374981,4,1,1,90,0,0
14360,-149.992500374981,4,2,1,90,0,0
14726,-149.992500374981,4,1,2,90,0,0
15092,-200,4,1,2,90,0,0
15458,-200,4,2,1,90,0,0
15641,-200,4,2,2,90,0,0
16007,-100,4,2,2,90,0,0
16190,-100,4,2,1,90,0,0
16372,-100,4,2,2,90,0,0
17104,-100,4,1,1,90,0,0
17287,-100,4,2,2,90,0,0
18202,-100,4,3,2,90,0,0
18385,-100,4,2,2,90,0,0
18476,-100,4,2,1,90,0,0
18568,-100,4,2,2,90,0,0
20946,-100,4,3,2,90,0,0
21129,-100,4,2,2,90,0,0
23141,-100,4,2,1,90,0,0
23324,-100,4,2,2,90,0,0
24421,-100,4,1,1,90,0,0
24604,-100,4,2,1,90,0,0
24787,-100,4,2,2,90,0,0
26251,-100,4,1,1,90,0,0
26800,-100,4,3,2,90,0,0
26983,-100,4,2,2,90,0,0
27531,-100,4,2,1,90,0,0
27714,-100,4,2,2,90,0,0
28811,-100,4,1,1,90,0,0
28994,-100,4,2,2,90,0,0
31738,-100,4,1,1,90,0,0
31921,-100,4,2,2,90,0,0
32654,-100,4,3,2,90,0,0
32836,-100,4,2,2,90,0,0
33385,-100,4,2,1,90,0,0
33568,-100,4,2,2,90,0,0
36129,-100,4,2,2,100,0,0
37775,-100,4,2,1,100,0,0
37958,-100,4,2,2,100,0,0
38324,-100,4,2,1,100,0,0
38507,-100,4,2,2,100,0,0
39421,-100,4,1,1,100,0,0
40702,-100,4,2,1,100,0,0
40885,-100,4,2,2,100,0,0
42349,-100,4,1,1,100,0,0
43629,-100,4,2,1,100,0,0
43811,-100,4,2,2,100,0,0
44177,-100,4,2,1,100,0,0
44360,-100,4,2,2,100,0,0
44909,-100,4,1,1,100,0,0
45275,-100,4,2,1,100,0,0
45458,-100,4,1,1,100,0,0
45641,-100,4,2,1,100,0,0
45824,-100,4,1,1,100,0,0
46007,-100,4,2,2,100,0,0
46190,-100,4,1,1,100,0,0
46372,-100,4,2,1,100,0,0
46555,-100,4,3,2,100,0,0
47104,-100,4,2,1,100,0,0
47196,-100,4,3,2,100,0,0
47287,-100,4,3,2,5,0,0
47379,-100,4,3,2,100,0,0
47653,-100,4,3,2,5,0,0
47744,-100,4,3,1,100,0,0
47927,-100,4,3,1,100,0,1
49482,-100,4,1,1,100,0,1
50580,-100,4,1,1,5,0,1
50671,-100,4,1,1,100,0,1
50763,-100,4,3,1,100,0,1
52409,-100,4,1,1,100,0,1
53141,-100,4,3,2,100,0,1
53324,-100,4,1,1,100,0,1
53507,-100,4,3,1,100,0,1
54421,-100,4,3,3,100,0,1
54604,-100,4,3,1,100,0,1
57531,-100,4,3,3,100,0,1
57897,-100,4,3,2,100,0,1
58080,-100,4,2,1,100,0,1
58263,-100,4,3,3,100,0,1
58629,-100,4,2,1,100,0,1
58903,-100,4,1,2,100,0,1
59177,-100,4,2,1,100,0,1
59452,-100,4,1,2,100,0,1
59543,-100,4,3,1,100,0,1
61190,-100,4,1,1,100,0,1
62470,-100,4,3,1,100,0,1
64116,-100,4,1,1,100,0,1
65214,-100,4,3,1,100,0,1
66678,-100,4,3,2,100,0,1
66860,-100,4,2,1,100,0,1
67043,-100,4,3,1,100,0,1
67410,-100,4,3,2,100,0,1
67593,-100,4,2,1,100,0,1
67775,-100,4,3,1,100,0,1
68873,-100,4,3,2,100,0,1
69056,-100,4,3,1,100,0,1
69422,-100,4,3,3,100,0,1
69605,-100,4,3,1,100,0,1
70154,-100,4,3,3,100,0,1
70336,-100,4,2,1,100,0,1
70702,-100,4,1,2,100,0,1
71251,-100,4,3,1,100,0,1
71982,-100,4,1,1,100,0,1
74360,-100,4,3,1,100,0,1
75824,-100,4,1,1,100,0,1
76190,-100,4,3,1,100,0,1
76921,-100,4,1,2,100,0,1
77013,-100,4,1,2,100,0,0
77287,-100,4,3,1,100,0,0
78934,-100,4,3,3,100,0,0
79117,-100,4,3,1,100,0,0
80397,-100,4,3,3,100,0,0
80580,-100,4,3,1,100,0,0
81312,-100,4,3,2,100,0,0
81495,-100,4,3,1,100,0,0
82866,-100,4,1,2,100,0,0
83324,-100,4,3,1,100,0,0
84788,-100,4,3,3,100,0,0
84971,-100,4,3,1,100,0,0
86251,-100,4,3,3,100,0,0
86343,389.61038961039,4,3,3,100,1,0
86440,-100,4,1,2,100,0,0
86635,-100,4,3,3,100,0,0
86732,461.538461538462,4,3,3,100,1,0
86847,-100,4,1,2,100,0,0
87078,-100,4,3,1,100,0,0
87193,600,4,3,1,100,1,0
90493,-100,4,3,1,5,0,0

[Colours]
Combo1 : 255,64,64
Combo2 : 255,128,255
Combo3 : 0,192,255
Combo4 : 255,192,0
Combo5 : 192,0,255

[HitObjects]
179,306,4025,5,4,0:0:0
112,272,4208,1,0,0:0:0
78,205,4391,1,0,0:0:0
38,267,4574,2,0,P|59:325|117:347,2,128.006393548506,2|0|2,0:0|0:0|0:0,0:0:0
332,306,5671,5,2,0:0:0
400,272,5855,1,2,0:0:0
433,205,6037,1,2,0:0:0
473,267,6220,2,0,P|451:325|394:346,1,128.006393548506,4|2,0:0|0:0,0:0:0
184,136,6952,5,4,0:0:0
256,112,7135,1,0,0:0:0
327,136,7318,1,0,0:0:0
312,64,7501,2,0,P|256:38|200:64,2,128.006393548506,2|0|2,0:0|0:0|0:0,0:0:0
328,216,8415,6,0,P|364:268,2,64.0031967742529,0|0|2,0:0|0:0|0:0,0:0:0
184,216,8964,2,0,P|148:268,2,64.0031967742529,2|4|2,0:0|0:0|0:0,0:0:0
256,112,9513,1,2,0:0:0
392,344,9879,6,0,P|449:322|471:264,1,128.006393548506,4|2,0:0|0:0,0:0:0
376,168,10427,2,0,P|318:189|296:247,1,128.006393548506,2|2,0:0|0:0,0:0:0
256,352,10977,1,2,0:0:0
215,247,11159,6,0,P|193:189|136:168,1,128.006393548506,2|2,0:0|0:0,0:0:0
120,343,11708,1,2,0:0:0
128,256,11891,1,2,0:0:0
40,264,12074,2,0,P|62:322|120:344,1,128.006393548506,4|8,0:0|0:0,0:0:0
83,159,12805,5,4,0:0:0
98,124,12926,1,0,0:0:0
120,93,13048,1,0,0:0:0
148,67,13170,1,0,0:0:0
181,47,13292,1,0,0:0:0
217,35,13414,1,0,0:0:0
256,32,13536,1,0,0:0:0
294,36,13658,1,0,0:0:0
330,48,13780,1,0,0:0:0
363,67,13902,1,0,0:0:0
391,93,14024,1,0,0:0:0
413,124,14146,1,0,0:0:0
428,160,14269,6,0,P|460:216,3,64.0031967742529,4|2|2|12,0:0|0:0|0:0|0:0,0:0:0
256,352,15183,1,2,0:0:0
256,352,15366,2,0,P|252:340|252:340|260:332|260:332|252:324|252:324|260:316|260:316|252:308|252:308|260:300|260:300|252:292|252:292|256:276,1,96,2|8,0:0|0:0,0:0:0
152,32,16098,6,0,P|64:64|32:152,1,192,8|8,0:0|0:0,0:0:0
148,236,16647,2,0,P|164:192|148:148,1,96,0|10,0:0|0:0,0:0:0
31,233,17013,2,0,P|64:320|152:352,1,192
280,256,17561,5,8,0:0:0
340,197,17744,2,0,P|301:170|254:174,1,96,0|8,0:0|0:0,0:0:0
203,293,18110,2,0,P|257:336|327:326,2,144,0|0|8,0:0|0:0|0:0,0:0:0
256,40,19025,5,8,0:0:0
256,40,19208,2,0,P|344:80,1,96,0|8,0:0|0:0,0:0:0
480,128,19574,2,0,P|392:168,1,96,0|10,0:0|0:0,0:0:0
256,216,19940,2,0,P|344:256,1,96,0|8,0:0|0:0,0:0:0
480,304,20305,2,0,P|392:344,1,96,0|8,0:0|0:0,0:0:0
256,352,20671,6,0,P|209:339|177:306,1,96,0|8,0:0|0:0,0:0:0
184,192,21038,1,8,0:0:0
104,280,21221,1,12,0:0:0
110,165,21403,2,0,P|78:132|32:120,1,96,0|8,0:0|0:0,0:0:0
319,115,21952,5,8,0:0:0
401,135,22135,2,0,P|381:177|338:197,1,96,0|8,0:0|0:0,0:0:0
236,96,22501,2,0,P|255:53|298:33,1,96,0|10,0:0|0:0,0:0:0
415,53,22866,1,0,0:0:0
480,152,23049,6,0,P|440:236|354:276,1,192,8|8,0:0|0:0,0:0:0
215,176,23598,2,0,P|260:192|293:227,1,96,0|8,0:0|0:0,0:0:0
220,352,23964,2,0,P|174:337|142:302,1,96,0|12,0:0|0:0,0:0:0
34,168,24330,2,0,P|117:55|256:40,1,288,0|8,0:0|0:0,0:0:0
400,112,25061,5,0,0:0:0
434,270,25244,1,8,0:0:0
335,143,25427,1,0,0:0:0
479,215,25610,1,10,0:0:0
318,213,25793,1,0,0:0:0
464,144,25976,1,8,0:0:0
363,270,26159,6,0,P|300:340|208:344,2,192,0|0|8,0:0|0:0|0:0,0:0:0
400,112,27074,1,12,0:0:0
304,40,27257,1,0,0:0:0
304,40,27348,1,0,0:0:0
304,40,27440,2,0,P|212:46|149:116,1,192,8|8,0:0|0:0,0:0:0
32,352,28172,5,8,0:0:0
32,352,28538,1,10,0:0:0
168,320,28720,2,0,P|256:352|344:320,1,192
256,160,29269,1,8,0:0:0
149,188,29452,2,0,P|174:227|214:255,1,96,0|8,0:0|0:0,0:0:0
363,188,29818,2,0,P|338:227|298:255,1,96,0|12,0:0|0:0,0:0:0
76,136,30366,6,0,P|47:175|40:220,2,96,8|0|8,0:0|0:0|0:0,0:0:0
134,73,30915,1,0,0:0:0
212,38,31098,1,8,0:0:0
298,38,31281,1,0,0:0:0
377,73,31464,1,10,0:0:0
436,136,31647,2,0,P|468:225|436:312,1,192
256,344,32196,6,0,P|209:335|179:300,1,96,8|0,0:0|0:0,0:0:0
212,168,32561,2,0,P|256:152|300:168,1,96,8|8,0:0|0:0,0:0:0
332,300,32927,2,0,P|302:335|256:344,1,96,12|0,0:0|0:0,0:0:0
76,312,33293,2,0,P|44:225|76:136,1,192,8|8,0:0|0:0,0:0:0
256,32,34026,5,8,0:0:0
256,32,34391,1,10,0:0:0
256,144,34574,2,0,P|256:240,1,96,0|8,0:0|0:0,0:0:0
168,348,34940,2,0,P|88:296,1,96,0|8,0:0|0:0,0:0:0
144,200,35305,2,0,P|196:280,1,96,0|8,0:0|0:0,0:0:0
344,348,35671,2,0,P|424:296,1,96,0|4,0:0|0:0,0:0:0
368,200,36037,2,0,P|316:280,1,96,0|0,0:0|0:0,0:0:0
480,64,36586,5,8,0:0:0
407,33,36769,1,0,0:0:0
356,95,36952,1,0,0:0:0
275,32,37135,1,0,0:0:0
232,126,37318,1,2,0:0:0
143,32,37501,1,0,0:0:0
108,156,37683,6,0,P|43:221|66:310,1,192,0|8,0:0|0:0,0:0:0
215,347,38232,2,0,P|279:281|256:192,1,192
162,252,38782,1,4,0:0:0
215,347,38964,1,0,0:0:0
340,348,39147,6,0,P|357:306|364:257,1,96
256,192,39513,1,8,0:0:0
480,192,39879,1,4,0:0:0
32,192,40245,1,4,0:0:0
344,64,40610,6,0,P|256:32|168:64,1,192,0|8,0:0|0:0,0:0:0
256,192,41160,1,0,0:0:0
256,192,41525,2,0,P|301:204|327:243,1,96,0|4,0:0|0:0,0:0:0
256,192,41891,2,0,P|210:204|184:243,1,96
256,336,42257,5,0,0:0:0
256,192,42440,1,8,0:0:0
32,192,42805,1,4,0:0:0
480,192,43172,1,4,0:0:0
112,144,43537,6,0,P|125:55|213:42,1,192,0|8,0:0|0:0,0:0:0
400,144,44086,2,0,P|386:55|298:42,1,192
168,208,44635,1,4,0:0:0
344,208,45001,5,4,0:0:0
256,240,45183,1,4,0:0:0
168,208,45367,1,8,0:0:0
88,260,45549,6,0,P|123:341|212:332,1,192,4|4,0:0|0:0,0:0:0
256,240,46099,1,2,0:0:0
299,332,46281,2,0,P|388:341|424:260,1,192,4|12,0:0|0:0,0:0:0
448,48,47013,5,4,0:0:0
448,48,47105,1,8,0:0:0
448,48,47196,2,0,P|400:48,1,48,12|0,0:0|0:0,0:0:0
64,48,47561,2,0,P|112:48,1,48,12|0,0:0|0:0,0:0:0
256,192,47928,5,6,0:0:0
304,275,48111,1,0,0:0:0
207,276,48294,1,8,0:0:0
212,128,48476,2,0,P|256:112|300:128,1,96,0|2,0:0|0:0,0:0:0
381,269,48842,2,0,P|372:315|337:345,1,96,2|8,0:0|0:0,0:0:0
174,346,49208,2,0,P|138:315|130:269,1,96,2|0,0:0|0:0,0:0:0
160,64,49574,5,6,0:0:0
256,32,49757,1,12,0:0:0
352,64,49940,2,0,P|396:84,2,48,4|8|6,0:0|0:0|0:0,0:0:0
256,32,50306,1,2,0:0:0
160,64,50488,2,0,P|116:84,2,48,12|0|0,0:0|0:0|0:0,0:0:0
256,208,50854,5,2,0:0:0
311,304,51037,1,0,0:0:0
200,304,51220,1,8,0:0:0
256,208,51403,2,0,P|256:112,1,96,0|2,0:0|0:0,0:0:0
311,304,51769,2,0,P|394:352,1,96,2|8,0:0|0:0,0:0:0
200,304,52135,2,0,P|116:352,1,96,2|0,0:0|0:0,0:0:0
256,208,52501,5,6,0:0:0
168,152,52684,1,12,0:0:0
112,240,52866,2,0,P|68:260,2,48,4|8|6,0:0|0:0|0:0,0:0:0
256,208,53233,1,10,0:0:0
344,152,53416,1,12,0:0:0
400,240,53598,2,0,P|444:260,2,48,0|8|6,0:0|0:0|0:0,0:0:0
168,152,54147,5,8,0:0:0
71,168,54330,2,0,P|95:79|184:54,1,192,0|2,0:0|0:0,0:0:0
343,151,54879,1,8,0:0:0
251,172,55061,2,0,P|246:125|273:86,1,96,0|2,0:0|0:0,0:0:0
436,131,55427,2,0,P|440:177|413:216,1,96,0|8,0:0|0:0,0:0:0
300,320,55793,1,0,0:0:0
300,320,55885,1,8,0:0:0
300,320,55976,2,0,P|256:336|212:320,2,96,2|2|8,0:0|0:0|0:0,0:0:0
416,336,56526,5,0,0:0:0
352,256,56708,1,2,0:0:0
256,224,56891,1,0,0:0:0
160,256,57074,1,8,0:0:0
96,336,57257,1,0,0:0:0
96,336,57349,1,8,0:0:0
96,336,57440,2,0,P|51:256|96:176,1,192,2|8,0:0|0:0,0:0:0
200,49,57988,2,0,P|207:36|207:36|207:65|207:65|222:42|222:42|223:67|223:67|237:48|237:48|239:70|239:70|252:54|252:54|255:72|255:72|267:60|267:60|271:74|271:74|282:66|282:66|287:76|287:76|297:72|297:72|303:78|303:78|312:79|312:79|339:86,1,288,10|10,0:0|0:0,0:0:0
432,112,58720,6,0,P|478:124,2,48,0|8|2,0:0|0:0|0:0,0:0:0
345,156,59086,1,8,0:0:0
317,166,59177,1,8,0:0:0
290,180,59268,1,8,0:0:0
266,197,59360,1,0,0:0:0
244,216,59451,1,2,0:0:0
224,239,59543,1,0,0:0:0
208,264,59635,6,0,P|152:344,2,96,6|0|8,0:0|0:0|0:0,0:0:0
359,342,60183,2,0,P|304:264,1,96,0|2,0:0|0:0,0:0:0
128,208,60549,2,0,P|208:264,1,96,2|8,0:0|0:0,0:0:0
304,264,60915,2,0,P|384:208,1,96,2|0,0:0|0:0,0:0:0
480,104,61282,5,6,0:0:0
416,32,61465,1,12,0:0:0
352,104,61647,1,4,0:0:0
320,112,61739,1,8,0:0:0
288,104,61830,1,6,0:0:0
224,32,62013,1,2,0:0:0
128,32,62196,1,12,0:0:0
64,104,62379,1,0,0:0:0
128,176,62561,6,0,P|86:200|41:199,2,96,2|0|8,0:0|0:0|0:0,0:0:0
296,208,63110,2,0,P|329:240|342:287,1,96,0|2,0:0|0:0,0:0:0
171,287,63476,2,0,P|183:240|216:208,1,96,2|8,0:0|0:0,0:0:0
384,176,63842,2,0,P|425:200|470:199,1,96,2|0,0:0|0:0,0:0:0
312,112,64208,5,6,0:0:0
256,32,64391,1,12,0:0:0
200,112,64574,1,4,0:0:0
200,112,64666,1,8,0:0:0
200,112,64757,2,0,P|200:160|224:200,1,96,6|2,0:0|0:0,0:0:0
308,320,65123,5,12,0:0:0
376,256,65306,1,0,0:0:0
376,256,65397,1,8,0:0:0
376,256,65488,2,0,P|334:232|287:233,1,96,6|0,0:0|0:0,0:0:0
160,336,65854,6,0,P|201:312|224:272,1,96,8|0,0:0|0:0,0:0:0
224,272,66129,1,8,0:0:0
224,272,66220,1,2,0:0:0
132,244,66403,1,2,0:0:0
160,336,66586,5,8,0:0:0
200,176,66769,2,0,P|152:96|60:95,1,192,10|2,0:0|0:0,0:0:0
200,176,67318,5,8,0:0:0
312,176,67501,2,0,P|358:96|450:95,1,192,10|2,0:0|0:0,0:0:0
312,176,68049,5,8,0:0:0
256,80,68232,2,0,P|256:32,2,48,0|8|6,0:0|0:0|0:0,0:0:0
384,288,68782,5,8,0:0:0
300,336,68964,2,0,P|256:352|212:336,1,96,10|0,0:0|0:0,0:0:0
212,240,69330,2,0,P|256:224|300:240,1,96,2|10,0:0|0:0,0:0:0
128,288,69696,1,6,0:0:0
132,150,70061,6,0,P|162:115|208:107,1,96,2|10,0:0|0:0,0:0:0
36,168,70428,1,8,0:0:0
36,168,70519,1,8,0:0:0
36,168,70610,1,8,0:0:0
88,87,70793,2,0,P|122:55|167:41,1,96,8|2,0:0|0:0,0:0:0
266,47,71159,1,2,0:0:0
360,72,71342,6,0,P|431:136|464:224,1,192,6|8,0:0|0:0,0:0:0
256,272,72074,1,6,0:0:0
212,200,72257,2,0,P|256:184|300:200,1,96,6|8,0:0|0:0,0:0:0
215,347,72622,2,0,P|179:317|171:271,1,96,6|0,0:0|0:0,0:0:0
340,270,72988,2,0,P|331:317|296:347,1,96,6|8,0:0|0:0,0:0:0
112,352,73355,5,4,0:0:0
88,328,73446,1,8,0:0:0
64,304,73538,1,2,0:0:0
116,220,73721,1,6,0:0:0
36,164,73904,1,8,0:0:0
88,80,74086,1,4,0:0:0
112,56,74178,1,8,0:0:0
136,32,74269,2,0,P|232:32|312:80,1,192,2|8,0:0|0:0,0:0:0
432,192,74818,5,0,0:0:0
432,192,74910,1,8,0:0:0
432,192,75001,1,2,0:0:0
368,272,75184,1,2,0:0:0
396,292,75276,1,0,0:0:0
424,312,75367,1,8,0:0:0
452,332,75458,1,0,0:0:0
480,352,75550,5,6,0:0:0
256,32,75915,1,12,0:0:0
32,352,76281,1,2,0:0:0
32,352,76464,5,2,0:0:0
60,332,76556,1,8,0:0:0
88,312,76647,1,8,0:0:0
116,292,76738,1,8,0:0:0
144,272,76830,1,8,0:0:0
256,192,77013,2,0,P|256:190|252:186|252:186|260:182|260:182|252:178|252:178|260:174|260:174|252:170|252:170|260:166|260:166|252:162|252:162|260:158|260:158|252:154|252:154|260:150|260:150|256:146|256:144,1,96,0|2,0:0|0:0,0:0:0
152,32,77379,1,0,0:0:0
152,32,77561,6,0,P|65:64|33:151,1,192,12|2,0:0|0:0,0:0:0
130,256,78110,1,2,0:0:0
130,128,78293,1,8,0:0:0
33,234,78476,2,0,P|65:321|152:352,1,192,2|2,0:0|0:0,0:0:0
256,352,79025,6,0,P|304:352|344:328,1,96,10|0,0:0|0:0,0:0:0
368,304,79300,1,8,0:0:0
392,280,79391,2,0,P|432:256|480:256,1,96,2|2,0:0|0:0,0:0:0
344,180,79757,1,8,0:0:0
344,180,79848,1,0,0:0:0
344,180,79940,1,0,0:0:0
344,180,80031,1,0,0:0:0
344,180,80122,6,0,P|256:148|168:180,2,192,2|10|2,0:0|0:0|0:0,0:0:0
256,268,81038,1,2,0:0:0
168,180,81221,1,8,0:0:0
163,60,81403,2,0,P|256:41|349:60,1,192,10|2,0:0|0:0,0:0:0
256,268,81952,1,8,0:0:0
256,344,82135,5,0,0:0:0
211,330,82226,1,8,0:0:0
183,291,82318,1,2,0:0:0
183,244,82409,1,8,0:0:0
211,206,82500,1,10,0:0:0
256,192,82592,1,8,0:0:0
301,206,82683,1,8,0:0:0
329,245,82775,1,0,0:0:0
329,292,82866,1,8,0:0:0
301,330,82958,1,0,0:0:0
256,344,83049,1,2,0:0:0
176,32,83415,6,0,P|91:72|51:157,1,192,12|2,0:0|0:0,0:0:0
180,165,83964,1,2,0:0:0
256,96,84147,1,8,0:0:0
336,32,84330,2,0,P|420:72|460:157,1,192,2|2,0:0|0:0,0:0:0
332,165,84879,1,10,0:0:0
212,256,85062,5,0,0:0:0
212,256,85154,1,0,0:0:0
212,256,85244,2,0,P|256:272|300:256,1,96,2|2,0:0|0:0,0:0:0
256,96,85610,1,8,0:0:0
128,288,85976,5,12,0:0:0
97,188,86159,5,0,0:0:0
134,90,86342,5,2,0:0:0
230,35,86537,5,8,0:0:0
339,56,86732,5,2,0:0:0
413,162,86962,5,2,0:0:0
384,289,87193,5,4,0:0:0
256,192,87268,12,0,90493,0:0:0
