osu file format v11

[General]
AudioFilename: PLATINUM (Short Ver.).mp3
AudioLeadIn: 0
PreviewTime: 47927
Countdown: 0
SampleSet: None
StackLeniency: 0.7
Mode: 0
LetterboxInBreaks: 0

[Editor]
DistanceSpacing: 1
BeatDivisor: 4
GridSize: 16

[Metadata]
Title:PLATINUM (Short Ver.)
TitleUnicode:PLATINUM (Short Ver.)
Artist:Yuuki Aoi
ArtistUnicode:Yuuki Aoi
Creator:DJPop
Version:Hard
Source:Card Captor Madoka
Tags:Opening MAD Parody Puella Magi Madoka Magica Kaname Madoka Kinomoto Sakura Kami Nomi zo Shiru Sekai Aoyama Mio SUBSTAC9
BeatmapID:190714
BeatmapSetID:64967

[Difficulty]
HPDrainRate:5
CircleSize:4
OverallDifficulty:6
ApproachRate:7
SliderMultiplier:1.6
SliderTickRate:2

[Events]
//Background and Video events
0,0,"PLATINUM (Short Ver.).jpg"
Video,2000,"PLATINUM (Short Ver.).avi"
//Break Periods
//Storyboard Layer 0 (Background)
//Storyboard Layer 1 (Fail)
//Storyboard Layer 2 (Pass)
//Storyboard Layer 3 (Foreground)
//Storyboard Sound Samples
//Background Colour Transformations
3,100,255,0,255

[TimingPoints]
2562,365.853658536585,4,2,1,90,1,0
4026,-149.992500374981,4,2,1,90,0,0
5214,-149.992500374981,4,1,2,90,0,0
5397,-149.992500374981,4,3,3,90,0,0
5763,-149.992500374981,4,2,1,90,0,0
6129,-149.992500374981,4,1,1,90,0,0
6311,-149.992500374981,4,2,1,90,0,0
6860,-149.992500374981,4,1,1,90,0,0
7043,-149.992500374981,4,2,1,90,0,0
8690,-149.992500374981,4,1,2,90,0,0
8872,-149.992500374981,4,2,1,90,0,0
9055,-149.992500374981,4,1,3,90,0,0
9238,-149.992500374981,4,1,2,90,0,0
9421,-149.992500374981,4,2,1,90,0,0
9787,-149.992500374981,4,1,1,90,0,0
9970,-149.992500374981,4,2,1,90,0,0
10153,-149.992500374981,4,1,2,90,0,0
10336,-149.992500374981,4,2,1,90,0,0
11433,-149.992500374981,4,1,2,90,0,0
11616,-149.992500374981,4,1,3,90,0,0
11982,-149.992500374981,4,1,1,90,0,0
12165,-149.992500374981,4,1,2,90,0,0
12348,-149.992500374981,4,2,1,90,0,0
12714,-149.992500374981,4,1,1,90,0,0
12897,-149.992500374981,4,1,2,90,0,0
13263,-149.992500374981,4,2,1,90,0,0
13811,-149.992500374981,4,3,3,90,0,0
14177,-149.992500374981,4,1,1,90,0,0
14360,-149.992500374981,4,1,2,90,0,0
15641,-100,4,2,2,90,0,0
19299,-100,4,1,1,90,0,0
19482,-100,4,2,2,90,0,0
20031,-100,4,1,1,90,0,0
20214,-100,4,2,2,90,0,0
20763,-100,4,1,1,90,0,0
20946,-100,4,3,2,90,0,0
21129,-100,4,2,2,90,0,0
26251,-100,4,1,1,90,0,0
26800,-100,4,3,2,90,0,0
26983,-100,4,1,1,90,0,0
27165,-100,4,2,2,90,0,0
30458,-100,4,2,1,90,0,0
30641,-100,4,2,2,90,0,0
31190,-100,4,2,1,90,0,0
31372,-100,4,2,2,90,0,0
31738,-100,4,1,1,90,0,0
31921,-100,4,2,2,90,0,0
32287,-100,4,2,1,90,0,0
32470,-100,4,2,2,90,0,0
32654,-100,4,2,3,90,0,0
32836,-100,4,2,2,90,0,0
33385,-100,4,2,1,90,0,0
33568,-100,4,1,1,90,0,0
33751,-100,4,2,1,90,0,0
33933,-100,4,2,2,90,0,0
34665,-100,4,1,1,90,0,0
35580,-100,4,2,2,90,0,0
36129,-100,4,2,1,100,0,0
36494,-100,4,2,2,100,0,0
37043,-100,4,2,1,100,0,0
37226,-100,4,2,2,100,0,0
37775,-100,4,2,1,100,0,0
37958,-100,4,2,2,100,0,0
38324,-100,4,2,1,100,0,0
38507,-100,4,2,2,100,0,0
39421,-100,4,1,1,100,0,0
40702,-100,4,2,1,100,0,0
40885,-100,4,2,2,100,0,0
41251,-100,4,2,1,100,0,0
41433,-100,4,2,2,100,0,0
42349,-100,4,1,1,100,0,0
43629,-100,4,2,1,100,0,0
43811,-100,4,2,2,100,0,0
44177,-100,4,2,1,100,0,0
44360,-100,4,2,2,100,0,0
44909,-100,4,1,1,100,0,0
45092,-100,4,1,3,100,0,0
45275,-100,4,2,1,100,0,0
45458,-100,4,1,3,100,0,0
45641,-100,4,1,4,100,0,0
46007,-100,4,2,2,100,0,0
46190,-100,4,1,1,100,0,0
46372,-100,4,2,1,100,0,0
46555,-100,4,3,2,100,0,0
46738,-100,4,2,1,100,0,0
46921,-100,4,1,1,100,0,0
47104,-100,4,3,2,100,0,0
47836,-100,4,3,1,100,0,0
47927,-100,4,3,1,100,0,1
48568,-100,4,3,3,100,0,1
48751,-100,4,3,1,100,0,1
48933,-100,4,2,2,100,0,1
49116,-100,4,3,1,100,0,1
49482,-100,4,1,1,100,0,1
50763,-100,4,3,1,100,0,1
51494,-100,4,3,3,100,0,1
51677,-100,4,3,1,100,0,1
51860,-100,4,2,2,100,0,1
52043,-100,4,3,1,100,0,1
52409,-100,4,1,1,100,0,1
53690,-100,4,3,1,100,0,1
54421,-100,4,3,3,100,0,1
54604,-100,4,3,1,100,0,1
55885,-100,4,3,3,100,0,1
56068,-100,4,3,1,100,0,1
57531,-100,4,3,3,100,0,1
57897,-100,4,3,2,100,0,1
58080,-100,4,2,1,100,0,1
58263,-100,4,3,3,100,0,1
58629,-100,4,3,4,100,0,1
59543,-100,4,3,1,100,0,1
60092,-100,4,1,3,100,0,1
60458,-100,4,3,1,100,0,1
60641,-100,4,2,2,100,0,1
60824,-100,4,3,1,100,0,1
61190,-100,4,1,1,100,0,1
62470,-100,4,3,1,100,0,1
63019,-100,4,1,3,100,0,1
63385,-100,4,3,1,100,0,1
63568,-100,4,2,2,100,0,1
63751,-100,4,3,1,100,0,1
64116,-100,4,1,1,100,0,1
65397,-100,4,3,1,100,0,1
66678,-100,4,3,2,100,0,1
66860,-100,4,2,1,100,0,1
67043,-100,4,3,3,100,0,1
67226,-100,4,3,1,100,0,1
67410,-100,4,3,2,100,0,1
67593,-100,4,2,1,100,0,1
67775,-100,4,3,3,100,0,1
67958,-100,4,3,1,100,0,1
68324,-100,4,2,4,100,0,1
68507,-100,4,3,1,100,0,1
68873,-100,4,3,2,100,0,1
69056,-100,4,3,1,100,0,1
69422,-100,4,3,3,100,0,1
69605,-100,4,3,1,100,0,1
70153,-100,4,3,3,100,0,1
70702,-100,4,1,2,100,0,1
71251,-100,4,3,1,100,0,1
71982,-100,4,1,1,100,0,1
72348,-100,4,2,2,100,0,1
72531,-100,4,1,1,100,0,1
73080,-100,4,2,2,100,0,1
73263,-100,4,1,1,100,0,1
73994,-100,4,1,3,100,0,1
74177,-100,4,3,1,100,0,1
75824,-100,4,1,1,100,0,1
76190,-100,4,1,4,100,0,1
76555,-100,4,2,3,100,0,1
76738,-100,4,2,1,100,0,1
76921,-100,4,1,2,100,0,1
77013,-100,4,1,2,100,0,0
77287,-100,4,3,1,100,0,0
77836,-100,4,3,3,100,0,0
78019,-100,4,3,1,100,0,0
78751,-100,4,3,3,100,0,0
79299,-100,4,3,1,100,0,0
80397,-100,4,3,3,100,0,0
80580,-100,4,3,1,100,0,0
81312,-100,4,3,2,100,0,0
81495,-100,4,3,1,100,0,0
81860,-100,4,2,2,100,0,0
82043,-100,4,1,3,100,0,0
82409,-100,4,3,1,100,0,0
82866,-100,4,1,2,100,0,0
83324,-100,4,3,1,100,0,0
84787,-100,4,3,3,100,0,0
84971,-100,4,3,1,100,0,0
85336,-100,4,3,3,100,0,0
85519,-100,4,3,1,100,0,0
86251,-100,4,3,3,100,0,0
86343,389.61038961039,4,3,3,100,1,0
86440,-100,4,1,2,100,0,0
86635,-100,4,3,3,100,0,0
86732,461.538461538462,4,3,3,100,1,0
86847,-100,4,1,2,100,0,0
87078,-100,4,3,1,100,0,0
87193,600,4,3,1,100,1,0
90493,-100,4,3,1,5,0,0

[Colours]
Combo1 : 255,64,64
Combo2 : 255,128,255
Combo3 : 0,192,255
Combo4 : 255,192,0
Combo5 : 192,0,255

[HitObjects]
32,168,4025,5,4,0:0:0
34,89,4207,1,0,0:0:0
89,34,4390,1,0,0:0:0
167,32,4573,1,2,0:0:0
32,168,4940,6,0,P|152:276,1,160.007991935632,0|4,0:0|0:0,0:0:0
256,352,5854,1,2,0:0:0
256,272,6038,1,2,0:0:0
256,192,6220,2,0,P|256:84,1,106.671994623755,4|2,0:0|0:0,0:0:0
480,168,6952,5,4,0:0:0
477,89,7134,1,0,0:0:0
422,34,7317,1,0,0:0:0
344,32,7500,1,2,0:0:0
480,168,7866,6,0,P|400:240,1,106.671994623755,0|2,0:0|0:0,0:0:0
332,276,8415,2,0,P|256:297|180:276,2,160.007991935632,0|2|2,0:0|0:0|0:0,0:0:0
332,56,9879,6,0,P|256:35|180:56,1,160.007991935632,4|2,0:0|0:0,0:0:0
96,212,10793,1,2,0:0:0
124,280,10977,1,2,0:0:0
180,328,11159,2,0,P|256:349|332:328,1,160.007991935632,2|8,0:0|0:0,0:0:0
416,192,12074,2,0,P|411:153|380:92,1,106.671994623755,4|2,0:0|0:0,0:0:0
160,56,12805,6,0,P|84:74|43:140,2,160.007991935632,4|2|4,0:0|0:0|0:0,0:0:0
352,56,14269,2,0,P|427:74|468:140,1,160.007991935632,4|8,0:0|0:0,0:0:0
256,64,15183,1,2,0:0:0
256,64,15366,1,2,0:0:0
32,192,15732,5,8,0:0:0
32,192,16098,1,8,0:0:0
32,192,16464,2,0,P|72:192|104:168,1,80,8|0,0:0|0:0,0:0:0
224,200,16830,2,0,P|184:200|152:224,1,80,10|0,0:0|0:0,0:0:0
32,320,17196,5,8,0:0:0
32,320,17562,1,8,0:0:0
32,320,17928,2,0,P|72:320|104:296,1,80,8|0,0:0|0:0,0:0:0
224,328,18294,2,0,P|184:328|152:352,1,80,12|0,0:0|0:0,0:0:0
256,264,18659,5,8,0:0:0
392,344,19025,1,8,0:0:0
392,344,19208,2,0,P|457:302|476:227,1,160
400,124,19757,5,10,0:0:0
400,124,19940,2,0,P|364:192|400:260,1,160
476,156,20488,5,8,0:0:0
476,156,20671,2,0,P|457:81|392:40,1,160,0|8,0:0|0:0,0:0:0
312,32,21221,1,12,0:0:0
256,192,21586,5,8,0:0:0
256,192,21952,1,8,0:0:0
254,342,22318,2,0,P|239:308|256:272,1,80,8|0,0:0|0:0,0:0:0
396,236,22683,2,0,P|359:251|324:235,1,80,10|0,0:0|0:0,0:0:0
256,192,23049,5,8,0:0:0
256,192,23415,1,8,0:0:0
127,115,23781,2,0,P|164:119|186:152,1,80,8|0,0:0|0:0,0:0:0
147,291,24146,2,0,P|152:252|183:229,1,80,12|0,0:0|0:0,0:0:0
256,192,24513,5,8,0:0:0
256,192,24879,1,8,0:0:0
386,118,25245,2,0,P|364:148|325:152,1,80,8|0,0:0|0:0,0:0:0
224,48,25610,2,0,P|255:72|259:110,1,80,10|0,0:0|0:0,0:0:0
152,80,25977,5,8,0:0:0
80,116,26159,2,0,P|41:185|69:254,3,160,0|0|8|0,0:0|0:0|0:0|0:0,0:0:0
144,320,27440,5,8,0:0:0
144,320,27806,1,8,0:0:0
144,320,28172,2,0,P|184:320|216:296,1,80,8|0,0:0|0:0,0:0:0
296,222,28538,2,0,P|328:200|368:200,1,80,10|0,0:0|0:0,0:0:0
368,320,28903,5,8,0:0:0
368,320,29269,1,8,0:0:0
368,320,29635,2,0,P|328:320|296:296,1,80,8|0,0:0|0:0,0:0:0
215,222,30001,2,0,P|184:200|144:200,1,80,12|0,0:0|0:0,0:0:0
64,144,30366,6,0,P|104:80|176:40,1,160,8|8,0:0|0:0,0:0:0
256,32,30915,1,0,0:0:0
336,40,31098,2,0,P|408:80|448:144,1,160,8|10,0:0|0:0,0:0:0
368,232,31647,2,0,P|361:150|300:114,1,160
211,114,32196,2,0,P|151:150|144:232,2,160,8|8|12,0:0|0:0|0:0,0:0:0
400,296,33293,6,0,P|256:348|104:296,1,320,8|8,0:0|0:0,0:0:0
112,100,34391,1,10,0:0:0
180,56,34574,2,0,P|255:35|332:56,3,160
400,100,35854,1,12,0:0:0
407,253,36220,6,0,P|370:321|296:344,1,160,0|8,0:0|0:0,0:0:0
200,256,36769,1,0,0:0:0
104,253,36952,2,0,P|141:321|216:344,1,160,0|2,0:0|0:0,0:0:0
312,256,37501,1,0,0:0:0
349,171,37683,6,0,P|358:94|312:32,1,160,0|8,0:0|0:0,0:0:0
200,32,38232,2,0,P|153:94|162:171,1,160
256,168,38781,2,0,P|256:88,2,80,4|0|0,0:0|0:0|0:0,0:0:0
256,352,39513,1,8,0:0:0
80,192,39879,5,4,0:0:0
432,192,40245,1,4,0:0:0
162,212,40610,6,0,P|153:289|200:352,1,160,0|8,0:0|0:0,0:0:0
312,352,41159,2,0,P|358:289|349:212,1,160
256,216,41708,2,0,P|256:296,2,80,4|0|0,0:0|0:0|0:0,0:0:0
256,32,42440,1,8,0:0:0
432,192,42806,5,4,0:0:0
80,192,43172,1,4,0:0:0
304,36,43537,6,0,P|340:104|304:172,1,160,0|8,0:0|0:0,0:0:0
208,172,44086,2,0,P|172:104|208:36,1,160
256,104,44635,1,4,0:0:0
320,288,45001,6,0,P|392:256|472:256,2,160,4|8|4,0:0|0:0|0:0,0:0:0
192,288,46099,1,2,0:0:0
192,288,46281,2,0,P|120:256|40:256,2,160,4|12|12,0:0|0:0|0:0,0:0:0
256,352,47196,5,12,0:0:0
256,32,47562,1,12,0:0:0
360,344,47928,5,6,0:0:0
400,272,48111,1,0,0:0:0
320,272,48294,1,8,0:0:0
360,344,48476,2,0,P|436:345|481:282,2,160,0|2|2,0:0|0:0|0:0,0:0:0
224,88,49574,6,0,P|160:40,1,80,6|12,0:0|0:0,0:0:0
32,32,49940,2,0,P|96:80,1,80,4|6,0:0|0:0,0:0:0
120,192,50305,2,0,P|56:144,2,80,2|12|0,0:0|0:0|0:0,0:0:0
152,344,50854,5,2,0:0:0
112,272,51037,1,0,0:0:0
192,272,51220,1,8,0:0:0
152,344,51402,2,0,P|75:345|30:282,2,160,0|2|2,0:0|0:0|0:0,0:0:0
288,88,52501,6,0,P|352:40,1,80,6|12,0:0|0:0,0:0:0
480,32,52867,2,0,P|416:80,1,80,4|6,0:0|0:0,0:0:0
392,192,53232,2,0,P|456:144,2,80,2|12|0,0:0|0:0|0:0,0:0:0
256,264,53781,6,0,P|272:338|346:354,1,160,6|8,0:0|0:0,0:0:0
320,232,54330,2,0,P|256:191|191:232,1,160,0|2,0:0|0:0,0:0:0
56,264,54879,1,8,0:0:0
80,184,55061,1,0,0:0:0
104,104,55244,6,0,P|167:144|232:104,1,160,2|8,0:0|0:0,0:0:0
126,36,55793,2,0,P|51:52|35:126,1,160,0|2,0:0|0:0,0:0:0
56,264,56342,1,8,0:0:0
136,288,56524,1,0,0:0:0
216,312,56708,6,0,P|254:322|292:312,1,80,2|0,0:0|0:0,0:0:0
261,198,57074,2,0,P|223:208|195:236,1,80,8|0,0:0|0:0,0:0:0
328,240,57440,2,0,P|400:269|472:240,1,160,2|8,0:0|0:0,0:0:0
400,184,57988,6,0,P|392:176|392:176|408:176|408:176|392:168|392:168|408:168|408:168|392:160|392:160|408:160|408:160|392:152|392:152|408:152|408:152|392:144|392:144|408:144|408:144|392:136|392:136|408:136|408:136|392:128|392:128|408:128|408:128|400:120,1,240,10|10,0:0|0:0,0:0:0
400,32,58720,1,8,0:0:0
400,32,59086,1,4,0:0:0
112,32,59635,5,6,0:0:0
32,32,59818,1,0,0:0:0
72,100,60001,1,8,0:0:0
112,32,60183,1,2,0:0:0
32,168,60549,6,0,P|42:244|104:292,2,160,2|2|6,0:0|0:0|0:0,0:0:0
176,156,61464,2,0,P|191:192|176:228,1,80,12|4,0:0|0:0,0:0:0
264,279,61830,2,0,P|288:248|327:243,1,80,6|2,0:0|0:0,0:0:0
327,140,62196,2,0,P|288:135|264:104,1,80,12|0,0:0|0:0,0:0:0
400,32,62561,5,2,0:0:0
480,32,62744,1,0,0:0:0
440,100,62927,1,8,0:0:0
400,32,63109,1,2,0:0:0
480,168,63476,6,0,P|469:244|408:292,2,160,2|2|6,0:0|0:0|0:0,0:0:0
336,156,64391,2,0,P|321:192|336:228,1,80,12|4,0:0|0:0,0:0:0
247,279,64757,2,0,P|223:248|184:243,1,80,6|2,0:0|0:0,0:0:0
184,140,65123,2,0,P|223:135|247:104,1,80,12|0,0:0|0:0,0:0:0
116,108,65488,6,0,P|171:51|247:32,2,160,6|8|2,0:0|0:0|0:0,0:0:0
32,120,66403,1,2,0:0:0
88,184,66586,1,8,0:0:0
32,248,66769,6,0,P|94:342|207:326,1,240,10|8,0:0|0:0,0:0:0
328,248,67501,2,0,P|256:169|184:248,1,240,10|8,0:0|0:0,0:0:0
304,326,68232,2,0,P|417:342|480:248,1,240,0|8,0:0|0:0,0:0:0
424,184,68964,1,10,0:0:0
294,48,69330,2,0,P|256:38|218:48,2,80,2|10|6,0:0|0:0|0:0,0:0:0
294,336,70061,6,0,P|256:346|218:336,1,80,2|10,0:0|0:0,0:0:0
56,192,70611,1,8,0:0:0
136,192,70793,1,8,0:0:0
216,192,70976,1,2,0:0:0
456,192,71342,6,0,P|296:192,1,160,6|8,0:0|0:0,0:0:0
180,56,72074,1,6,0:0:0
180,56,72257,2,0,P|256:35|332:56,1,160,6|6,0:0|0:0,0:0:0
332,328,72988,2,0,P|256:349|180:328,1,160,6|4,0:0|0:0,0:0:0
120,272,73537,5,2,0:0:0
100,192,73720,1,6,0:0:0
180,214,73903,2,0,P|256:235|332:214,2,160,8|2|8,0:0|0:0|0:0,0:0:0
332,56,75001,1,2,0:0:0
392,112,75184,1,2,0:0:0
412,192,75367,1,8,0:0:0
392,272,75550,5,6,0:0:0
120,272,75916,1,12,0:0:0
256,36,76282,1,2,0:0:0
328,320,76647,2,0,P|256:349|184:320,1,160,4|8,0:0|0:0,0:0:0
48,160,77379,5,0,0:0:0
48,160,77561,2,0,P|115:72|218:115,1,240,12|2,0:0|0:0,0:0:0
256,192,78294,1,8,0:0:0
293,115,78476,2,0,P|396:72|464:160,1,240,2|10,0:0|0:0,0:0:0
328,312,79391,1,2,0:0:0
256,352,79574,1,2,0:0:0
184,312,79757,1,8,0:0:0
172,36,80122,6,0,P|104:36|32:88,2,160,2|10|2,0:0|0:0|0:0,0:0:0
212,112,81038,1,2,0:0:0
300,112,81221,1,8,0:0:0
340,36,81403,2,0,P|408:36|480:88,2,160,10|2|2,0:0|0:0|0:0,0:0:0
256,188,82501,2,0,P|256:228,6,40,8|8|8|0|8|0|2,0:0|0:0|0:0|0:0|0:0|0:0|0:0,0:0:0
88,244,83415,6,0,P|87:321|155:353,1,160,12|2,0:0|0:0,0:0:0
212,288,83964,1,2,0:0:0
300,288,84147,1,8,0:0:0
356,352,84330,2,0,P|424:320|424:243,1,160,2|2,0:0|0:0,0:0:0
332,212,84879,2,0,P|256:191|180:212,2,160,10|2|8,0:0|0:0|0:0,0:0:0
144,128,85976,6,0,P|108:56,1,80,12|0,0:0|0:0,0:0:0
256,100,86343,6,0,P|256:20,1,80,2|8,0:0|0:0,0:0:0
368,128,86732,6,0,P|404:56,1,80,2|2,0:0|0:0,0:0:0
256,192,87193,5,4,0:0:0
256,192,87268,12,0,90493,0:0:0
