osu file format v13

[General]
AudioFilename: gyutto shite hoshiinda .mp3
AudioLeadIn: 0
PreviewTime: 55927
Countdown: 0
SampleSet: Soft
StackLeniency: 0.4
Mode: 0
LetterboxInBreaks: 0
WidescreenStoryboard: 1

[Editor]
DistanceSpacing: 1.3
BeatDivisor: 4
GridSize: 4
TimelineZoom: 1

[Metadata]
Title:Gyutto Shite Hoshiinda
TitleUnicode:ぎゅっとして欲しいんだ
Artist:Yuuki Aoi
ArtistUnicode:悠木碧
Creator:Zero__wind
Version:Normal
Source:A-Channel
Tags:Fycho A Channel Ichii Tooru insert song 03 Aチャンネル 2
BeatmapID:492654
BeatmapSetID:69004

[Difficulty]
HPDrainRate:3
CircleSize:3.5
OverallDifficulty:4
ApproachRate:5
SliderMultiplier:1.4
SliderTickRate:1

[Events]
//Background and Video events
0,0,"Tooru.jpg",0,0
//Break Periods
2,28885,39617
2,87120,96087
2,157708,168220
//Storyboard Layer 0 (Background)
//Storyboard Layer 1 (Fail)
//Storyboard Layer 2 (Pass)
//Storyboard Layer 3 (Foreground)
//Storyboard Sound Samples
//Background Colour Transformations
3,100,163,162,255

[TimingPoints]
11038,441.176470588235,4,2,1,30,1,0
13905,-125,4,2,1,30,0,0
26920,-125,4,2,1,40,0,0
27802,-125,4,2,1,50,0,0
28685,-125,4,2,1,60,0,0
40817,-125,4,2,1,70,0,0
42140,-125,4,2,1,60,0,0
42802,-125,4,2,1,40,0,0
56920,-100,4,2,1,70,0,1
67508,-100,4,2,1,60,0,1
71037,-100,4,2,1,70,0,1
81626,-100,4,2,1,60,0,1
85155,-100,4,2,1,60,0,0
97287,-125,4,2,1,70,0,0
98611,-125,4,2,1,60,0,0
99273,-125,4,2,1,40,0,0
127508,-100,4,2,1,70,0,1
138096,-100,4,2,1,60,0,1
141626,-100,4,2,1,70,0,1
152214,-100,4,2,1,60,0,1
155743,-100,4,2,1,60,0,0
169420,-125,4,2,1,60,0,0
170302,-125,4,2,1,50,0,0
171185,-125,4,2,1,40,0,0
171626,-125,4,2,1,60,0,0
172067,-125,4,2,1,50,0,0
172949,-125,4,2,1,40,0,0
173390,-125,4,2,1,60,0,0
173832,-125,4,2,1,50,0,0
174714,-125,4,2,1,40,0,0
175155,-125,4,2,1,60,0,0
176479,-125,4,2,1,40,0,0
176920,-125,4,2,1,60,0,0
177361,-125,4,2,1,50,0,0
178243,-125,4,2,1,40,0,0
178685,-125,4,2,1,60,0,0
180008,-125,4,2,1,40,0,0
180449,-125,4,2,1,60,0,0
180890,-125,4,2,1,50,0,0
181332,-125,4,2,1,40,0,0
181993,-125,4,2,1,60,0,0
182435,-125,4,2,1,50,0,0
182876,-125,4,2,1,40,0,0
183979,-166.666666666667,4,2,1,60,0,0
184420,-166.666666666667,4,2,1,40,0,0
186626,-166.666666666667,4,2,1,50,0,0
187949,-166.666666666667,4,2,1,40,0,0
190155,-166.666666666667,4,2,1,50,0,0
191479,-166.666666666667,4,2,1,40,0,0
193685,-166.666666666667,4,2,1,50,0,0
195008,-166.666666666667,4,2,1,40,0,0
196332,-125,4,2,1,30,0,0
198096,-100,4,2,1,70,0,1
208685,-100,4,2,1,60,0,1
212214,-100,4,2,1,70,0,1
222802,-100,4,2,1,60,0,1
225890,-100,4,2,1,50,0,1
226332,-100,4,2,1,40,0,0
228096,-100,4,2,1,10,0,0

[Colours]
Combo1 : 241,113,112
Combo2 : 226,145,177
Combo3 : 255,176,99
Combo4 : 87,183,179
SliderBorder : 255,255,255

[HitObjects]
256,192,11038,12,2,12802,0:0:0:0:
384,244,13905,6,0,L|380:188,2,56,0|0|0,0:0|0:0|0:0,0:0:0:0:
384,316,14567,2,0,P|309:367|241:342,1,168,2|0,0:0|0:0,0:0:0:0:
193,289,15449,2,0,L|197:233,1,56,2|2,0:0|0:0,0:0:0:0:
240,96,16111,1,0,0:0:0:0:
204,32,16332,2,0,P|155:12|100:26,1,112,2|0,0:0|0:0,0:0:0:0:
0,129,17214,2,0,L|0:201,1,56,2|0,0:0|0:0,0:0:0:0:
40,328,17876,1,0,0:0:0:0:
108,352,18096,6,0,P|178:343|216:260,1,168,2|0,0:0|0:0,0:0:0:0:
204,188,18979,2,0,L|145:178,1,56,2|2,0:0|0:0,0:0:0:0:
220,52,19640,1,0,0:0:0:0:
292,36,19861,2,0,L|402:54,1,112,2|0,0:0|0:0,0:0:0:0:
508,156,20743,2,0,P|512:188|508:220,1,56,2|0,0:0|0:0,0:0:0:0:
456,348,21405,1,0,0:0:0:0:
384,364,21626,6,0,L|218:335,1,168,2|0,0:0|0:0,0:0:0:0:
156,296,22508,2,0,P|122:303|104:316,1,56,2|2,0:0|0:0,0:0:0:0:
11,205,23170,1,0,0:0:0:0:
76,172,23390,2,0,P|112:120|112:72,1,112,2|0,0:0|0:0,0:0:0:0:
244,12,24273,2,0,P|248:42|260:72,1,56,2|0,0:0|0:0,0:0:0:0:
340,184,24935,1,0,0:0:0:0:
392,236,25155,6,0,P|392:334|340:372,1,168,2|0,0:0|0:0,0:0:0:0:
272,348,26037,2,0,L|204:344,1,56,2|2,0:0|0:0,0:0:0:0:
128,231,26699,1,2,0:0:0:0:
180,180,26920,2,0,L|235:183,1,56,0|0,0:0|0:0,0:0:0:0:
288,236,27361,2,0,L|343:239,1,56,0|2,0:0|0:0,0:0:0:0:
412,212,27802,5,2,0:0:0:0:
436,68,28243,1,2,0:0:0:0:
300,16,28685,1,4,0:0:0:0:
212,16,40817,5,4,0:0:0:0:
76,68,41259,1,4,0:0:0:0:
100,212,41700,1,4,0:0:0:0:
240,172,42140,2,0,L|296:172,2,56,0|8|0,0:0|0:0|0:0,0:0:0:0:
196,232,42802,6,0,P|176:296|188:340,1,112,2|0,0:0|0:0,0:0:0:0:
332,352,43685,2,0,P|351:300|341:246,1,112,0|8,0:0|0:0,0:0:0:0:
284,114,44567,2,0,L|224:98,1,56,0|2,0:0|0:0,0:0:0:0:
229,26,45008,2,0,L|283:11,1,56,0|2,0:0|0:0,0:0:0:0:
428,24,45670,1,2,0:0:0:0:
480,76,45890,1,8,0:0:0:0:
480,220,46332,6,0,P|472:280|492:332,1,112,2|0,0:0|0:0,0:0:0:0:
344,352,47214,2,0,P|296:315|241:306,1,112,0|8,0:0|0:0,0:0:0:0:
300,172,48096,2,0,P|341:154|368:122,2,84,2|2|2,0:0|0:0|0:0,0:0:0:0:
229,153,48979,1,0,0:0:0:0:
112,68,49420,1,8,0:0:0:0:
96,212,49861,6,0,L|96:336,1,112,2|0,0:0|0:0,0:0:0:0:
4,212,50743,2,0,L|4:100,1,112,0|8,0:0|0:0,0:0:0:0:
124,16,51626,2,0,P|152:18|180:28,1,56,0|2,0:0|0:0,0:0:0:0:
244,56,52067,2,0,P|272:54|300:44,1,56,0|2,0:0|0:0,0:0:0:0:
444,20,52729,2,0,L|452:88,1,56,2|8,0:0|0:0,0:0:0:0:
469,147,53170,1,0,0:0:0:0:
436,212,53390,6,0,P|376:228|332:208,1,112,2|0,0:0|0:0,0:0:0:0:
244,92,54273,2,0,P|200:126|189:179,1,112,0|8,0:0|0:0,0:0:0:0:
200,252,54935,1,2,0:0:0:0:
256,192,55155,12,4,56920,0:0:0:0:
168,312,57802,6,0,P|117:275|104:200,1,140,2|8,0:0|0:0,0:0:0:0:
108,112,58464,1,0,0:0:0:0:
171,47,58685,2,0,P|108:19|45:45,1,140,2|8,0:0|0:0,0:0:0:0:
12,132,59346,1,0,0:0:0:0:
8,224,59567,5,2,0:0:0:0:
184,172,60008,1,10,0:0:0:0:
316,44,60449,6,0,P|388:16|448:40,1,140,2|8,0:0|0:0,0:0:0:0:
500,108,61111,1,0,0:0:0:0:
472,192,61332,2,0,L|332:200,1,140,2|8,0:0|0:0,0:0:0:0:
248,168,61993,1,0,0:0:0:0:
172,216,62214,2,0,L|172:288,2,70,2|0|8,0:0|0:0|0:0,0:0:0:0:
96,168,62876,1,0,0:0:0:0:
32,232,63096,5,2,0:0:0:0:
84,56,63537,1,10,0:0:0:0:
260,16,63979,6,0,P|292:92|276:144,1,140,4|8,0:0|0:0,0:0:0:0:
200,192,64640,1,0,0:0:0:0:
136,256,64861,2,0,P|130:296|136:328,1,70,2|0,0:0|0:0,0:0:0:0:
212,372,65302,2,0,P|252:378|284:372,1,70,8|0,0:0|0:0,0:0:0:0:
348,312,65743,2,0,P|420:288|484:312,1,140,2|8,0:0|0:0,0:0:0:0:
496,216,66405,1,0,0:0:0:0:
440,144,66626,5,2,0:0:0:0:
284,236,67067,1,10,0:0:0:0:
160,368,67508,6,0,L|20:356,1,140,0|8,0:0|0:0,0:0:0:0:
52,272,68170,1,0,0:0:0:0:
8,192,68390,2,0,L|148:204,1,140,0|8,0:0|0:0,0:0:0:0:
324,160,69273,2,0,P|320:80|278:37,1,140,2|8,0:0|0:0,0:0:0:0:
190,43,69935,1,0,0:0:0:0:
224,128,70155,5,2,0:0:0:0:
396,188,70596,1,10,0:0:0:0:
489,33,71037,6,0,P|427:3|361:21,1,140,4|8,0:0|0:0,0:0:0:0:
300,88,71699,1,0,0:0:0:0:
372,144,71920,2,0,L|364:220,1,70,2|0,0:0|0:0,0:0:0:0:
296,274,72361,2,0,L|304:350,1,70,8|0,0:0|0:0,0:0:0:0:
390,369,72802,2,0,P|459:366|512:322,1,140,2|8,0:0|0:0,0:0:0:0:
512,232,73464,1,0,0:0:0:0:
452,164,73685,5,2,0:0:0:0:
272,192,74126,1,10,0:0:0:0:
288,12,74567,6,0,L|360:16,1,70,2|0,0:0|0:0,0:0:0:0:
396,98,75008,2,0,L|356:158,1,70,8|0,0:0|0:0,0:0:0:0:
268,149,75449,2,0,L|235:84,2,70,2|0|8,0:0|0:0|0:0,0:0:0:0:
296,236,76111,1,0,0:0:0:0:
268,324,76332,2,0,P|184:344|144:316,1,140,2|8,0:0|0:0,0:0:0:0:
120,228,76993,1,0,0:0:0:0:
224,80,77435,6,0,L|224:160,1,70,0|8,0:0|0:0,0:0:0:0:
210,240,77876,1,0,0:0:0:0:
120,228,78096,6,0,P|51:234|4:286,1,140,4|8,0:0|0:0,0:0:0:0:
92,316,78758,1,0,0:0:0:0:
182,301,78979,2,0,P|203:273|209:239,1,70,2|0,0:0|0:0,0:0:0:0:
188,152,79420,2,0,P|194:117|215:90,1,70,8|0,0:0|0:0,0:0:0:0:
280,28,79861,2,0,P|342:68|408:60,1,140,2|8,0:0|0:0,0:0:0:0:
474,3,80523,1,2,0:0:0:0:
364,148,80964,5,0,0:0:0:0:
320,228,81185,2,0,P|319:278|330:311,1,70,8|0,0:0|0:0,0:0:0:0:
397,352,81626,6,0,P|458:333|495:269,1,140,0|8,0:0|0:0,0:0:0:0:
495,179,82287,1,0,0:0:0:0:
425,119,82508,2,0,P|358:111|295:151,1,140,0|8,0:0|0:0,0:0:0:0:
200,304,83390,2,0,L|272:320,2,70,2|0|8,0:0|0:0|0:0,0:0:0:0:
112,280,84052,1,0,0:0:0:0:
72,364,84273,5,2,0:0:0:0:
176,216,84714,1,10,0:0:0:0:
352,252,85155,1,4,0:0:0:0:
256,192,85376,12,0,86920,0:0:0:0:
300,368,97287,5,4,0:0:0:0:
436,316,97729,1,4,0:0:0:0:
412,172,98170,1,4,0:0:0:0:
272,136,98611,2,0,L|272:192,2,56,8|8|0,0:0|0:0|0:0,0:0:0:0:
272,64,99273,6,0,P|349:26|421:60,2,168,2|2|0,0:0|0:0|0:0,0:0:0:0:
208,100,100817,2,0,P|160:68|88:72,2,112,2|0|0,0:0|0:0|0:0,0:0:0:0:
212,244,102140,1,0,0:0:0:0:
164,300,102361,2,0,L|104:300,1,56
44,264,102802,6,0,P|21:178|58:111,2,168,2|2|0,0:0|0:0|0:0,0:0:0:0:
116,264,104346,2,0,P|175:249|220:267,1,112,2|0,0:0|0:0,0:0:0:0:
292,256,105008,2,0,P|316:238|332:212,2,56,2|0|0,0:0|0:0|0:0,0:0:0:0:
266,324,105670,2,0,P|269:353|284:380,2,56,2|0|0,0:0|0:0|0:0,0:0:0:0:
220,267,106332,6,0,P|166:248|81:306,2,168,2|2|0,0:0|0:0|0:0,0:0:0:0:
282,230,107876,1,2,0:0:0:0:
382,338,108317,1,0,0:0:0:0:
498,250,108758,1,0,0:0:0:0:
398,142,109199,2,0,P|362:134|338:134,2,56,2|0|0,0:0|0:0|0:0,0:0:0:0:
468,163,109861,6,0,P|512:83|484:19,2,168,2|2|0,0:0|0:0|0:0,0:0:0:0:
428,224,111405,2,0,P|409:280|435:328,1,112,0|2,0:0|0:0,0:0:0:0:
482,273,112067,2,0,P|503:246|512:213,2,56,0|0|2,0:0|0:0|0:0,0:0:0:0:
431,324,112729,2,0,P|368:328|332:364,1,112,0|0,0:0|0:0,0:0:0:0:
260,360,113390,6,0,P|236:304|248:252,1,112,4|0,0:0|0:0,0:0:0:0:
292,200,114052,2,0,P|286:145|251:102,1,112,2|0,0:0|0:0,0:0:0:0:
184,72,114714,1,8,0:0:0:0:
60,152,115155,2,0,L|28:211,1,56,0|2,0:0|0:0,0:0:0:0:
4,268,115596,2,0,L|24:332,1,56,0|2,0:0|0:0,0:0:0:0:
164,292,116258,2,0,P|203:289|232:280,1,56,2|8,0:0|0:0,0:0:0:0:
269,230,116699,1,0,0:0:0:0:
244,160,116920,6,0,L|124:140,1,112,2|0,0:0|0:0,0:0:0:0:
140,68,117582,2,0,L|250:86,1,112,2|0,0:0|0:0,0:0:0:0:
311,128,118243,1,8,0:0:0:0:
420,35,118685,2,0,P|444:17|469:9,1,56,0|2,0:0|0:0,0:0:0:0:
512,68,119126,2,0,P|488:86|463:94,1,56,0|2,0:0|0:0,0:0:0:0:
364,200,119787,2,0,L|360:268,1,56,2|8,0:0|0:0,0:0:0:0:
400,320,120229,1,0,0:0:0:0:
472,312,120449,6,0,P|500:261|492:204,1,112,2|0,0:0|0:0,0:0:0:0:
473,139,121111,2,0,P|414:140|369:175,1,112,2|0,0:0|0:0,0:0:0:0:
343,238,121773,1,8,0:0:0:0:
232,332,122214,2,0,P|193:331|168:336,1,56,0|2,0:0|0:0,0:0:0:0:
124,282,122655,2,0,P|125:243|120:218,1,56,0|2,0:0|0:0,0:0:0:0:
236,136,123317,1,2,0:0:0:0:
296,96,123537,2,0,L|352:96,1,56,8|0,0:0|0:0,0:0:0:0:
412,136,123979,5,2,0:0:0:0:
356,272,124420,1,0,0:0:0:0:
216,236,124861,2,0,P|168:209|112:216,1,112,0|8,0:0|0:0,0:0:0:0:
56,260,125523,1,2,0:0:0:0:
256,192,125743,12,4,127508,0:0:0:0:
304,296,128390,6,0,P|261:278|240:258,2,70,2|0|8,0:0|0:0|0:0,0:0:0:0:
356,220,129052,1,0,0:0:0:0:
320,136,129273,2,0,P|325:58|373:21,1,140,2|8,0:0|0:0,0:0:0:0:
459,35,129935,1,0,0:0:0:0:
404,106,130155,5,2,0:0:0:0:
240,24,130596,1,10,0:0:0:0:
68,80,131037,6,0,L|56:152,1,70,2|0,0:0|0:0,0:0:0:0:
8,228,131479,2,0,L|50:287,1,70,8|0,0:0|0:0,0:0:0:0:
96,364,131920,2,0,P|172:364|216:320,1,140,2|8,0:0|0:0,0:0:0:0:
220,232,132582,1,0,0:0:0:0:
155,167,132802,2,0,L|81:166,2,70,2|0|8,0:0|0:0|0:0,0:0:0:0:
220,103,133464,1,0,0:0:0:0:
284,167,133685,5,2,0:0:0:0:
376,8,134126,1,10,0:0:0:0:
500,140,134567,6,0,P|512:224|484:272,1,140,4|8,0:0|0:0,0:0:0:0:
396,272,135229,1,0,0:0:0:0:
332,208,135449,2,0,L|260:208,1,70,2|0,0:0|0:0,0:0:0:0:
204,280,135890,2,0,L|132:280,1,70,8|0,0:0|0:0,0:0:0:0:
72,348,136332,2,0,P|43:284|64:220,1,140,2|8,0:0|0:0,0:0:0:0:
136,168,136993,1,0,0:0:0:0:
132,76,137214,5,2,0:0:0:0:
204,244,137655,1,10,0:0:0:0:
360,340,138096,6,0,P|426:352|482:311,1,140,0|8,0:0|0:0,0:0:0:0:
406,260,138758,1,0,0:0:0:0:
314,256,138979,2,0,P|292:185|319:129,1,140,0|8,0:0|0:0,0:0:0:0:
484,48,139861,2,0,P|421:23|356:48,1,140,2|8,0:0|0:0,0:0:0:0:
300,120,140523,1,0,0:0:0:0:
282,209,140743,5,2,0:0:0:0:
220,38,141185,1,10,0:0:0:0:
40,16,141626,6,0,L|28:176,1,140,4|8,0:0|0:0,0:0:0:0:
44,244,142287,1,0,0:0:0:0:
124,200,142508,2,0,P|160:196|192:204,1,70,2|0,0:0|0:0,0:0:0:0:
252,272,142949,2,0,P|286:276|320:267,1,70,8|0,0:0|0:0,0:0:0:0:
386,206,143390,2,0,P|377:126|334:87,1,140,2|8,0:0|0:0,0:0:0:0:
246,98,144052,1,0,0:0:0:0:
284,180,144273,5,2,0:0:0:0:
453,104,144714,1,10,0:0:0:0:
292,16,145155,6,0,L|144:16,1,140,2|8,0:0|0:0,0:0:0:0:
72,56,145817,1,0,0:0:0:0:
36,140,146037,2,0,P|37:177|51:205,1,70,2|0,0:0|0:0,0:0:0:0:
24,293,146479,2,0,P|51:318|81:328,1,70,8|0,0:0|0:0,0:0:0:0:
156,280,146920,2,0,P|227:258|282:287,1,140,2|8,0:0|0:0,0:0:0:0:
320,368,147582,1,0,0:0:0:0:
460,252,148023,6,0,P|476:213|476:184,1,70,0|8,0:0|0:0,0:0:0:0:
448,100,148464,1,0,0:0:0:0:
372,152,148685,6,0,P|292:152|248:116,1,140,4|8,0:0|0:0,0:0:0:0:
237,25,149346,1,0,0:0:0:0:
164,80,149567,2,0,P|148:156|172:212,1,140,2|8,0:0|0:0,0:0:0:0:
140,296,150229,1,0,0:0:0:0:
56,260,150449,2,0,P|41:223|41:183,1,70,2|0,0:0|0:0,0:0:0:0:
16,104,150890,2,0,P|24:60|41:29,1,70,8|2,0:0|0:0,0:0:0:0:
204,104,151552,5,0,0:0:0:0:
148,176,151773,2,0,L|148:256,1,70,8|0,0:0|0:0,0:0:0:0:
176,332,152214,6,0,P|254:333|301:295,1,140,0|8,0:0|0:0,0:0:0:0:
316,208,152876,1,0,0:0:0:0:
404,224,153096,2,0,P|475:188|496:131,1,140,0|8,0:0|0:0,0:0:0:0:
348,28,153979,2,0,L|276:20,2,70,2|0|8,0:0|0:0|0:0,0:0:0:0:
384,112,154640,1,0,0:0:0:0:
360,201,154861,5,2,0:0:0:0:
194,277,155302,1,10,0:0:0:0:
210,96,155743,1,4,0:0:0:0:
256,192,155964,12,0,157508,0:0:0:0:
160,336,169420,6,0,L|96:328,1,56,8|0,0:0|0:0,0:0:0:0:
40,296,169861,2,0,P|24:236|44:188,1,112,4|0,0:0|0:0,0:0:0:0:
120,68,170743,2,0,L|236:96,1,112,0|8,0:0|0:0,0:0:0:0:
352,172,171626,2,0,L|356:248,2,56,2|0|2,0:0|0:0|0:0,0:0:0:0:
464,76,172508,2,0,L|468:0,2,56,2|0|10,0:0|0:0|0:0,0:0:0:0:
508,216,173390,6,0,L|505:271,1,56,2|0,0:0|0:0,0:0:0:0:
480,340,173832,1,0,0:0:0:0:
334,348,174273,1,0,0:0:0:0:
252,228,174714,1,8,0:0:0:0:
288,88,175155,2,0,P|306:62|332:40,2,56,2|0|2,0:0|0:0|0:0,0:0:0:0:
144,104,176037,2,0,P|130:75|124:41,2,56,2|0|10,0:0|0:0|0:0,0:0:0:0:
112,248,176920,6,0,P|80:245|48:233,1,56,4|0,0:0|0:0,0:0:0:0:
4,188,177361,1,0,0:0:0:0:
136,124,177802,2,0,P|167:121|199:109,1,56,2|0,0:0|0:0,0:0:0:0:
244,64,178243,1,8,0:0:0:0:
376,4,178685,2,0,P|389:32|395:66,1,56,2|0,0:0|0:0,0:0:0:0:
378,127,179126,1,0,0:0:0:0:
304,252,179567,2,0,P|322:278|348:300,1,56,2|0,0:0|0:0,0:0:0:0:
409,315,180008,1,8,0:0:0:0:
488,192,180449,6,0,P|508:132|500:84,2,112,2|0|0,0:0|0:0|0:0,0:0:0:0:
360,264,181773,1,8,0:0:0:0:
300,220,181993,2,0,L|184:216,2,112,2|2|2,0:0|0:0|0:0,0:0:0:0:
352,168,183096,1,0,0:0:0:0:
300,32,183537,1,10,0:0:0:0:
156,40,183979,6,0,L|152:128,1,83.9999974365235,4|0,0:0|0:0,0:0:0:0:
80,206,184861,2,0,L|154:253,1,83.9999974365235,0|0,0:0|0:0,0:0:0:0:
180,356,185743,2,0,L|258:315,1,83.9999974365235,0|0,0:0|0:0,0:0:0:0:
300,216,186626,5,2,0:0:0:0:
211,153,187067,1,2,0:0:0:0:
252,52,187508,6,0,P|292:32|332:32,1,83.9999974365235,2|0,0:0|0:0,0:0:0:0:
440,28,188390,2,0,P|477:52|497:87,1,83.9999974365235,0|0,0:0|0:0,0:0:0:0:
510,194,189273,2,0,P|507:238|487:273,1,83.9999974365235,0|0,0:0|0:0,0:0:0:0:
400,207,190155,5,2,0:0:0:0:
312,140,190596,1,2,0:0:0:0:
232,64,191037,6,0,L|148:64,1,83.9999974365235,2|0,0:0|0:0,0:0:0:0:
136,172,191920,2,0,L|136:272,1,83.9999974365235
48,192,192802,2,0,L|48:108,1,83.9999974365235
148,64,193685,5,2,0:0:0:0:
248,112,194126,1,2,0:0:0:0:
256,220,194567,5,2,0:0:0:0:
178,297,195008,1,0,0:0:0:0:
256,374,195449,1,0,0:0:0:0:
334,297,195890,1,0,0:0:0:0:
256,192,196332,12,4,198096,0:0:0:0:
312,72,198979,6,0,P|228:72|192:32,1,140,2|8,0:0|0:0,0:0:0:0:
108,68,199640,1,0,0:0:0:0:
164,140,199861,2,0,L|160:280,1,140,2|8,0:0|0:0,0:0:0:0:
84,328,200523,1,0,0:0:0:0:
8,280,200743,5,2,0:0:0:0:
8,96,201185,1,10,0:0:0:0:
172,20,201626,6,0,L|248:20,1,70,2|0,0:0|0:0,0:0:0:0:
312,80,202067,2,0,L|384:52,1,70,8|0,0:0|0:0,0:0:0:0:
464,24,202508,2,0,P|497:93|479:150,1,140,2|8,0:0|0:0,0:0:0:0:
404,204,203170,1,0,0:0:0:0:
432,292,203390,2,0,L|480:344,2,70,2|0|8,0:0|0:0|0:0,0:0:0:0:
344,272,204052,1,0,0:0:0:0:
292,348,204273,5,2,0:0:0:0:
172,212,204714,1,10,0:0:0:0:
244,44,205155,6,0,P|308:16|376:36,1,140,4|8,0:0|0:0,0:0:0:0:
434,104,205817,1,0,0:0:0:0:
464,191,206037,2,0,L|440:259,1,70,2|0,0:0|0:0,0:0:0:0:
389,333,206479,2,0,L|321:309,1,70,8|0,0:0|0:0,0:0:0:0:
269,237,206920,2,0,L|316:105,1,140,2|8,0:0|0:0,0:0:0:0:
373,33,207582,1,0,0:0:0:0:
434,104,207802,5,2,0:0:0:0:
372,276,208243,1,10,0:0:0:0:
206,356,208685,6,0,P|133:379|76:353,1,140,0|8,0:0|0:0,0:0:0:0:
68,264,209346,1,0,0:0:0:0:
91,175,209567,2,0,P|163:151|220:177,1,140,0|8,0:0|0:0,0:0:0:0:
392,232,210449,2,0,L|388:301,2,70,2|0|8,0:0|0:0|0:0,0:0:0:0:
434,152,211111,1,0,0:0:0:0:
508,204,211332,5,2,0:0:0:0:
473,26,211773,1,10,0:0:0:0:
312,108,212214,6,0,L|156:92,1,140,4|8,0:0|0:0,0:0:0:0:
108,28,212876,1,0,0:0:0:0:
56,104,213096,2,0,P|80:184|56:240,1,140,2|8,0:0|0:0,0:0:0:0:
4,304,213758,1,0,0:0:0:0:
92,324,213979,2,0,L|164:326,1,70,2|0,0:0|0:0,0:0:0:0:
212,248,214420,2,0,L|284:250,1,70,8|0,0:0|0:0,0:0:0:0:
356,304,214861,5,2,0:0:0:0:
492,184,215302,1,10,0:0:0:0:
432,12,215743,6,0,L|360:4,2,70,2|0|8,0:0|0:0|0:0,0:0:0:0:
496,76,216405,1,0,0:0:0:0:
456,156,216626,2,0,P|372:164|328:136,1,140,2|8,0:0|0:0,0:0:0:0:
248,176,217287,1,0,0:0:0:0:
204,96,217508,2,0,P|143:63|75:75,1,140,2|8,0:0|0:0,0:0:0:0:
11,140,218170,1,0,0:0:0:0:
137,273,218611,5,0,0:0:0:0:
222,239,218832,2,0,P|240:210|247:175,1,70,8|0,0:0|0:0,0:0:0:0:
204,96,219273,6,0,P|248:36|312:20,1,140,4|8,0:0|0:0,0:0:0:0:
400,36,219935,1,0,0:0:0:0:
465,100,220155,2,0,L|468:169,1,70,2|0,0:0|0:0,0:0:0:0:
448,260,220596,2,0,P|416:283|383:292,1,70,8|0,0:0|0:0,0:0:0:0:
305,250,221037,2,0,L|297:106,1,140,2|8,0:0|0:0,0:0:0:0:
308,19,221699,1,2,0:0:0:0:
136,84,222140,6,0,P|99:115|80:161,1,70,0|8,0:0|0:0,0:0:0:0:
48,216,222582,1,0,0:0:0:0:
42,308,222802,6,0,L|177:351,1,140,0|8,0:0|0:0,0:0:0:0:
240,286,223464,1,0,0:0:0:0:
320,329,223685,2,0,L|453:279,1,140,0|8,0:0|0:0,0:0:0:0:
396,106,224567,2,0,P|356:112|326:130,2,70,2|0|8,0:0|0:0|0:0,0:0:0:0:
472,158,225229,1,0,0:0:0:0:
389,194,225449,5,2,0:0:0:0:
276,52,225890,1,10,0:0:0:0:
196,216,226332,1,2,0:0:0:0:
256,192,226552,12,0,228096,0:0:0:0:
