osu file format v13

[General]
AudioFilename: gyutto shite hoshiinda .mp3
AudioLeadIn: 0
PreviewTime: 55927
Countdown: 0
SampleSet: Soft
StackLeniency: 0.4
Mode: 0
LetterboxInBreaks: 0
WidescreenStoryboard: 1

[Editor]
DistanceSpacing: 1
BeatDivisor: 4
GridSize: 4
TimelineZoom: 1

[Metadata]
Title:Gyutto Shite Hoshiinda
TitleUnicode:ぎゅっとして欲しいんだ
Artist:Yuuki Aoi
ArtistUnicode:悠木碧
Creator:Zero__wind
Version:Hard
Source:A-Channel
Tags:Fycho A Channel Ichii Tooru insert song 03 Aチャンネル 2
BeatmapID:388129
BeatmapSetID:69004

[Difficulty]
HPDrainRate:5
CircleSize:4
OverallDifficulty:6
ApproachRate:7
SliderMultiplier:1.4
SliderTickRate:1

[Events]
//Background and Video events
0,0,"Tooru.jpg",0,0
//Break Periods
2,87120,96387
2,157708,168520
//Storyboard Layer 0 (Background)
//Storyboard Layer 1 (Fail)
//Storyboard Layer 2 (Pass)
//Storyboard Layer 3 (Foreground)
//Storyboard Sound Samples
//Background Colour Transformations
3,100,163,162,255

[TimingPoints]
11038,441.176470588235,4,2,1,30,1,0
13905,-133.333333333333,4,2,1,30,0,0
26920,-100,4,2,1,40,0,0
27802,-100,4,2,1,50,0,0
28685,-100,4,2,1,60,0,0
40817,-100,4,2,1,70,0,0
41037,-100,4,2,1,50,0,0
41258,-100,4,2,1,70,0,0
41479,-100,4,2,1,50,0,0
41699,-100,4,2,1,70,0,0
41920,-100,4,2,1,50,0,0
42140,-100,4,2,1,60,0,0
42802,-133.333333333333,4,2,1,40,0,0
56037,-133.333333333333,4,2,1,50,0,0
56479,-133.333333333333,4,2,1,60,0,0
56920,-100,4,2,1,70,0,1
67508,-100,4,2,1,60,0,1
71037,-100,4,2,1,70,0,1
81626,-100,4,2,1,60,0,1
85155,-100,4,2,1,60,0,0
97287,-100,4,2,1,70,0,0
97508,-100,4,2,1,50,0,0
97729,-100,4,2,1,70,0,0
97949,-100,4,2,1,50,0,0
98170,-100,4,2,1,70,0,0
98390,-100,4,2,1,50,0,0
98611,-100,4,2,1,60,0,0
99273,-133.333333333333,4,2,1,40,0,0
126626,-133.333333333333,4,2,1,50,0,0
127067,-133.333333333333,4,2,1,60,0,0
127508,-100,4,2,1,70,0,1
138096,-100,4,2,1,60,0,1
141626,-100,4,2,1,70,0,1
152214,-100,4,2,1,60,0,1
155743,-100,4,2,1,60,0,0
169420,-133.333333333333,4,2,1,60,0,0
170302,-133.333333333333,4,2,1,50,0,0
171185,-133.333333333333,4,2,1,40,0,0
171626,-133.333333333333,4,2,1,60,0,0
172067,-133.333333333333,4,2,1,50,0,0
172949,-133.333333333333,4,2,1,40,0,0
173390,-133.333333333333,4,2,1,60,0,0
173832,-133.333333333333,4,2,1,50,0,0
174714,-133.333333333333,4,2,1,40,0,0
175155,-133.333333333333,4,2,1,60,0,0
176479,-133.333333333333,4,2,1,40,0,0
176920,-133.333333333333,4,2,1,60,0,0
177361,-133.333333333333,4,2,1,50,0,0
178243,-133.333333333333,4,2,1,40,0,0
178685,-133.333333333333,4,2,1,60,0,0
180008,-133.333333333333,4,2,1,40,0,0
180449,-133.333333333333,4,2,1,60,0,0
180890,-133.333333333333,4,2,1,50,0,0
181332,-133.333333333333,4,2,1,40,0,0
181993,-133.333333333333,4,2,1,60,0,0
182435,-133.333333333333,4,2,1,50,0,0
182876,-133.333333333333,4,2,1,40,0,0
183979,-166.666666666667,4,2,1,60,0,0
184420,-166.666666666667,4,2,1,40,0,0
186626,-166.666666666667,4,2,1,50,0,0
187949,-166.666666666667,4,2,1,40,0,0
190155,-166.666666666667,4,2,1,50,0,0
191479,-166.666666666667,4,2,1,40,0,0
193685,-166.666666666667,4,2,1,50,0,0
195008,-166.666666666667,4,2,1,40,0,0
196332,-133.333333333333,4,2,1,30,0,0
197214,-133.333333333333,4,2,1,40,0,0
197655,-133.333333333333,4,2,1,50,0,0
197876,-133.333333333333,4,2,1,60,0,0
198096,-100,4,2,1,70,0,1
208685,-100,4,2,1,60,0,1
212214,-100,4,2,1,70,0,1
222802,-100,4,2,1,60,0,1
225890,-100,4,2,1,50,0,1
226332,-100,4,2,1,40,0,0
228096,-100,4,2,1,10,0,0

[Colours]
Combo1 : 241,113,112
Combo2 : 226,145,177
Combo3 : 255,176,99
Combo4 : 87,183,179
SliderBorder : 255,255,255

[HitObjects]
256,192,11038,12,2,13464,0:0:0:0:
352,292,13905,5,0,0:0:0:0:
256,336,14126,1,0,0:0:0:0:
160,292,14346,1,0,0:0:0:0:
136,188,14567,6,0,P|132:144|144:112,2,78.7500030040742,2|0|0,0:0|0:0|0:0,0:0:0:0:
208,224,15449,2,0,L|260:232,1,52.5000020027161,2|2,0:0|0:0,0:0:0:0:
336,208,15890,1,0,0:0:0:0:
376,140,16111,1,0,0:0:0:0:
318,84,16332,6,0,P|364:61|415:70,1,105.000004005432,2|0,0:0|0:0,0:0:0:0:
472,126,16993,1,0,0:0:0:0:
433,194,17214,2,0,P|386:216|336:208,1,105.000004005432,2|0,0:0|0:0,0:0:0:0:
280,152,17876,1,0,0:0:0:0:
216,104,18096,6,0,P|176:104|136:123,2,78.7500030040742,2|0|0,0:0|0:0|0:0,0:0:0:0:
192,180,18979,2,0,L|156:228,1,52.5000020027161,2|2,0:0|0:0,0:0:0:0:
124,292,19420,1,0,0:0:0:0:
48,272,19640,1,0,0:0:0:0:
68,348,19861,6,0,P|120:372|165:360,1,105.000004005432,2|0,0:0|0:0,0:0:0:0:
220,304,20523,1,0,0:0:0:0:
292,336,20743,2,0,P|342:325|388:348,1,105.000004005432,2|0,0:0|0:0,0:0:0:0:
460,312,21405,1,0,0:0:0:0:
496,240,21626,6,0,L|496:160,2,78.7500030040742,2|0|0,0:0|0:0|0:0,0:0:0:0:
420,220,22508,2,0,L|420:160,1,52.5000020027161,2|2,0:0|0:0,0:0:0:0:
384,96,22949,1,0,0:0:0:0:
440,40,23170,1,0,0:0:0:0:
364,20,23390,6,0,P|324:44|305:97,1,105.000004005432,2|0,0:0|0:0,0:0:0:0:
256,160,24052,1,0,0:0:0:0:
207,96,24273,2,0,P|191:47|148:20,1,105.000004005432,2|0,0:0|0:0,0:0:0:0:
72,40,24935,1,0,0:0:0:0:
32,108,25155,6,0,P|32:148|20:184,2,78.7500030040742,2|0|0,0:0|0:0|0:0,0:0:0:0:
112,108,26037,2,0,L|113:138|110:163,1,52.5000020027161,2|2,0:0|0:0,0:0:0:0:
84,236,26479,1,0,0:0:0:0:
32,296,26699,6,0,P|84:316|136:296,1,105.000004005432,2|0,0:0|0:0,0:0:0:0:
212,308,27361,1,0,0:0:0:0:
276,252,27582,1,2,0:0:0:0:
340,308,27802,5,2,0:0:0:0:
512,192,28243,1,2,0:0:0:0:
340,76,28685,6,0,P|260:84|208:56,1,140,4|8,0:0|0:0,0:0:0:0:
124,72,29346,2,0,L|116:108,2,35,2|0|0,0:0|0:0|0:0,0:0:0:0:
44,44,29787,1,0,0:0:0:0:
36,128,30008,2,0,P|56:163|84:184,1,70,10|0,0:0|0:0,0:0:0:0:
80,264,30449,5,2,0:0:0:0:
152,220,30670,1,0,0:0:0:0:
78,181,30890,1,8,0:0:0:0:
80,264,31111,2,0,L|88:300,2,35,2|0|0,0:0|0:0|0:0,0:0:0:0:
152,220,31552,1,0,0:0:0:0:
224,264,31773,2,0,P|272:268|304:264,1,70,10|0,0:0|0:0,0:0:0:0:
372,196,32214,6,0,P|400:264|379:328,1,140,2|8,0:0|0:0,0:0:0:0:
484,280,32876,2,0,L|488:244,2,35,2|0|0,0:0|0:0|0:0,0:0:0:0:
456,360,33317,1,0,0:0:0:0:
381,324,33537,2,0,L|312:328,1,70,10|0,0:0|0:0,0:0:0:0:
248,272,33979,5,2,0:0:0:0:
188,331,34199,1,0,0:0:0:0:
129,272,34420,1,8,0:0:0:0:
188,212,34640,2,0,L|208:180,2,35,2|0|0,0:0|0:0|0:0,0:0:0:0:
124,156,35082,1,0,0:0:0:0:
184,96,35302,2,0,P|220:91|256:109,1,70,10|0,0:0|0:0,0:0:0:0:
124,156,35743,6,0,P|54:132|29:72,1,140,4|8,0:0|0:0,0:0:0:0:
112,72,36405,2,0,L|132:40,2,35,2|0|0,0:0|0:0|0:0,0:0:0:0:
56,136,36846,1,0,0:0:0:0:
64,220,37067,2,0,P|64:260|60:292,1,70,10|0,0:0|0:0,0:0:0:0:
92,368,37508,5,2,0:0:0:0:
168,328,37729,1,0,0:0:0:0:
236,376,37949,1,8,0:0:0:0:
304,328,38170,2,0,L|336:304,2,35,2|0|0,0:0|0:0|0:0,0:0:0:0:
236,280,38611,1,0,0:0:0:0:
200,204,38832,2,0,P|194:167|199:135,1,70,10|0,0:0|0:0,0:0:0:0:
256,45,39273,6,0,P|299:99|300:168,1,140,2|8,0:0|0:0,0:0:0:0:
316,252,39935,2,0,L|348:265,2,35,2|0|0,0:0|0:0|0:0,0:0:0:0:
236,280,40376,1,0,0:0:0:0:
160,248,40596,1,8,0:0:0:0:
134,108,40817,6,0,L|198:135,1,70,4|2,0:0|0:0,0:0:0:0:
28,200,41258,2,0,L|18:130,1,70,4|8,0:0|0:0,0:0:0:0:
160,248,41699,2,0,L|104:291,1,70,4|2,0:0|0:0,0:0:0:0:
28,200,42140,6,0,L|56:178,2,35,2|0|8,0:0|0:0|0:0,0:0:0:0:
12,284,42582,1,2,0:0:0:0:
48,360,42802,6,0,P|98:378|148:368,2,105.000004005432
12,284,43905,1,0,0:0:0:0:
68,220,44126,1,8,0:0:0:0:
152,220,44346,2,0,P|144:256|133:273,1,52.5000020027161,0|0,0:0|0:0,0:0:0:0:
68,220,44787,6,0,L|36:176,1,52.5000020027161,2|0,0:0|0:0,0:0:0:0:
116,144,45229,2,0,L|84:100,1,52.5000020027161,2|0,0:0|0:0,0:0:0:0:
168,88,45670,1,2,0:0:0:0:
168,88,45890,2,0,L|228:88,1,52.5000020027161,8|0,0:0|0:0,0:0:0:0:
296,128,46332,6,0,P|352:128|396:104,1,105.000004005432,0|0,0:0|0:0,0:0:0:0:
412,24,46993,1,2,0:0:0:0:
328,16,47214,2,0,L|276:24,1,52.5000020027161,2|0,0:0|0:0,0:0:0:0:
220,88,47655,1,8,0:0:0:0:
264,160,47876,1,0,0:0:0:0:
220,232,48096,6,0,P|176:240|136:236,2,78.7500030040742,2|2|2,0:0|0:0|0:0,0:0:0:0:
264,160,48979,1,0,0:0:0:0:
320,224,49199,2,0,P|352:236|372:240,2,52.5000020027161,0|8|0,0:0|0:0|0:0,0:0:0:0:
368,156,49861,5,0,0:0:0:0:
448,180,50082,2,0,L|464:160,2,26.2500010013581,2|2|0,0:0|0:0|0:0,0:0:0:0:
452,264,50523,2,0,P|415:312|375:325,1,105.000004005432,2|0,0:0|0:0,0:0:0:0:
296,296,51185,1,8,0:0:0:0:
224,340,51405,1,0,0:0:0:0:
160,284,51626,6,0,L|164:259,2,26.2500010013581,0|0|2,0:0|0:0|0:0,0:0:0:0:
104,348,52067,2,0,L|100:373,2,26.2500010013581,0|0|2,0:0|0:0|0:0,0:0:0:0:
44,288,52508,1,0,0:0:0:0:
8,212,52729,2,0,L|8:184,2,26.2500010013581,2|0|8,0:0|0:0|0:0,0:0:0:0:
44,288,53170,1,0,0:0:0:0:
96,220,53390,6,0,L|96:112,1,105.000004005432
64,36,54052,2,0,L|36:40,2,26.2500010013581
148,48,54493,2,0,P|184:52|208:48,1,52.5000020027161,2|8,0:0|0:0,0:0:0:0:
96,115,54935,6,0,P|148:124|196:148,1,105.000004005432,2|2,0:0|0:0,0:0:0:0:
252,208,55596,2,0,L|240:240,2,26.2500010013581,2|2|0,0:0|0:0|0:0,0:0:0:0:
277,127,56037,1,2,0:0:0:0:
340,184,56258,2,0,L|355:212,2,26.2500010013581,2|2|0,0:0|0:0|0:0,0:0:0:0:
356,100,56699,1,2,0:0:0:0:
439,225,56920,6,0,P|396:277|328:286,1,140,4|8,0:0|0:0,0:0:0:0:
236,276,57582,1,0,0:0:0:0:
144,296,57802,2,0,P|136:336|136:368,1,70,2|0,0:0|0:0,0:0:0:0:
236,276,58243,2,0,P|244:236|244:204,1,70,8|0,0:0|0:0,0:0:0:0:
232,112,58685,5,2,0:0:0:0:
160,52,58905,1,0,0:0:0:0:
88,112,59126,1,8,0:0:0:0:
16,52,59346,1,2,0:0:0:0:
16,52,59457,1,0,0:0:0:0:
16,52,59567,6,0,P|4:88|0:124,1,70,2|0,0:0|0:0,0:0:0:0:
99,204,60008,2,0,P|132:193|160:172,1,70,10|0,0:0|0:0,0:0:0:0:
8,296,60449,6,0,P|34:318|66:332,1,70,2|0,0:0|0:0,0:0:0:0:
160,312,60890,1,8,0:0:0:0:
244,268,61111,1,0,0:0:0:0:
332,296,61332,2,0,P|368:304|400:320,1,70,2|0,0:0|0:0,0:0:0:0:
248,336,61773,2,0,P|241:302|244:268,1,70,8|0,0:0|0:0,0:0:0:0:
202,185,62214,5,2,0:0:0:0:
248,104,62435,1,0,0:0:0:0:
293,183,62655,1,8,0:0:0:0:
202,185,62876,1,2,0:0:0:0:
202,185,62986,1,0,0:0:0:0:
202,185,63096,6,0,P|160:176|136:164,1,70,2|0,0:0|0:0,0:0:0:0:
293,183,63537,2,0,P|306:223|307:250,1,70,10|0,0:0|0:0,0:0:0:0:
248,104,63979,6,0,P|276:72|299:57,1,70,4|0,0:0|0:0,0:0:0:0:
392,80,64420,1,8,0:0:0:0:
484,60,64640,1,0,0:0:0:0:
403,10,64861,2,0,L|392:80,1,70,2|0,0:0|0:0,0:0:0:0:
456,152,65302,2,0,L|467:221,1,70,8|0,0:0|0:0,0:0:0:0:
436,308,65743,5,2,0:0:0:0:
352,268,65964,1,0,0:0:0:0:
257,279,66185,1,8,0:0:0:0:
184,340,66405,1,2,0:0:0:0:
184,340,66515,1,0,0:0:0:0:
184,340,66626,6,0,P|216:364|248:376,1,70,2|0,0:0|0:0,0:0:0:0:
120,264,67067,2,0,P|152:250|179:229,1,70,10|0,0:0|0:0,0:0:0:0:
64,352,67508,6,0,P|31:338|4:317,1,70,0|0,0:0|0:0,0:0:0:0:
4,214,67949,2,0,P|31:193|64:180,1,70,8|0,0:0|0:0,0:0:0:0:
152,120,68390,2,0,L|164:48,1,70,0|0,0:0|0:0,0:0:0:0:
64,16,68832,2,0,L|52:85,1,70,8|0,0:0|0:0,0:0:0:0:
152,120,69273,6,0,P|224:132|284:108,1,140,0|8,0:0|0:0,0:0:0:0:
356,48,69935,1,2,0:0:0:0:
356,48,70045,1,0,0:0:0:0:
356,48,70155,6,0,P|324:24|296:16,1,70,2|0,0:0|0:0,0:0:0:0:
436,108,70596,2,0,P|472:92|493:72,1,70,10|0,0:0|0:0,0:0:0:0:
348,156,71037,6,0,P|336:240|360:288,1,140,4|8,0:0|0:0,0:0:0:0:
448,320,71699,1,0,0:0:0:0:
488,236,71920,2,0,L|420:216,1,70,2|0,0:0|0:0,0:0:0:0:
359,287,72361,2,0,L|292:304,1,70,8|0,0:0|0:0,0:0:0:0:
212,356,72802,5,2,0:0:0:0:
164,276,73023,1,0,0:0:0:0:
180,184,73243,1,8,0:0:0:0:
256,132,73464,1,2,0:0:0:0:
256,132,73574,1,0,0:0:0:0:
256,132,73685,6,0,L|323:115,1,70,2|0,0:0|0:0,0:0:0:0:
184,40,74126,2,0,L|116:56,1,70,10|0,0:0|0:0,0:0:0:0:
48,120,74567,5,2,0:0:0:0:
88,204,74787,1,0,0:0:0:0:
52,292,75008,2,0,P|56:336|68:360,1,70,8|0,0:0|0:0,0:0:0:0:
160,356,75449,1,2,0:0:0:0:
200,272,75670,1,0,0:0:0:0:
164,184,75890,2,0,P|168:140|180:116,1,70,8|0,0:0|0:0,0:0:0:0:
144,32,76332,6,0,P|187:24|213:29,1,70,2|0,0:0|0:0,0:0:0:0:
274,100,76773,2,0,P|308:105|342:97,1,70,8|2,0:0|0:0,0:0:0:0:
358,89,77104,1,0,0:0:0:0:
372,79,77214,1,0,0:0:0:0:
308,12,77435,5,0,0:0:0:0:
274,100,77655,1,8,0:0:0:0:
288,192,77876,1,2,0:0:0:0:
360,252,78096,6,0,P|397:228|418:203,1,70,4|0,0:0|0:0,0:0:0:0:
440,120,78537,2,0,P|477:143|498:168,1,70,8|0,0:0|0:0,0:0:0:0:
496,256,78979,1,2,0:0:0:0:
456,340,79199,1,0,0:0:0:0:
368,368,79420,1,8,0:0:0:0:
276,356,79640,1,0,0:0:0:0:
224,280,79861,6,0,P|220:240|224:208,1,70,2|0,0:0|0:0,0:0:0:0:
308,128,80302,1,8,0:0:0:0:
368,228,80523,1,2,0:0:0:0:
352,236,80633,1,0,0:0:0:0:
336,244,80743,1,0,0:0:0:0:
308,128,80964,5,2,0:0:0:0:
356,48,81185,1,8,0:0:0:0:
402,128,81405,1,0,0:0:0:0:
308,128,81626,6,0,P|268:120|244:104,1,70
176,40,82067,2,0,P|157:69|152:103,1,70,8|0,0:0|0:0,0:0:0:0:
156,198,82508,2,0,P|116:190|92:174,1,70
24,110,82949,2,0,P|5:139|0:173,1,70,8|0,0:0|0:0,0:0:0:0:
64,272,83390,6,0,P|93:290|127:295,1,70,2|0,0:0|0:0,0:0:0:0:
216,268,83832,1,8,0:0:0:0:
280,336,84052,1,2,0:0:0:0:
272,352,84162,1,0,0:0:0:0:
264,368,84273,1,0,0:0:0:0:
368,352,84493,1,0,0:0:0:0:
376,336,84604,1,0,0:0:0:0:
384,320,84714,1,10,0:0:0:0:
368,216,84935,1,0,0:0:0:0:
216,268,85155,5,4,0:0:0:0:
256,192,85265,12,0,86920,0:0:0:0:
316,240,97287,6,0,P|292:268|264:284,1,70,4|2,0:0|0:0,0:0:0:0:
267,116,97729,2,0,P|303:122|331:139,1,70,4|8,0:0|0:0,0:0:0:0:
184,219,98170,2,0,P|172:185|172:152,1,70,4|2,0:0|0:0,0:0:0:0:
184,36,98611,5,8,0:0:0:0:
267,116,98832,1,8,0:0:0:0:
352,40,99052,1,0,0:0:0:0:
428,128,99273,6,0,P|468:112|492:84,2,78.7500030040742,2|0|2,0:0|0:0|0:0,0:0:0:0:
408,288,100376,1,0,0:0:0:0:
468,236,100596,1,0,0:0:0:0:
394,210,100817,6,0,P|340:192|292:196,2,105.000004005432,2|0|0,0:0|0:0|0:0,0:0:0:0:
332,356,102140,1,0,0:0:0:0:
256,376,102361,1,0,0:0:0:0:
180,356,102582,1,0,0:0:0:0:
128,296,102802,6,0,P|118:255|124:216,2,78.7500030040742,2|0|2,0:0|0:0|0:0,0:0:0:0:
196,252,103685,1,0,0:0:0:0:
236,184,103905,1,0,0:0:0:0:
216,108,104126,1,2,0:0:0:0:
148,68,104346,6,0,L|44:64,2,105.000004005432
216,108,105449,2,0,L|216:136,2,26.2500010013581,0|0|2,0:0|0:0|0:0,0:0:0:0:
280,60,105890,2,0,L|280:32,2,26.2500010013581,0|2|0,0:0|0:0|0:0,0:0:0:0:
336,120,106332,6,0,L|336:200,2,78.7500030040742,2|0|2,0:0|0:0|0:0,0:0:0:0:
464,32,107435,1,0,0:0:0:0:
504,100,107655,1,0,0:0:0:0:
464,168,107876,6,0,P|456:224|464:276,2,105.000004005432,2|0|0,0:0|0:0|0:0,0:0:0:0:
312,124,109199,1,0,0:0:0:0:
336,198,109420,1,0,0:0:0:0:
308,272,109640,1,0,0:0:0:0:
348,340,109861,6,0,P|400:352|452:344,2,105.000004005432,2|0|2,0:0|0:0|0:0,0:0:0:0:
200,284,111185,1,0,0:0:0:0:
136,332,111405,6,0,P|84:320|48:284,1,105.000004005432,0|2,0:0|0:0,0:0:0:0:
55,204,112067,2,0,L|47:180,2,26.2500010013581,0|2|0,0:0|0:0|0:0,0:0:0:0:
132,224,112508,2,0,L|124:248,2,26.2500010013581,2|0|0,0:0|0:0|0:0,0:0:0:0:
192,172,112949,1,0,0:0:0:0:
196,92,113170,1,0,0:0:0:0:
120,36,113390,6,0,P|64:24|16:32,1,105.000004005432,4|0,0:0|0:0,0:0:0:0:
8,126,114052,2,0,P|64:138|112:130,1,105.000004005432,2|0,0:0|0:0,0:0:0:0:
196,92,114714,1,8,0:0:0:0:
284,128,114935,2,0,P|313:127|344:120,1,52.5000020027161,2|0,0:0|0:0,0:0:0:0:
412,68,115376,6,0,L|400:16,1,52.5000020027161,2|0,0:0|0:0,0:0:0:0:
504,80,115817,2,0,L|492:28,2,52.5000020027161,2|0|2,0:0|0:0|0:0,0:0:0:0:
464,164,116479,1,8,0:0:0:0:
512,244,116699,1,0,0:0:0:0:
468,328,116920,6,0,P|412:316|364:324,1,105.000004005432,2|0,0:0|0:0,0:0:0:0:
284,276,117582,1,2,0:0:0:0:
204,328,117802,2,0,L|208:360,2,26.2500010013581
124,280,118243,1,8,0:0:0:0:
88,192,118464,2,0,P|88:160|92:136,1,52.5000020027161,2|0,0:0|0:0,0:0:0:0:
148,64,118905,6,0,L|200:72,1,52.5000020027161,2|0,0:0|0:0,0:0:0:0:
184,164,119346,2,0,L|210:168,2,26.2500010013581,2|0|0,0:0|0:0|0:0,0:0:0:0:
91,139,119787,1,2,0:0:0:0:
4,176,120008,2,0,P|0:201|0:228,1,52.5000020027161,8|0,0:0|0:0,0:0:0:0:
36,316,120449,6,0,L|144:352,1,105.000004005432,2|0,0:0|0:0,0:0:0:0:
128,256,121111,2,0,L|236:292,1,105.000004005432,2|0,0:0|0:0,0:0:0:0:
300,352,121773,1,8,0:0:0:0:
372,292,121993,2,0,P|380:264|384:240,1,52.5000020027161,2|0,0:0|0:0,0:0:0:0:
296,208,122435,6,0,L|246:191,1,52.5000020027161,2|0,0:0|0:0,0:0:0:0:
356,136,122876,2,0,L|306:119,1,52.5000020027161,2|0,0:0|0:0,0:0:0:0:
416,64,123317,1,2,0:0:0:0:
416,64,123537,2,0,L|465:80,1,52.5000020027161,8|0,0:0|0:0,0:0:0:0:
512,164,123979,6,0,L|508:200|508:228,1,52.5000020027161,2|0,0:0|0:0,0:0:0:0:
424,260,124420,2,0,L|428:224|428:196,1,52.5000020027161,0|0,0:0|0:0,0:0:0:0:
464,348,124861,2,0,L|428:352|400:352,1,52.5000020027161,2|0,0:0|0:0,0:0:0:0:
324,314,125302,1,8,0:0:0:0:
244,364,125523,2,0,P|228:314|244:264,1,105.000004005432,2|0,0:0|0:0,0:0:0:0:
296,180,126185,5,2,0:0:0:0:
360,112,126405,2,0,L|368:76,2,26.2500010013581,2|2|0,0:0|0:0|0:0,0:0:0:0:
264,68,126846,2,0,L|272:32,2,26.2500010013581,0|0|2,0:0|0:0|0:0,0:0:0:0:
188,140,127287,1,0,0:0:0:0:
76,28,127508,6,0,P|28:84|16:148,1,140,4|8,0:0|0:0,0:0:0:0:
32,240,128170,1,0,0:0:0:0:
48,248,128280,1,0,0:0:0:0:
68,256,128390,2,0,P|103:256|137:245,1,70,2|0,0:0|0:0,0:0:0:0:
188,140,128832,2,0,P|218:162|238:187,1,70,8|0,0:0|0:0,0:0:0:0:
280,272,129273,5,2,0:0:0:0:
360,320,129493,2,0,P|398:317|432:308,1,70,0|8,0:0|0:0,0:0:0:0:
468,224,129935,1,2,0:0:0:0:
476,208,130045,1,0,0:0:0:0:
484,192,130155,6,0,P|492:152|492:120,1,70,2|0,0:0|0:0,0:0:0:0:
352,104,130596,2,0,P|344:69|343:34,1,70,10|0,0:0|0:0,0:0:0:0:
212,120,131037,6,0,P|220:160|220:192,1,70,2|0,0:0|0:0,0:0:0:0:
168,268,131479,1,8,0:0:0:0:
76,276,131699,1,0,0:0:0:0:
64,264,131810,1,0,0:0:0:0:
56,248,131920,2,0,P|48:208|48:176,1,70,2|0,0:0|0:0,0:0:0:0:
68,88,132361,2,0,L|136:68,1,70,8|0,0:0|0:0,0:0:0:0:
212,120,132802,5,2,0:0:0:0:
272,48,133023,2,0,P|312:48|344:52,1,70,0|8,0:0|0:0,0:0:0:0:
416,108,133464,1,2,0:0:0:0:
424,124,133574,1,0,0:0:0:0:
432,140,133685,6,0,L|432:212,1,70,2|0,0:0|0:0,0:0:0:0:
320,296,134126,2,0,L|320:226,1,70,10|0,0:0|0:0,0:0:0:0:
212,120,134567,6,0,P|252:112|284:112,2,70,4|0|8,0:0|0:0|0:0,0:0:0:0:
144,184,135229,1,0,0:0:0:0:
145,201,135339,1,0,0:0:0:0:
148,218,135449,2,0,P|160:250|180:282,1,70,2|0,0:0|0:0,0:0:0:0:
120,356,135890,2,0,P|88:341|52:333,1,70,8|0,0:0|0:0,0:0:0:0:
12,248,136332,5,2,0:0:0:0:
56,168,136552,1,0,0:0:0:0:
12,88,136773,1,8,0:0:0:0:
64,12,136993,1,2,0:0:0:0:
80,16,137104,1,0,0:0:0:0:
96,24,137214,6,0,P|132:44|152:64,1,70,2|0,0:0|0:0,0:0:0:0:
264,104,137655,2,0,P|294:87|320:63,1,70,10|0,0:0|0:0,0:0:0:0:
432,28,138096,6,0,L|448:96,1,70
504,172,138537,1,8,0:0:0:0:
504,172,138758,1,0,0:0:0:0:
440,240,138979,2,0,L|368:244,1,70
288,200,139420,1,8,0:0:0:0:
288,200,139640,1,0,0:0:0:0:
216,260,139861,6,0,P|208:304|208:336,1,70,0|0,0:0|0:0,0:0:0:0:
212,346,140192,1,0,0:0:0:0:
220,361,140302,1,10,0:0:0:0:
296,308,140523,1,2,0:0:0:0:
312,316,140633,1,0,0:0:0:0:
328,324,140743,6,0,L|397:320,1,70,2|0,0:0|0:0,0:0:0:0:
216,260,141185,2,0,L|146:263,1,70,10|0,0:0|0:0,0:0:0:0:
299,150,141626,6,0,L|438:142,1,140,4|8,0:0|0:0,0:0:0:0:
488,64,142287,1,0,0:0:0:0:
483,48,142398,1,0,0:0:0:0:
474,32,142508,2,0,P|445:16|409:10,1,70,2|0,0:0|0:0,0:0:0:0:
331,65,142949,2,0,P|295:58|265:42,1,70,8|0,0:0|0:0,0:0:0:0:
172,32,143390,5,2,0:0:0:0:
112,104,143611,2,0,P|115:148|120:180,1,70,0|8,0:0|0:0,0:0:0:0:
192,232,144052,1,2,0:0:0:0:
208,240,144162,1,0,0:0:0:0:
224,243,144273,6,0,P|264:244|300:236,1,70,2|0,0:0|0:0,0:0:0:0:
280,116,144714,2,0,P|240:115|204:123,1,70,10|0,0:0|0:0,0:0:0:0:
118,173,145155,5,2,0:0:0:0:
32,144,145376,2,0,P|30:102|32:72,1,70,0|8,0:0|0:0,0:0:0:0:
108,16,145817,1,0,0:0:0:0:
124,24,145927,1,0,0:0:0:0:
140,32,146037,2,0,P|142:74|140:104,1,70,2|0,0:0|0:0,0:0:0:0:
177,188,146479,2,0,P|209:202|243:207,1,70,8|0,0:0|0:0,0:0:0:0:
328,168,146920,5,2,0:0:0:0:
404,220,147140,1,0,0:0:0:0:
412,236,147251,1,0,0:0:0:0:
420,252,147361,1,8,0:0:0:0:
372,332,147582,2,0,P|333:332|300:324,1,70
288,316,147912,1,2,0:0:0:0:
276,304,148023,5,0,0:0:0:0:
328,168,148243,1,8,0:0:0:0:
196,204,148464,1,2,0:0:0:0:
239,47,148685,6,0,P|266:25|299:12,1,70,4|0,0:0|0:0,0:0:0:0:
172,112,149126,2,0,P|139:100|112:78,1,70,8|0,0:0|0:0,0:0:0:0:
104,64,149457,1,0,0:0:0:0:
100,48,149567,2,0,L|28:52,1,70,2|0,0:0|0:0,0:0:0:0:
8,144,150008,1,8,0:0:0:0:
80,204,150229,1,0,0:0:0:0:
12,296,150449,6,0,P|49:316|76:321,1,70,2|0,0:0|0:0,0:0:0:0:
236,296,150890,2,0,P|199:316|172:321,1,70,8|2,0:0|0:0,0:0:0:0:
160,308,151221,1,0,0:0:0:0:
150,292,151332,1,0,0:0:0:0:
152,200,151552,5,0,0:0:0:0:
228,144,151773,1,8,0:0:0:0:
312,184,151993,1,0,0:0:0:0:
352,268,152214,6,0,L|420:292,1,70
488,228,152655,2,0,L|421:204,1,70,8|0,0:0|0:0,0:0:0:0:
420,112,153096,2,0,L|488:136,2,70,0|0|8,0:0|0:0|0:0,0:0:0:0:
360,40,153758,1,0,0:0:0:0:
268,48,153979,6,0,P|254:88|256:136,1,70,2|0,0:0|0:0,0:0:0:0:
272,208,154420,1,8,0:0:0:0:
216,284,154640,1,2,0:0:0:0:
200,292,154751,1,0,0:0:0:0:
184,300,154861,1,0,0:0:0:0:
136,208,155082,1,2,0:0:0:0:
119,202,155192,1,0,0:0:0:0:
102,196,155302,1,8,0:0:0:0:
88,300,155523,1,0,0:0:0:0:
272,208,155743,5,4,0:0:0:0:
256,192,155854,12,0,157508,0:0:0:0:
336,124,169420,5,8,0:0:0:0:
280,36,169640,1,0,0:0:0:0:
176,24,169861,2,0,L|148:24,2,26.2500010013581,4|2|0,0:0|0:0|0:0,0:0:0:0:
196,108,170302,2,0,L|224:108,2,26.2500010013581,0|2|0,0:0|0:0|0:0,0:0:0:0:
108,116,170743,1,0,0:0:0:0:
44,176,170964,1,0,0:0:0:0:
36,264,171185,2,0,P|52:292|72:312,1,52.5000020027161,8|0,0:0|0:0,0:0:0:0:
144,344,171626,6,0,L|144:372,2,26.2500010013581,2|2|0,0:0|0:0|0:0,0:0:0:0:
212,288,172067,2,0,L|212:260,2,26.2500010013581,0|2|0,0:0|0:0|0:0,0:0:0:0:
276,348,172508,1,0,0:0:0:0:
352,304,172729,1,0,0:0:0:0:
428,348,172949,2,0,P|450:330|464:308,1,52.5000020027161,8|0,0:0|0:0,0:0:0:0:
428,230,173390,6,0,L|400:230,2,26.2500010013581,2|2|0,0:0|0:0|0:0,0:0:0:0:
464,150,173832,2,0,L|492:150,2,26.2500010013581,0|2|0,0:0|0:0|0:0,0:0:0:0:
376,146,174273,1,0,0:0:0:0:
296,112,174493,1,0,0:0:0:0:
250,36,174714,1,8,0:0:0:0:
338,35,174935,1,0,0:0:0:0:
296,112,175155,6,0,L|296:140,2,26.2500010013581,2|2|0,0:0|0:0|0:0,0:0:0:0:
208,112,175596,2,0,L|208:192,2,78.7500030040742,2|2|2,0:0|0:0|0:0,0:0:0:0:
132,64,176479,1,8,0:0:0:0:
68,124,176699,1,0,0:0:0:0:
124,192,176920,6,0,L|124:248,1,52.5000020027161,4|0,0:0|0:0,0:0:0:0:
48,288,177361,2,0,L|48:340,1,52.5000020027161
132,364,177802,1,2,0:0:0:0:
208,320,178023,1,0,0:0:0:0:
284,364,178243,1,8,0:0:0:0:
360,320,178464,1,0,0:0:0:0:
324,240,178685,6,0,L|324:188,1,52.5000020027161,2|0,0:0|0:0,0:0:0:0:
412,192,179126,2,0,L|412:136,1,52.5000020027161
368,64,179567,1,2,0:0:0:0:
284,84,179787,1,0,0:0:0:0:
228,152,180008,1,8,0:0:0:0:
228,240,180229,1,0,0:0:0:0:
148,200,180449,6,0,P|135:145|150:100,2,105.000004005432,2|0|0,0:0|0:0|0:0,0:0:0:0:
148,200,181773,1,8,0:0:0:0:
104,276,181993,6,0,L|112:304,2,26.2500010013581,2|2|0,0:0|0:0|0:0,0:0:0:0:
32,224,182435,2,0,L|11:244,2,26.2500010013581,0|2|0,0:0|0:0|0:0,0:0:0:0:
44,136,182876,2,0,L|15:128,2,26.2500010013581,0|2|0,0:0|0:0|0:0,0:0:0:0:
72,52,183317,1,0,0:0:0:0:
84,40,183427,1,2,0:0:0:0:
96,28,183537,1,8,0:0:0:0:
152,96,183758,1,0,0:0:0:0:
232,28,183979,6,0,P|276:28|316:40,1,83.9999974365235,4|0,0:0|0:0,0:0:0:0:
344,68,184640,1,0,0:0:0:0:
364,104,184861,2,0,L|360:188,1,83.9999974365235
340,224,185523,1,0,0:0:0:0:
328,264,185743,2,0,P|368:276|408:268,1,83.9999974365235
496,176,186626,5,2,0:0:0:0:
456,56,187067,1,2,0:0:0:0:
336,16,187508,6,0,P|292:12|252:16,1,83.9999974365235,2|0,0:0|0:0,0:0:0:0:
212,28,188170,1,0,0:0:0:0:
180,56,188390,2,0,P|184:100|212:140,1,83.9999974365235
228,168,189052,1,0,0:0:0:0:
216,208,189273,2,0,L|132:216,1,83.9999974365235
16,260,190155,5,2,0:0:0:0:
0,136,190596,1,2,0:0:0:0:
64,28,191037,6,0,L|160:40,1,83.9999974365235,2|0,0:0|0:0,0:0:0:0:
216,144,191920,2,0,L|132:133,1,83.9999974365235,0|0,0:0|0:0,0:0:0:0:
232,56,192802,2,0,P|273:74|296:104,1,83.9999974365235
320,204,193685,5,2,0:0:0:0:
272,292,194126,1,2,0:0:0:0:
340,368,194567,5,2,0:0:0:0:
340,368,195008,1,0,0:0:0:0:
340,368,195449,1,0,0:0:0:0:
340,368,195890,1,0,0:0:0:0:
472,320,196332,5,2,0:0:0:0:
472,320,196552,1,2,0:0:0:0:
472,320,196773,1,2,0:0:0:0:
340,368,196993,1,8,0:0:0:0:
364,264,197214,5,2,0:0:0:0:
368,244,197324,1,8,0:0:0:0:
372,224,197435,1,8,0:0:0:0:
472,320,197655,1,8,0:0:0:0:
340,368,197876,1,8,0:0:0:0:
204,332,198096,6,0,P|186:301|180:268,1,70,4|0,0:0|0:0,0:0:0:0:
181,174,198537,1,8,0:0:0:0:
232,96,198758,1,0,0:0:0:0:
248,88,198868,1,0,0:0:0:0:
264,84,198979,1,2,0:0:0:0:
276,176,199199,2,0,L|284:212,2,35,0|0|8,0:0|0:0|0:0,0:0:0:0:
181,174,199640,1,0,0:0:0:0:
96,136,199861,6,0,P|75:101|68:72,2,70,2|0|8,0:0|0:0|0:0,0:0:0:0:
116,228,200523,1,2,0:0:0:0:
112,244,200633,1,0,0:0:0:0:
104,260,200743,6,0,P|83:295|76:324,1,70,2|0,0:0|0:0,0:0:0:0:
28,204,201185,2,0,P|18:170|0:140,1,70,10|0,0:0|0:0,0:0:0:0:
56,40,201626,5,2,0:0:0:0:
136,88,201846,1,0,0:0:0:0:
216,40,202067,1,8,0:0:0:0:
296,88,202287,2,0,L|332:80,2,35,0|0|2,0:0|0:0|0:0,0:0:0:0:
236,160,202729,1,0,0:0:0:0:
240,176,202839,1,0,0:0:0:0:
248,192,202949,2,0,L|304:236,1,70,8|0,0:0|0:0,0:0:0:0:
396,216,203390,5,2,0:0:0:0:
456,288,203611,1,0,0:0:0:0:
396,360,203832,1,8,0:0:0:0:
304,336,204052,1,2,0:0:0:0:
288,328,204162,1,0,0:0:0:0:
272,324,204273,6,0,P|232:324|200:332,1,70,2|0,0:0|0:0,0:0:0:0:
76,272,204714,2,0,P|106:255|140:247,1,70,10|0,0:0|0:0,0:0:0:0:
272,192,205155,6,0,P|237:172|205:162,1,70,4|0,0:0|0:0,0:0:0:0:
116,152,205596,1,8,0:0:0:0:
32,196,205817,1,0,0:0:0:0:
24,180,205927,1,0,0:0:0:0:
20,164,206037,1,2,0:0:0:0:
58,78,206258,2,0,L|70:46,2,35,0|0|8,0:0|0:0|0:0,0:0:0:0:
116,152,206699,1,0,0:0:0:0:
204,120,206920,6,0,P|240:92|252:72,2,70,2|0|8,0:0|0:0|0:0,0:0:0:0:
256,200,207582,1,2,0:0:0:0:
272,208,207692,1,0,0:0:0:0:
288,216,207802,6,0,P|331:218|360:228,1,70,2|0,0:0|0:0,0:0:0:0:
460,172,208243,2,0,P|479:141|484:104,1,70,10|0,0:0|0:0,0:0:0:0:
411,19,208685,5,0,0:0:0:0:
388,108,208905,1,0,0:0:0:0:
300,80,209126,1,8,0:0:0:0:
388,108,209346,1,0,0:0:0:0:
320,172,209567,1,0,0:0:0:0:
380,244,209787,1,0,0:0:0:0:
316,312,210008,1,8,0:0:0:0:
380,244,210229,1,0,0:0:0:0:
320,172,210449,6,0,P|284:156|248:152,1,70,0|2,0:0|0:0,0:0:0:0:
236,156,210780,1,0,0:0:0:0:
220,164,210890,1,10,0:0:0:0:
152,228,211111,1,2,0:0:0:0:
156,244,211221,1,0,0:0:0:0:
164,260,211332,6,0,L|180:292,2,35,2|0|0,0:0|0:0|0:0,0:0:0:0:
100,136,211773,1,10,0:0:0:0:
184,24,211993,1,2,0:0:0:0:
200,20,212104,1,0,0:0:0:0:
216,16,212214,6,0,L|288:16,1,70,4|0,0:0|0:0,0:0:0:0:
364,68,212655,1,8,0:0:0:0:
396,156,212876,1,0,0:0:0:0:
404,172,212986,1,0,0:0:0:0:
416,184,213096,1,2,0:0:0:0:
508,196,213317,2,0,L|512:160,2,35,0|0|8,0:0|0:0|0:0,0:0:0:0:
452,272,213758,1,0,0:0:0:0:
432,364,213979,6,0,P|472:364|502:353,1,70,2|0,0:0|0:0,0:0:0:0:
452,272,214420,2,0,P|412:272|382:283,1,70,8|2,0:0|0:0,0:0:0:0:
368,288,214751,1,0,0:0:0:0:
352,296,214861,6,0,L|288:264,1,70,2|0,0:0|0:0,0:0:0:0:
216,144,215302,2,0,L|288:144,1,70,10|0,0:0|0:0,0:0:0:0:
168,248,215743,5,2,0:0:0:0:
80,220,215964,1,0,0:0:0:0:
40,136,216185,1,8,0:0:0:0:
72,48,216405,2,0,L|88:16,2,35,0|0|2,0:0|0:0|0:0,0:0:0:0:
164,58,216846,1,0,0:0:0:0:
172,74,216957,1,0,0:0:0:0:
176,90,217067,2,0,L|148:154,1,70,8|0,0:0|0:0,0:0:0:0:
80,220,217508,5,2,0:0:0:0:
12,284,217729,1,0,0:0:0:0:
80,348,217949,1,8,0:0:0:0:
148,284,218170,2,0,L|183:284,2,35,2|0|0,0:0|0:0|0:0,0:0:0:0:
256,224,218611,5,0,0:0:0:0:
328,284,218832,1,8,0:0:0:0:
256,344,219052,1,2,0:0:0:0:
256,224,219273,6,0,P|277:193|304:176,1,70,4|0,0:0|0:0,0:0:0:0:
444,172,219714,2,0,P|431:136|410:113,1,70,8|0,0:0|0:0,0:0:0:0:
396,104,220045,1,0,0:0:0:0:
380,100,220155,1,2,0:0:0:0:
304,48,220376,2,0,L|268:52,2,35,0|0|8,0:0|0:0|0:0,0:0:0:0:
392,8,220817,1,0,0:0:0:0:
396,104,221037,6,0,L|404:176,1,70,2|0,0:0|0:0,0:0:0:0:
344,276,221479,1,8,0:0:0:0:
216,220,221699,2,0,P|190:190|180:160,1,70,2|0,0:0|0:0,0:0:0:0:
176,144,222030,1,0,0:0:0:0:
177,127,222140,5,0,0:0:0:0:
236,56,222361,1,8,0:0:0:0:
268,144,222582,1,0,0:0:0:0:
177,127,222802,6,0,L|108:112,1,70
32,56,223243,2,0,P|60:32|91:20,1,70,8|0,0:0|0:0,0:0:0:0:
108,112,223685,2,0,L|93:181,1,70
37,257,224126,2,0,P|13:229|1:198,1,70,8|0,0:0|0:0,0:0:0:0:
92,180,224567,6,0,L|161:195,2,70,2|0|8,0:0|0:0|0:0,0:0:0:0:
124,280,225229,1,2,0:0:0:0:
136,292,225339,1,0,0:0:0:0:
152,300,225449,1,0,0:0:0:0:
256,284,225670,1,2,0:0:0:0:
273,283,225780,1,0,0:0:0:0:
288,290,225890,1,8,0:0:0:0:
224,376,226111,1,0,0:0:0:0:
152,300,226332,5,2,0:0:0:0:
256,192,226442,12,0,228096,0:0:0:0:
