osu file format v13

[General]
AudioFilename: gyutto shite hoshiinda .mp3
AudioLeadIn: 0
PreviewTime: 55927
Countdown: 0
SampleSet: None
StackLeniency: 0.7
Mode: 0
LetterboxInBreaks: 0
WidescreenStoryboard: 1

[Editor]
DistanceSpacing: 0.8
BeatDivisor: 4
GridSize: 4
TimelineZoom: 1

[Metadata]
Title:Gyutto Shite Hoshiinda
TitleUnicode:ぎゅっとして欲しいんだ
Artist:Yuuki Aoi
ArtistUnicode:悠木碧
Creator:Zero__wind
Version:Easy
Source:A-Channel
Tags:Fycho A Channel Ichii Tooru insert song 03 Aチャンネル 2
BeatmapID:199296
BeatmapSetID:69004

[Difficulty]
HPDrainRate:2
CircleSize:3
OverallDifficulty:2
ApproachRate:3
SliderMultiplier:1
SliderTickRate:1

[Events]
//Background and Video events
0,0,"Tooru.jpg",0,0
//Break Periods
2,28885,39377
2,87120,95847
2,157708,167980
//Storyboard Layer 0 (Background)
//Storyboard Layer 1 (Fail)
//Storyboard Layer 2 (Pass)
//Storyboard Layer 3 (Foreground)
//Storyboard Sound Samples
//Background Colour Transformations
3,100,163,162,255

[TimingPoints]
11038,441.176470588235,4,2,1,30,1,0
26920,-100,4,2,1,40,0,0
27802,-100,4,2,1,50,0,0
28685,-100,4,2,1,60,0,0
42802,-100,4,2,1,40,0,0
56037,-100,4,2,1,50,0,0
56479,-100,4,2,1,60,0,0
56920,-100,4,2,1,70,0,1
67508,-100,4,2,1,60,0,1
71037,-100,4,2,1,70,0,1
81626,-100,4,2,1,60,0,1
85155,-100,4,2,1,60,0,0
99273,-100,4,2,1,40,0,0
126626,-100,4,2,1,50,0,0
127067,-100,4,2,1,60,0,0
127508,-100,4,2,1,70,0,1
138096,-100,4,2,1,60,0,1
141626,-100,4,2,1,70,0,1
152214,-100,4,2,1,60,0,1
155743,-100,4,2,1,60,0,0
171185,-100,4,2,1,40,0,0
171626,-100,4,2,1,60,0,0
172949,-100,4,2,1,40,0,0
173390,-100,4,2,1,60,0,0
174714,-100,4,2,1,40,0,0
175155,-100,4,2,1,60,0,0
176479,-100,4,2,1,40,0,0
176920,-100,4,2,1,60,0,0
181773,-100,4,2,1,40,0,0
181993,-100,4,2,1,60,0,0
182655,-100,4,2,1,40,0,0
183979,-125,4,2,1,60,0,0
184420,-125,4,2,1,40,0,0
186626,-125,4,2,1,50,0,0
187949,-125,4,2,1,40,0,0
190155,-125,4,2,1,50,0,0
191479,-125,4,2,1,40,0,0
193685,-125,4,2,1,50,0,0
195008,-125,4,2,1,40,0,0
197214,-125,4,2,1,50,0,0
197655,-125,4,2,1,60,0,0
198096,-100,4,2,1,70,0,1
208685,-100,4,2,1,60,0,1
212214,-100,4,2,1,70,0,1
222802,-100,4,2,1,60,0,1
226332,-100,4,2,1,40,0,0
228096,-100,4,2,1,10,0,0

[Colours]
Combo1 : 241,113,112
Combo2 : 226,145,177
Combo3 : 255,176,99
Combo4 : 87,183,179
SliderBorder : 255,255,255

[HitObjects]
248,312,13905,6,0,L|300:304,2,50
208,312,14567,2,0,P|160:264|164:184,1,150,2|0,0:0|0:0,0:0:0:0:
208,116,15670,2,0,L|260:108,1,50
296,104,16111,2,0,P|368:93|416:28,2,150,2|0|0,0:0|0:0|0:0,0:0:0:0:
264,128,17655,2,0,P|251:151|248:176,1,50
252,216,18096,6,0,L|344:280,1,100,2|0,0:0|0:0,0:0:0:0:
376,344,18979,2,0,P|413:298|416:259,1,100
408,220,19640,2,0,L|284:134,2,150,2|0|0,0:0|0:0|0:0,0:0:0:0:
448,216,21185,2,0,P|476:198|496:176,1,50
504,152,21626,6,0,P|512:76|475:15,1,150,2|0,0:0|0:0,0:0:0:0:
396,12,22729,2,0,L|348:24,1,50
316,48,23170,2,0,P|256:68|176:28,2,150,2|0|0,0:0|0:0|0:0,0:0:0:0:
344,76,24714,2,0,P|348:104|348:128,1,50
336,164,25155,6,0,L|192:204,1,150,2|0,0:0|0:0,0:0:0:0:
152,196,26037,1,0,0:0:0:0:
76,164,26479,1,0,0:0:0:0:
76,164,26699,2,0,P|51:240|80:304,1,150,2|0,0:0|0:0,0:0:0:0:
144,348,27802,5,2,0:0:0:0:
224,328,28243,1,2,0:0:0:0:
256,252,28685,1,4,0:0:0:0:
256,76,40817,6,0,P|312:76|356:96,2,100,4|4|4,0:0|0:0|0:0,0:0:0:0:
180,104,42140,2,0,L|176:156,2,50,2|8|0,0:0|0:0|0:0,0:0:0:0:
164,68,42802,6,0,P|92:84|48:148,1,150,2|0,0:0|0:0,0:0:0:0:
72,224,43905,2,0,L|108:260,1,50,0|8,0:0|0:0,0:0:0:0:
146,272,44346,2,0,P|215:263|277:308,1,150,2|0,0:0|0:0,0:0:0:0:
360,304,45449,1,0,0:0:0:0:
360,304,45670,2,0,P|392:256|400:212,1,100
392,176,46332,6,0,P|373:121|377:76,1,100,2|0,0:0|0:0,0:0:0:0:
428,16,47214,1,0,0:0:0:0:
504,52,47655,1,8,0:0:0:0:
504,52,47876,2,0,L|508:204,1,150,2|0,0:0|0:0,0:0:0:0:
468,272,48979,1,0,0:0:0:0:
468,272,49199,2,0,P|420:276|372:256,1,100
340,236,49861,6,0,L|192:260,1,150,2|0,0:0|0:0,0:0:0:0:
136,320,50964,2,0,L|84:316,1,50,0|8,0:0|0:0,0:0:0:0:
45,320,51405,2,0,P|17:244|45:186,1,150,2|0,0:0|0:0,0:0:0:0:
112,136,52508,1,0,0:0:0:0:
112,136,52729,2,0,P|164:136|201:109,1,100
224,76,53390,6,0,L|244:184,2,100,2|0|0,0:0|0:0|0:0,0:0:0:0:
284,24,54714,1,8,0:0:0:0:
284,24,54935,2,0,P|340:76|348:146,1,150,2|2,0:0|0:0,0:0:0:0:
320,220,56037,5,2,0:0:0:0:
248,184,56479,1,2,0:0:0:0:
192,240,56920,6,0,L|192:344,1,100,4|8,0:0|0:0,0:0:0:0:
268,312,57802,2,0,P|311:329|363:323,1,100,2|8,0:0|0:0,0:0:0:0:
424,272,58685,2,0,L|464:128,1,150,2|0,0:0|0:0,0:0:0:0:
456,88,59567,1,2,0:0:0:0:
388,40,60008,1,10,0:0:0:0:
305,28,60449,6,0,P|225:40|181:96,1,150,2|0,0:0|0:0,0:0:0:0:
185,132,61332,2,0,L|209:232,1,100,2|8,0:0|0:0,0:0:0:0:
280,192,62214,2,0,L|308:300,1,100,2|8,0:0|0:0,0:0:0:0:
251,352,63096,1,2,0:0:0:0:
172,372,63537,1,10,0:0:0:0:
96,340,63979,6,0,B|52:292|52:292|52:208,1,150,4|0,0:0|0:0,0:0:0:0:
52,168,64861,1,2,0:0:0:0:
112,112,65302,1,8,0:0:0:0:
172,168,65743,2,0,L|172:220,2,50,2|0|8,0:0|0:0|0:0,0:0:0:0:
224,104,66626,1,2,0:0:0:0:
280,164,67067,1,10,0:0:0:0:
256,244,67508,6,0,P|256:300|272:344,1,100,0|8,0:0|0:0,0:0:0:0:
352,324,68390,2,0,P|352:268|336:224,1,100,0|8,0:0|0:0,0:0:0:0:
306,152,69273,2,0,P|306:78|358:25,1,150
396,20,70155,1,2,0:0:0:0:
479,26,70596,1,10,0:0:0:0:
436,96,71037,6,0,L|452:248,1,150,4|0,0:0|0:0,0:0:0:0:
468,283,71920,2,0,P|416:307|372:311,1,100,2|8,0:0|0:0,0:0:0:0:
296,284,72802,2,0,P|246:290|201:312,1,100,2|8,0:0|0:0,0:0:0:0:
128,348,73685,1,2,0:0:0:0:
60,300,74126,1,10,0:0:0:0:
24,224,74567,6,0,L|32:124,1,100,2|8,0:0|0:0,0:0:0:0:
113,107,75449,2,0,L|105:207,1,100,2|8,0:0|0:0,0:0:0:0:
143,280,76332,2,0,P|217:297|283:264,1,150,2|0,0:0|0:0,0:0:0:0:
303,185,77435,2,0,L|259:157,2,50,0|8|0,0:0|0:0|0:0,0:0:0:0:
344,188,78096,6,0,P|393:193|448:168,2,100,4|8|2,0:0|0:0|0:0,0:0:0:0:
328,105,79420,1,8,0:0:0:0:
368,32,79861,2,0,L|468:20,1,100,2|8,0:0|0:0,0:0:0:0:
500,44,80523,2,0,P|512:124|484:188,1,150,2|8,0:0|0:0,0:0:0:0:
448,256,81626,5,0,0:0:0:0:
372,232,82067,1,8,0:0:0:0:
320,296,82508,1,0,0:0:0:0:
244,272,82949,1,8,0:0:0:0:
204,200,83390,2,0,P|192:124|232:68,1,150,2|0,0:0|0:0,0:0:0:0:
268,52,84273,5,2,0:0:0:0:
340,92,84714,1,10,0:0:0:0:
288,156,85155,1,4,0:0:0:0:
256,192,85376,12,0,86920,0:0:0:0:
100,172,97287,6,0,L|116:272,2,100,4|4|4,0:0|0:0|0:0,0:0:0:0:
128,96,98611,1,8,0:0:0:0:
128,96,98832,1,8,0:0:0:0:
204,72,99273,6,0,P|272:100|344:76,1,150,2|0,0:0|0:0,0:0:0:0:
424,72,100376,2,0,L|432:124,1,50
440,160,100817,2,0,P|455:272|395:320,1,200,2|0,0:0|0:0,0:0:0:0:
312,328,102140,2,0,L|260:336,1,50
184,324,102802,5,2,0:0:0:0:
76,208,103685,2,0,L|72:104,1,100,0|2,0:0|0:0,0:0:0:0:
80,68,104346,2,0,P|146:42|216:70,2,150,0|2|0,0:0|0:0|0:0,0:0:0:0:
40,69,105890,1,0,0:0:0:0:
4,144,106332,6,0,P|48:232|13:322,1,200,2|0,0:0|0:0,0:0:0:0:
88,360,107655,1,0,0:0:0:0:
88,360,107876,2,0,P|180:328|272:368,1,200,2|0,0:0|0:0,0:0:0:0:
350,348,109199,2,0,P|402:312|418:280,1,100
420,240,109861,6,0,L|384:144,2,100,2|0|0,0:0|0:0|0:0,0:0:0:0:
340,264,111185,1,0,0:0:0:0:
340,264,111405,2,0,P|228:281|168:228,1,200,2|0,0:0|0:0,0:0:0:0:
116,168,112729,2,0,L|64:176,2,50,0|0|0,0:0|0:0|0:0,0:0:0:0:
120,128,113390,6,0,P|147:71|225:46,1,150,4|0,0:0|0:0,0:0:0:0:
304,36,114493,2,0,P|301:68|291:94,1,50,0|8,0:0|0:0,0:0:0:0:
276,120,114935,2,0,P|255:199|288:254,1,150,2|0,0:0|0:0,0:0:0:0:
364,280,116037,1,0,0:0:0:0:
364,280,116258,2,0,L|408:252,1,50,0|8,0:0|0:0,0:0:0:0:
424,172,116920,6,0,P|476:208|488:241,1,100,2|0,0:0|0:0,0:0:0:0:
476,320,117802,2,0,P|440:349|388:364,1,100,0|8,0:0|0:0,0:0:0:0:
352,348,118464,2,0,B|276:332|276:332|200:348,1,150,2|0,0:0|0:0,0:0:0:0:
124,340,119567,1,0,0:0:0:0:
124,340,119787,2,0,P|100:288|104:244,1,100
114,209,120449,6,0,P|200:151|293:173,1,200,2|0,0:0|0:0,0:0:0:0:
340,236,121773,1,8,0:0:0:0:
340,236,121993,2,0,P|370:163|340:104,1,150,2|0,0:0|0:0,0:0:0:0:
272,60,123096,1,0,0:0:0:0:
272,60,123317,2,0,L|216:52,1,50,0|8,0:0|0:0,0:0:0:0:
140,48,123979,5,2,0:0:0:0:
68,88,124420,1,0,0:0:0:0:
80,168,124861,1,0,0:0:0:0:
156,196,125302,1,8,0:0:0:0:
156,196,125523,2,0,P|226:161|293:179,1,150,2|2,0:0|0:0,0:0:0:0:
364,216,126626,5,2,0:0:0:0:
412,152,127067,1,2,0:0:0:0:
392,76,127508,6,0,L|292:88,1,100,4|8,0:0|0:0,0:0:0:0:
215,64,128390,2,0,L|115:52,1,100,2|8,0:0|0:0,0:0:0:0:
40,84,129273,2,0,P|24:136|28:180,1,100,2|8,0:0|0:0,0:0:0:0:
68,252,130155,1,2,0:0:0:0:
148,228,130596,1,10,0:0:0:0:
204,288,131037,6,0,P|260:276|296:248,1,100,2|8,0:0|0:0,0:0:0:0:
278,170,131920,2,0,P|325:175|363:208,1,100,2|8,0:0|0:0,0:0:0:0:
394,284,132802,2,0,P|430:318|478:323,1,100,2|8,0:0|0:0,0:0:0:0:
464,244,133685,1,2,0:0:0:0:
436,168,134126,1,10,0:0:0:0:
472,96,134567,6,0,P|432:40|356:23,1,150,4|0,0:0|0:0,0:0:0:0:
316,29,135449,2,0,L|224:73,1,100,2|8,0:0|0:0,0:0:0:0:
285,131,136332,2,0,L|193:175,1,100,2|8,0:0|0:0,0:0:0:0:
140,236,137214,1,2,0:0:0:0:
60,220,137655,1,10,0:0:0:0:
24,144,138096,6,0,P|20:88|36:44,1,100,0|8,0:0|0:0,0:0:0:0:
116,52,138979,2,0,P|120:108|104:152,1,100,0|8,0:0|0:0,0:0:0:0:
60,218,139861,2,0,B|44:294|44:294|76:366,1,150
112,376,140743,1,2,0:0:0:0:
184,332,141185,1,10,0:0:0:0:
260,364,141626,6,0,P|298:313|286:232,1,150,4|0,0:0|0:0,0:0:0:0:
264,196,142508,2,0,P|251:142|261:98,1,100,2|8,0:0|0:0,0:0:0:0:
304,28,143390,2,0,L|404:28,1,100,2|8,0:0|0:0,0:0:0:0:
484,48,144273,1,2,0:0:0:0:
508,128,144714,1,10,0:0:0:0:
456,192,145155,6,0,L|356:192,2,100,2|8|2,0:0|0:0|0:0,0:0:0:0:
504,260,146479,1,8,0:0:0:0:
467,333,146920,2,0,P|395:359|326:331,1,150,2|0,0:0|0:0,0:0:0:0:
252,308,148023,2,0,L|248:368,2,50,0|8|0,0:0|0:0|0:0,0:0:0:0:
224,280,148685,6,0,P|229:229|263:189,1,100,4|8,0:0|0:0,0:0:0:0:
316,136,149567,2,0,P|314:86|287:44,1,100,2|8,0:0|0:0,0:0:0:0:
208,24,150449,2,0,L|104:40,1,100,2|8,0:0|0:0,0:0:0:0:
72,56,151111,2,0,P|36:122|55:190,1,150,2|8,0:0|0:0,0:0:0:0:
112,252,152214,5,0,0:0:0:0:
176,200,152655,1,8,0:0:0:0:
236,256,153096,1,0,0:0:0:0:
300,204,153537,1,8,0:0:0:0:
352,140,153979,2,0,P|378:227|345:273,1,150,2|0,0:0|0:0,0:0:0:0:
312,288,154861,5,2,0:0:0:0:
236,256,155302,1,10,0:0:0:0:
220,176,155743,1,4,0:0:0:0:
256,192,155964,12,0,157508,0:0:0:0:
364,264,169420,6,0,P|391:243|408:220,1,50,8|0,0:0|0:0,0:0:0:0:
420,196,169861,2,0,L|416:96,1,100,4|0,0:0|0:0,0:0:0:0:
336,72,170743,2,0,L|340:172,1,100,0|8,0:0|0:0,0:0:0:0:
276,224,171626,2,0,P|180:260|96:216,1,200,2|0,0:0|0:0,0:0:0:0:
68,140,172949,1,8,0:0:0:0:
88,60,173390,6,0,P|144:68|184:88,1,100,2|0,0:0|0:0,0:0:0:0:
261,87,174273,2,0,P|306:65|356:60,1,100,0|8,0:0|0:0,0:0:0:0:
436,84,175155,2,0,B|480:180|480:180|460:272,1,200,2|0,0:0|0:0,0:0:0:0:
400,328,176479,1,8,0:0:0:0:
324,296,176920,6,0,P|248:276|184:304,1,150,4|0,0:0|0:0,0:0:0:0:
152,328,177802,2,0,P|92:280|80:212,1,150,2|0,0:0|0:0,0:0:0:0:
92,172,178685,2,0,P|168:152|232:180,1,150,2|0,0:0|0:0,0:0:0:0:
264,204,179567,2,0,P|324:156|336:88,1,150,2|0,0:0|0:0,0:0:0:0:
324,48,180449,5,2,0:0:0:0:
244,64,180890,1,0,0:0:0:0:
168,36,181332,1,0,0:0:0:0:
128,108,181773,1,8,0:0:0:0:
128,108,181993,2,0,P|145:201|193:223,1,150,2|2,0:0|0:0,0:0:0:0:
200,144,183096,5,0,0:0:0:0:
256,88,183537,1,10,0:0:0:0:
312,32,183979,5,4,0:0:0:0:
448,112,184861,1,0,0:0:0:0:
448,272,185743,1,0,0:0:0:0:
312,352,186626,1,2,0:0:0:0:
256,296,187067,1,2,0:0:0:0:
200,352,187508,5,2,0:0:0:0:
64,272,188390,1,0,0:0:0:0:
64,112,189273,1,0,0:0:0:0:
200,32,190155,1,2,0:0:0:0:
256,88,190596,1,2,0:0:0:0:
312,32,191037,5,2,0:0:0:0:
426,146,191920,1,0,0:0:0:0:
312,259,192802,1,0,0:0:0:0:
199,146,193685,1,2,0:0:0:0:
256,92,194126,1,2,0:0:0:0:
313,146,194567,5,2,0:0:0:0:
256,202,195008,1,0,0:0:0:0:
312,259,195449,1,0,0:0:0:0:
256,315,195890,1,0,0:0:0:0:
200,371,196332,2,0,P|178:328|198:261,1,120,2|8,0:0|0:0,0:0:0:0:
220,228,197214,5,2,0:0:0:0:
288,188,197655,1,10,0:0:0:0:
322,114,198096,6,0,P|305:58|275:27,1,100,4|8,0:0|0:0,0:0:0:0:
196,28,198979,2,0,P|140:44|109:74,1,100,2|8,0:0|0:0,0:0:0:0:
80,148,199861,2,0,L|64:300,1,150,2|0,0:0|0:0,0:0:0:0:
88,332,200743,1,2,0:0:0:0:
160,372,201185,1,10,0:0:0:0:
224,320,201626,6,0,L|235:208,1,100,2|8,0:0|0:0,0:0:0:0:
172,168,202508,2,0,L|259:97,1,100,2|8,0:0|0:0,0:0:0:0:
240,24,203390,2,0,L|351:35,1,100,2|8,0:0|0:0,0:0:0:0:
400,92,204273,1,2,0:0:0:0:
348,156,204714,1,10,0:0:0:0:
392,224,205155,6,0,P|400:316|364:352,1,150,4|0,0:0|0:0,0:0:0:0:
324,368,206037,2,0,L|224:344,1,100,2|8,0:0|0:0,0:0:0:0:
168,288,206920,2,0,P|160:232|176:192,1,100,2|8,0:0|0:0,0:0:0:0:
236,136,207802,1,2,0:0:0:0:
292,76,208243,1,10,0:0:0:0:
232,20,208685,6,0,L|132:28,1,100,0|8,0:0|0:0,0:0:0:0:
156,108,209567,2,0,L|56:116,1,100,0|8,0:0|0:0,0:0:0:0:
16,190,210449,2,0,P|16:286|64:330,1,150
88,340,211332,1,2,0:0:0:0:
156,292,211773,1,10,0:0:0:0:
228,336,212214,6,0,L|376:368,1,150,4|0,0:0|0:0,0:0:0:0:
416,360,213096,2,0,P|452:324|468:272,1,100,2|8,0:0|0:0,0:0:0:0:
448,196,213979,2,0,L|338:172,1,100,2|8,0:0|0:0,0:0:0:0:
272,200,214861,1,2,0:0:0:0:
232,128,215302,1,8,0:0:0:0:
240,48,215743,6,0,P|296:20|336:20,1,100,2|8,0:0|0:0,0:0:0:0:
408,56,216626,2,0,P|457:52|500:27,2,100,2|8|2,0:0|0:0|0:0,0:0:0:0:
356,120,217949,1,8,0:0:0:0:
356,120,218170,1,0,0:0:0:0:
400,192,218611,2,0,L|440:224,2,50,0|8|0,0:0|0:0|0:0,0:0:0:0:
364,208,219273,6,0,P|316:224|268:212,1,100,4|8,0:0|0:0,0:0:0:0:
208,160,220155,1,2,0:0:0:0:
128,176,220596,1,8,0:0:0:0:
72,116,221037,2,0,P|49:159|54:208,1,100,2|8,0:0|0:0,0:0:0:0:
68,248,221699,2,0,L|204:324,1,150,2|8,0:0|0:0,0:0:0:0:
272,284,222802,5,0,0:0:0:0:
329,342,223243,1,8,0:0:0:0:
385,284,223685,1,0,0:0:0:0:
328,228,224126,1,8,0:0:0:0:
272,284,224567,2,0,P|180:296|136:264,1,150,2|0,0:0|0:0,0:0:0:0:
112,232,225449,5,2,0:0:0:0:
124,152,225890,1,10,0:0:0:0:
196,112,226332,1,2,0:0:0:0:
256,192,226552,12,0,228096,0:0:0:0:
