osu file format v9

[General]
AudioFilename: Idolmaster_Xenoglossia_-_Zankoku_yo_Kibou_to_Nare.mp3
AudioLeadIn: 0
PreviewTime: 67941
Countdown: 0
SampleSet: Normal
StackLeniency: 0.7
Mode: 0
LetterboxInBreaks: 0

[Editor]
DistanceSpacing: 1
BeatDivisor: 4
GridSize: 8

[Metadata]
Title:Zankoku yo Kibou to Nare
Artist:Yuuki Aira
Creator:shikyu
Version:Normal
Source:Idolm@ster Xenoglossia
Tags:jusufkala opening

[Difficulty]
HPDrainRate:3
CircleSize:4
OverallDifficulty:5
ApproachRate:5
SliderMultiplier:1.4
SliderTickRate:1

[Events]
//Background and Video events
0,0,"1.jpg"
//Break Periods
2,90043,97139
//Storyboard Layer 0 (Background)
//Storyboard Layer 1 (Fail)
//Storyboard Layer 2 (Pass)
//Storyboard Layer 3 (Foreground)
//Storyboard Sound Samples
//Background Colour Transformations
3,100,163,162,255

[TimingPoints]
4888,530.973451327434,4,1,0,40,1,0
8073,-100,4,1,0,5,0,0
9135,-100,4,1,0,60,0,0
15507,-100,4,1,0,40,0,0
18693,-100,4,2,0,60,0,0
34091,-100,4,2,0,80,0,0
34622,-100,4,1,0,60,0,0
51613,-100,4,1,0,70,0,0
55595,-100,4,1,0,60,0,0
57719,-100,4,1,0,70,0,0
62239,-100,4,1,0,50,0,0
68604,-100,4,1,0,100,0,1
68870,-100,4,1,0,80,0,1
77100,-100,4,1,0,80,0,1
88649,-133.333333333333,4,1,0,40,0,1
89843,-133.333333333333,4,1,0,60,0,0
99401,-100,4,2,0,40,0,0
102188,-100,4,1,0,40,0,0
102587,-100,4,1,0,70,0,0
102985,-100,4,1,0,60,0,0
104445,-100,4,2,0,60,0,0
115330,-100,4,1,0,60,0,0
149312,-100,4,1,0,80,0,1
157808,-100,4,1,0,60,0,1
161790,-100,4,2,0,60,0,1
166038,-100,4,1,0,60,0,1
169489,-100,4,1,0,40,0,1
170551,-200,4,1,0,40,0,0

[Colours]
Combo1 : 255,128,192
Combo2 : 5,240,5
Combo3 : 255,128,0
Combo4 : 0,0,160
Combo5 : 255,255,0

[HitObjects]
256,192,4888,12,0,8073
80,72,9135,5,4
248,72,9666,1,0
400,152,10197,2,8,B|440:176|440:224|400:240,2,105
328,112,11259,2,4,B|304:40|216:16|144:40|104:112,2,280
88,192,14180,1,0
88,272,14445,1,0
368,88,15507,6,0,B|392:136|392:136|368:184,4,105
288,72,17365,2,0,B|248:48|200:80,1,70
256,232,18162,1,0
256,312,18427,1,0
344,312,18693,5,8
448,192,19224,1,8
280,192,19755,1,0
256,360,20286,1,0
312,296,20551,2,0,B|264:240|264:240|208:304,1,140
184,208,21348,2,0,B|184:168,1,35
312,168,21879,2,0,B|392:168,2,70,8|0|0
312,256,22675,1,8
48,48,23737,5,0
136,48,24003,2,0,B|184:88|136:128|136:128|96:168|136:216|136:216|176:264|128:312,1,280,8|0
56,296,25330,2,0,B|24:256|56:200,1,70
208,192,26126,5,4
376,192,26657,2,0,B|400:232|376:272,1,70,0|0
256,144,27454,6,0,B|256:72,3,70
368,192,28781,2,0,B|440:192|440:192|464:192|480:176|480:144|480:144|480:0,1,280,8|0
312,64,30374,2,0,B|264:64|264:64|240:64|224:80|224:104|224:104|224:144,1,140
232,232,31171,2,0,B|120:232|120:336|232:336,1,210,8|0
256,192,32498,12,0,34091
72,80,34622,5,4
240,80,35153,1,8
408,80,35684,2,0,B|456:80|456:80|384:136|464:168|464:168|392:224|480:240,2,280
240,80,38339,6,8,B|176:144|248:208,1,140,0|0
408,192,39401,2,8,B|472:256|392:320,2,140
288,312,40994,1,0
408,192,41525,5,0
240,192,42056,1,0
264,360,42587,2,0,B|336:392|400:360,1,140,0|8
256,264,43649,2,0,B|488:192|256:120,1,280
208,56,44976,5,0
128,56,45241,2,0,B|88:112|88:112|128:176,1,140
200,128,46038,2,0,B|256:80|256:80|312:128,2,140
256,192,47365,12,0,48427
256,192,49489,12,4,51082
168,144,51613,6,0,B|288:72,2,140
168,312,53206,1,0
256,312,53472,1,0
256,232,53737,1,8
424,232,54268,5,0
256,192,54799,2,0,B|216:120|256:56,1,140,0|0
344,72,55595,1,0
432,72,55861,1,0
392,232,56392,1,4
312,232,56657,2,0,B|208:232|208:352|312:352,1,210
384,352,57719,5,0
408,272,57985,2,0,B|424:232|472:232|496:272,2,105,8|0|0
328,248,59047,1,0
416,104,59578,6,0,B|416:24|312:24|312:192|200:192|200:24|72:24|72:104,1,420
216,192,61702,1,0
384,192,62233,5,8
256,80,62764,1,8
424,72,63295,1,0
424,152,63560,2,0,B|424:224,1,70
336,224,64091,2,0,B|336:152,1,70
184,224,64888,1,0
64,104,65418,6,0,B|40:160|64:216,2,105,8|0|8
152,104,66480,2,0,B|176:160|152:216,1,105,8|8
72,296,67277,2,0,B|104:320|144:296,1,70,0|8
256,176,68073,1,0
424,160,68604,6,0,B|448:224|376:248,2,105
264,192,69931,1,0
176,192,70197,1,8
256,344,70728,1,8
336,192,71259,1,8
168,192,71525,2,0,B|168:272|168:272|224:272|264:232|296:280,1,210
376,272,72852,6,0,B|376:160,2,105,8|8|8
304,320,73914,2,0,B|168:240,1,140,8|0
120,192,74711,5,0
120,264,74976,2,0,B|64:264|16:192|56:120|128:120,1,210,8|4
256,192,76303,1,4
368,120,77100,6,0,B|424:120|464:152|464:216,2,140
280,120,78427,1,0
240,192,78693,1,8
320,192,78958,1,0
408,192,79224,1,0
272,288,79755,2,0,B|200:336|128:280,2,140
304,208,81082,6,0,B|344:192|376:208,1,70
208,192,81879,2,0,B|208:104,2,70,0|0|0
40,192,82941,1,12
192,128,83472,2,0,B|256:96|256:96|336:136,1,140
256,272,84534,1,0
112,192,85064,1,0
200,192,85330,5,0
256,128,85595,1,0
312,192,85861,2,0,B|312:240,1,35
184,224,86392,2,0,B|144:216|112:184|128:128|184:104,1,140
312,192,87454,1,0
256,128,87719,5,0
256,296,88250,1,0
184,192,88781,6,0,B|208:160|208:160|280:136|280:136|304:96,1,157.499995306134
336,48,89843,1,4
256,144,98339,5,0
360,232,99401,2,0,B|416:272|464:296,2,105
360,144,100463,2,0,B|336:104|304:88|264:88,2,105
144,288,101790,5,0
232,288,102056,2,0,B|288:288,1,35
352,192,102587,1,0
224,192,102985,1,0
96,192,103383,1,8
120,200,104445,6,0,B|56:200,2,35,0|0|2
288,192,105241,1,0
416,304,105772,1,2
344,256,106038,1,0
272,304,106303,1,2
200,256,106569,1,0
128,304,106834,1,8
56,256,107100,2,8,B|16:216|48:152|48:152|88:96|40:56,1,210,0|2
128,64,108162,6,0,B|168:64,2,35
128,152,108693,1,0
128,232,108958,1,0
296,232,109489,2,0,B|352:280|352:280|408:232,2,140,8|0|0
344,160,110817,1,2
400,96,111082,2,0,B|344:24|280:96,1,140
200,96,111879,1,0
176,192,112941,5,0
216,248,113206,2,0,B|216:296|280:296|280:248,1,105
424,48,114003,2,0,B|376:48|376:48|336:48|320:64|320:112|320:112|320:176,1,210
192,312,115330,2,0,B|256:360|320:312,1,140
304,144,116392,6,0,B|256:104|208:144,2,105,8|0|0
304,240,117454,2,0,B|256:288|208:240,2,105,8|0|8
144,192,118781,2,0,B|144:144|208:144,1,70,0|8
352,152,119578,2,0,B|440:152|440:264,2,140,0|0|4
104,192,121436,5,0
112,272,121702,2,0,B|240:184,1,140,8|0
376,120,122764,2,0,B|464:256,1,140,8|0
288,256,123826,2,8,B|240:200|320:176|240:104,2,140,8|0|8
440,192,125418,2,0,B|440:96|360:96,1,140,0|8
216,192,126480,6,0,B|312:192,1,70
256,360,127277,1,0
256,192,129932,12,0,131790
88,48,132321,6,0,B|176:48|176:136,2,140
384,256,133914,1,0
384,168,134180,1,0
304,168,134445,2,0,B|256:168|256:64|304:64,1,140,8|0
384,72,135241,2,0,B|424:104|384:144,1,70,0|8
256,32,136038,5,0
176,64,136303,1,0
176,152,136569,2,0,B|128:200|176:256,1,105
256,256,137365,2,0,B|256:176|160:176|160:72,1,210
240,72,138427,5,0
280,128,138693,2,0,B|336:152|384:128,1,105
408,200,139489,1,0
328,192,139755,2,0,B|280:192|280:280|216:280,2,140
160,192,141348,1,8
328,192,141879,2,0,B|376:120,2,70,0|0|8
240,192,142675,5,0
160,192,142941,2,0,B|112:120|168:56,1,140,0|8
224,112,143737,2,8,B|224:152,2,35,0|0|0
224,280,144534,1,8
392,264,145064,2,0,B|440:192|384:128,2,140
288,192,146657,1,0
160,192,146923,1,0
208,120,147188,5,8
312,192,147719,1,8
440,176,147985,2,0,B|488:208|440:240,1,70,8|8
352,96,148781,6,0,B|352:48|304:48|304:96|240:96,1,140
160,192,149843,1,0
256,280,150109,2,0,B|304:280|304:216|256:216|256:72,1,210
88,96,151436,2,8,B|48:160|88:232,2,140
240,176,153029,1,0
328,176,153295,5,0
328,176,153560,2,0,B|472:112,1,140,8|0
456,200,154357,1,0
456,280,154622,2,0,B|296:280,1,140,8|0
232,280,155418,5,0
144,280,155684,2,0,B|96:384|48:272,1,140,8|0
96,216,156480,1,8
96,48,157011,1,8
293,289,157808,6,0,B|272:224|312:144,2,140
232,192,159135,2,0,B|176:192|176:240,2,70,0|0|0
320,192,159932,2,0,B|400:192|400:192|456:128,2,140,8|8|8
232,192,161259,2,0,B|232:272,1,70
144,264,161790,5,0
200,328,162056,2,0,B|232:272|232:272|200:200,1,140
288,192,162852,1,0
376,192,163118,2,8,B|448:192|448:112,2,105
256,192,164180,12,2,165772
336,288,166303,5,0
192,48,166569,2,0,B|240:48,2,35
192,136,167100,1,0
200,304,167631,1,0
328,192,168162,6,0,B|328:232|280:232,1,70,0|8
112,232,168958,1,8
192,232,169489,2,0,B|344:232,1,140
400,232,170286,1,0
256,192,170551,12,4,173737
