osu file format v9

[General]
AudioFilename: Idolmaster_Xenoglossia_-_Zankoku_yo_Kibou_to_Nare.mp3
AudioLeadIn: 0
PreviewTime: 67941
Countdown: 0
SampleSet: Normal
StackLeniency: 0.7
Mode: 0
LetterboxInBreaks: 0

[Editor]
DistanceSpacing: 1.2
BeatDivisor: 4
GridSize: 8

[Metadata]
Title:Zankoku yo Kibou to Nare
Artist:Yuuki Aira
Creator:shikyu
Version:JK Insane
Source:Idolm@ster Xenoglossia
Tags:jusufkala

[Difficulty]
HPDrainRate:7
CircleSize:4
OverallDifficulty:8
ApproachRate:8
SliderMultiplier:1.6
SliderTickRate:1

[Events]
//Background and Video events
0,0,"1.jpg"
//Break Periods
2,90043,96527
2,174999,182545
//Storyboard Layer 0 (Background)
//Storyboard Layer 1 (Fail)
//Storyboard Layer 2 (Pass)
//Storyboard Layer 3 (Foreground)
//Storyboard Sound Samples
//Background Colour Transformations
3,100,163,162,255

[TimingPoints]
4888,530.973451327434,4,1,0,80,1,0
8073,-100,4,1,0,40,0,0
9135,-100,4,1,0,80,0,0
17631,-100,4,1,0,60,0,0
25197,-100,4,1,0,20,0,0
25595,-100,4,1,0,60,0,0
33560,-100,4,2,0,30,0,0
33826,-100,4,2,0,40,0,0
34091,-100,4,2,0,50,0,0
34224,-100,4,2,0,30,0,0
34357,-100,4,2,0,40,0,0
34622,-100,4,1,0,60,0,0
51613,-100,4,1,0,70,0,0
68604,-100,4,1,0,80,0,1
88516,-100,4,2,0,50,0,1
89843,-100,4,1,0,80,0,0
98339,-133.333333333333,4,2,0,50,0,0
102056,-133.333333333333,4,1,0,60,0,0
102587,-100,4,1,0,60,0,0
113206,-100,4,1,0,40,0,0
114268,-100,4,2,0,30,0,0
115330,-100,4,1,0,60,0,0
132321,-100,4,1,0,70,0,0
149312,-100,4,1,0,80,0,1
169489,-100,4,2,0,50,0,1
170551,-100,4,1,0,80,0,0
194976,-100,4,1,0,20,0,0
195374,-100,4,1,0,30,0,0
196038,-200,4,1,0,40,0,0
200286,-100,4,1,0,60,0,0
204534,-100,4,1,0,60,0,1
218339,-133.333333333333,4,1,0,40,0,0
219401,-100,4,1,0,60,0,0

[Colours]
Combo1 : 255,128,192
Combo2 : 5,240,5
Combo3 : 255,128,0
Combo4 : 0,0,160
Combo5 : 255,255,0

[HitObjects]
256,56,8073,1,0
256,104,8206,1,0
256,152,8339,1,0
256,200,8472,1,0
256,248,8604,2,0,B|256:304,4,40
440,192,9666,6,0,B|400:176|360:192,1,80,0|0
360,288,10197,2,0,B|400:312|448:288,1,80
440,192,10728,1,0
440,96,10994,2,0,B|376:96,2,40,0|8|0
248,96,11790,5,0
248,192,12056,1,0
248,288,12321,2,0,B|288:264|288:320|336:288,1,80
424,288,12852,2,0,B|424:344,4,40,0|0|0|0|12
232,288,13914,5,0
232,240,14047,1,0
232,144,14312,1,0
232,96,14445,1,0
128,192,14843,1,0
144,48,15241,2,0,B|88:96|160:136,1,80
192,96,16038,5,0
152,120,16171,1,0
128,160,16303,1,0
144,208,16436,1,0
184,240,16569,1,4
280,248,16834,2,0,B|352:320|424:240,1,160
344,184,17631,1,4
104,96,18693,5,0
160,176,18958,2,0,B|232:256|304:168,1,160
344,96,19755,1,0
440,96,20020,2,0,B|480:144|432:176,2,80
344,96,20817,1,0
248,96,21082,1,0
152,96,21348,2,0,B|72:96|72:200|160:200,1,160
232,200,22144,5,0
280,200,22277,1,0
280,296,22542,1,0
232,296,22675,1,0
144,264,22941,2,0,B|144:200,1,40,0|8
144,80,23472,1,0
240,80,23737,5,0
288,64,23870,1,0
336,80,24003,1,0
432,80,24268,2,0,B|400:112|456:112|432:168,1,80,0|8
432,208,24666,1,0
336,208,24932,1,0
288,224,25064,1,0
240,208,25197,2,0,B|176:208|152:144|192:104,1,120,0|0
256,72,25861,2,0,B|296:128|336:64,2,80,0|4|0
352,80,26657,5,0
400,96,26790,1,0
448,80,26923,1,8
448,176,27188,1,0
400,160,27321,1,0
352,176,27454,1,0
256,176,27719,1,0
160,176,27985,6,0,B|136:216|184:216|160:264,2,80
216,256,28781,1,8
312,256,29047,1,0
360,272,29180,1,0
408,256,29312,1,0
408,160,29578,2,0,B|368:144|368:144|328:160,3,80,0|8|0|0
232,160,30640,2,0,B|232:96,2,40
136,160,31171,1,4
328,160,31702,6,0,B|368:192|336:256,1,80
232,240,32233,1,0
232,240,32365,1,0
112,240,32631,1,0
112,240,32764,1,0
160,200,32896,1,0
160,200,33029,2,0,B|160:152,2,40
280,192,33560,5,0
320,168,33693,1,0
360,192,33826,1,0
400,168,33958,1,0
440,192,34091,1,0
480,168,34224,1,0
440,192,34357,1,0
400,168,34489,1,0
360,192,34622,1,4
32,96,35684,5,0
80,80,35817,1,0
128,96,35949,1,0
224,96,36215,2,0,B|264:72|304:96,2,80,0|8|0
224,192,37011,1,0
272,192,37144,1,0
368,192,37410,1,0
368,240,37542,1,0
368,336,37808,2,0,B|368:264,4,40,0|0|0|0|8
272,336,38604,2,0,B|344:336,2,40,0|0|0
272,240,39135,5,0
272,144,39401,1,0
176,160,39666,2,0,B|120:192|184:248,1,80,8|0
64,232,40197,1,0
240,304,40728,5,0
288,320,40861,1,0
336,304,40994,1,0
432,304,41259,2,0,B|376:304,2,40
432,208,41790,1,0
384,192,41923,1,0
336,208,42056,1,0
240,208,42321,2,0,B|208:176|200:232|160:208,4,80,0|8|0|8|0
336,208,43649,6,0,B|424:264|336:344,1,160
248,336,44445,1,0
56,336,44976,2,0,B|96:312|96:352|144:336,1,80
136,240,45507,1,0
232,240,45772,1,0
280,256,45905,1,0
328,240,46038,1,8
424,240,46303,2,0,B|448:200|424:152,2,80,0|8|0
328,240,47100,2,0,B|376:296,4,40,0|0|0|0|8
232,240,47896,5,0
232,144,48162,1,8
328,144,48427,2,0,B|360:128|360:128|416:152,2,80,0|8|0
328,240,49224,1,0
328,240,49357,1,0
328,240,49489,1,0
232,240,49755,1,0
184,240,49888,1,0
88,240,50153,2,0,B|88:192,1,40
88,104,50551,2,0,B|88:160,4,40,0|0|0|0|4
176,144,51348,1,0
272,144,51613,6,0,B|336:144|336:224,1,80
336,232,52011,1,0
304,272,52144,1,0
208,272,52410,1,0
160,272,52542,1,0
64,272,52808,1,0
112,272,52941,1,0
112,176,53206,2,0,B|112:240,2,40,0|8|0
208,176,53737,2,0,B|160:176,2,40,8|8|0
304,176,54268,2,0,B|320:264|416:176|416:296,2,160
304,80,55595,5,0
304,80,55728,1,0
304,80,55861,1,0
400,80,56126,1,0
440,104,56259,1,0
424,200,56525,1,0
392,232,56657,1,0
304,192,56923,2,8,B|288:144|256:192|224:136,2,80,8|8|0
208,216,57719,2,0,B|216:256|272:216|280:272,2,80
232,312,58516,2,0,B|208:280|168:336|144:256,2,80
328,296,59312,2,0,B|368:328|416:288,3,80
408,200,60374,6,0,B|376:240|336:200,1,80,0|8
408,136,60905,2,0,B|376:96|336:136,1,80,0|8
256,184,61436,1,0
160,184,61702,5,0
160,184,61834,1,0
160,184,61967,1,0
160,280,62233,1,0
160,232,62365,1,0
200,256,62498,1,0
296,256,62764,2,0,B|232:256,2,40,8|0|8
392,256,63295,2,0,B|336:256,2,40,0|8|0
392,160,63826,2,0,B|352:144|352:144|304:168,2,80
200,160,64888,5,0
384,160,65418,1,0
288,328,65817,1,0
192,160,66215,1,0
456,256,66480,1,0
144,256,66879,1,0
288,136,67277,1,0
288,232,67542,1,8
120,80,68073,5,0
88,112,68206,1,0
72,160,68339,1,0
88,208,68472,1,0
128,232,68604,1,4
224,232,68870,2,0,B|280:232,2,40
216,136,69401,2,0,B|296:80|360:144,2,160,8|0|0
216,232,70728,2,0,B|272:272,2,40
176,208,71126,2,0,B|128:168,3,40,0|8|0|8
48,176,71790,2,0,B|64:216|112:224,2,80,0|8|0
224,264,72852,5,0
224,264,72985,1,0
224,264,73118,1,0
320,264,73383,1,4
368,264,73516,1,0
368,120,73914,2,0,B|368:192,2,40
280,160,74445,1,8
328,160,74578,1,0
232,160,74843,2,0,B|168:160,2,40,0|0|0
136,160,75374,2,0,B|64:160,1,40,0|8
160,232,75772,2,0,B|216:208|216:304|216:304|264:216|320:288|320:288,1,240
416,176,76834,5,0
456,152,76967,1,0
416,128,77100,1,4
320,120,77365,6,0,B|280:96|240:120,1,80
176,192,77896,2,0,B|216:216|272:192,1,80
320,264,78427,2,0,B|272:248|272:304|216:264,1,80
144,264,78958,1,0
96,280,79091,1,0
48,264,79224,1,0
48,168,79489,2,0,B|48:232,4,40
48,72,80286,2,0,B|88:56|88:56|128:72,1,80,0|8
224,72,80817,1,0
320,72,81082,5,0
320,72,81215,1,0
320,72,81348,1,0
416,72,81613,1,0
416,72,81746,1,0
416,72,81879,1,0
368,152,82144,2,0,B|368:96,2,40,8|0|8
272,152,82675,2,0,B|232:176|184:152,2,80,0|8|0
368,152,83472,2,0,B|336:224|432:224|376:304,2,160,0|8|0
296,88,84799,5,0
256,56,84932,1,0
216,32,85064,1,8
208,80,85197,1,0
248,104,85330,1,8
288,128,85463,1,0
328,152,85595,1,0
416,184,85861,6,0,B|440:288|336:312,1,160
256,304,86657,2,0,B|216:320|168:304,2,80,0|0|8
328,240,87454,2,0,B|288:224|232:240,2,80
424,240,88250,1,8
424,48,88781,5,0
288,88,89180,1,0
384,192,89578,1,0
384,192,89843,1,4
256,88,97277,5,0
272,136,97410,1,0
256,184,97542,1,4
352,184,97808,5,0
336,136,97941,1,0
352,88,98073,1,4
424,88,98339,6,0,B|424:128,1,29.9999991059304,0|0
424,200,98737,2,0,B|424:248,1,29.9999991059304
424,304,99135,1,0
352,280,99401,2,0,B|304:256,2,29.9999991059304
288,248,99932,2,0,B|224:224,2,59.9999982118607
344,192,100728,2,0,B|272:160,2,59.9999982118607
392,136,101525,2,0,B|312:104,1,59.9999982118607
272,88,102056,5,0
264,120,102188,1,0
232,136,102321,1,0
224,168,102454,1,0
200,192,102587,1,8
264,264,102852,5,0
304,288,102985,1,0
368,216,103250,1,0
408,240,103383,1,8
424,144,103649,1,0
400,104,103781,1,0
376,64,103914,1,8
328,72,104047,1,0
280,88,104180,1,0
256,144,104445,5,0
272,192,104578,1,0
256,240,104711,1,0
160,240,104976,2,0,B|208:240,1,40
200,144,105374,2,0,B|200:216,3,40
200,88,106038,1,0
248,72,106171,1,0
296,88,106303,1,0
344,88,106436,2,0,B|400:88,3,40,0|0|0|4
344,176,107100,2,0,B|312:176|312:176|288:200|288:200|248:184,1,80
168,176,107631,1,8
168,272,107896,5,0
264,272,108162,1,0
312,280,108295,1,0
360,272,108427,1,0
360,176,108693,2,0,B|360:232,2,40,8|0|8
272,216,109224,2,0,B|272:168,2,40,0|8|0
176,216,109755,2,0,B|208:176|144:192|176:128,1,80,0|8
176,40,110286,1,0
224,40,110418,1,8
264,64,110551,1,0
352,104,110817,2,0,B|408:160|408:160|360:200|416:240|416:240|376:288,1,240
264,296,111879,5,0
264,296,112011,1,0
264,296,112144,1,8
264,296,112277,1,0
264,296,112410,1,8
168,296,112675,2,0,B|144:256|168:208,1,80,0|0
168,120,113206,2,0,B|200:88|240:120,2,80
72,120,114003,1,0
64,216,114268,5,0
48,264,114401,1,0
72,304,114534,1,0
112,328,114666,1,0
160,312,114799,1,0
184,272,114932,1,0
176,224,115064,1,0
144,192,115197,1,0
96,192,115330,1,4
104,96,115595,5,8
152,96,115728,1,0
248,96,115994,1,0
200,96,116126,1,8
248,176,116392,2,0,B|288:200|336:176,2,80,0|0|12
152,176,117188,1,0
144,272,117454,2,0,B|208:272,2,40
48,272,117985,2,0,B|112:272,2,40
48,176,118516,2,0,B|64:144|8:128|48:72,2,80,0|0|8
144,176,119312,1,0
192,192,119445,1,0
240,176,119578,1,0
280,264,119843,5,0
280,216,119976,1,8
280,120,120241,1,0
280,72,120374,1,8
184,72,120640,1,0
232,72,120772,1,0
104,136,121171,2,0,B|96:96|152:64,2,80,8|0|8
192,168,121967,2,0,B|200:224|144:248,2,80,0|8|0
256,240,122764,2,0,B|248:192|304:152,2,80,8|0|8
344,256,123560,2,0,B|424:240|456:96|312:80,1,240
232,88,124622,1,0
136,88,124888,6,0,B|120:128|120:128|136:176,1,80,8|0
232,168,125418,1,8
280,152,125551,1,0
328,168,125684,1,8
328,216,125817,2,0,B|376:216,1,40,0|8
368,312,126215,2,0,B|368:248,2,40
456,272,126746,1,0
472,224,126879,1,0
456,176,127011,1,0
456,80,127277,2,0,B|416:64|416:64|368:80,3,80
328,80,128206,1,0
280,80,128339,2,0,B|216:112|216:176|264:224,1,160
168,224,129135,5,0
136,192,129268,1,0
144,144,129401,1,8
216,80,129666,1,0
312,80,129932,2,0,B|280:120|312:176,1,80
400,160,130463,2,0,B|432:120|400:64,2,80
408,256,131259,2,0,B|368:280|328:256,1,80
232,256,131790,1,4
184,256,131923,2,8,B|136:256,3,40,0|8|0|8
184,168,132587,5,0
232,184,132719,1,0
280,168,132852,1,0
376,168,133118,2,0,B|424:208|424:264|368:320,1,160
280,304,133914,1,0
232,304,134047,1,0
192,280,134180,1,0
184,192,134445,2,0,B|128:152|136:64|224:48,1,160,0|8
304,64,135241,2,0,B|368:64,1,40,0|8
440,64,135640,2,0,B|440:128,6,40,0|8|0|0|0|0|0
392,64,136569,6,0,B|336:64|272:112|376:160|400:152,1,160,8|0
480,152,137365,2,0,B|424:152,2,40,0|8|0
384,152,137896,1,0
288,128,138162,1,8
192,152,138427,1,0
192,152,138560,1,0
192,152,138693,1,0
96,152,138958,2,0,B|64:184|96:240,2,80,0|4|0
96,56,139755,2,0,B|136:24|176:64,4,80,0|0|8|0|0
96,152,141082,5,0
144,152,141215,1,8
240,152,141480,1,0
240,200,141613,1,8
320,256,141879,1,0
368,256,142011,1,8
368,112,142410,1,0
296,56,142675,5,0
256,80,142808,1,0
272,128,142941,1,8
336,200,143206,1,0
384,192,143339,1,8
392,144,143472,1,0
384,48,143737,2,0,B|328:48,2,40
288,48,144268,2,0,B|256:32|256:80|208:48,1,80,0|4
112,48,144799,2,0,B|56:80|112:120,1,80
96,208,145330,5,0
192,208,145595,1,8
192,304,145861,1,0
288,304,146126,5,0
336,304,146259,1,0
432,304,146525,1,0
432,256,146657,1,8
336,304,146923,1,0
288,304,147056,1,0
240,304,147188,1,4
144,304,147454,2,0,B|136:280|136:280|144:256|144:256|144:224,3,80,0|8|0|8
136,128,148516,5,0
160,88,148649,1,0
192,56,148781,1,0
232,32,148914,1,0
272,56,149047,1,0
304,96,149180,1,0
328,136,149312,1,4
368,232,149578,5,0
368,232,149711,1,0
272,232,149976,1,0
272,232,150109,1,0
176,232,150374,2,0,B|152:240|152:240|120:232|120:232|96:232,2,80,0|0|8
104,168,151171,2,0,B|128:160|128:160|152:168|152:168|184:168,2,80
104,72,151967,2,0,B|104:128,1,40,8|0
192,72,152365,2,0,B|192:128,5,40,0|0|0|8|0|0
192,208,153295,5,0
168,168,153427,1,0
184,120,153560,1,8
264,72,153826,1,0
296,104,153958,1,0
352,184,154224,2,0,B|384:192|360:240,2,40,0|0|0
320,272,154755,1,0
280,248,154888,1,0
208,184,155153,2,0,B|144:176|168:112,4,80,8|0|0|0|8
280,120,156480,2,0,B|344:112|400:144|416:216,1,160
408,296,157277,5,0
368,328,157410,1,0
328,304,157542,1,0
344,256,157675,1,0
392,256,157808,1,0
384,160,158073,6,0,B|352:168|352:168|330:159|330:159|304:160,1,80
256,160,158472,1,0
208,160,158604,1,0
112,160,158870,1,0
112,208,159003,1,0
224,304,159401,1,0
272,288,159534,1,0
288,240,159667,1,0
352,168,159932,2,0,B|320:208,4,40,8|0|8|0|8
256,136,160728,2,0,B|228:156|200:152|200:152|184:192,3,80,0|8|0|8
280,224,161790,6,0,B|280:280,2,40
376,224,162321,1,0
472,224,162587,1,0
472,128,162852,1,0
424,128,162985,1,0
328,128,163250,1,0
280,128,163383,1,0
184,128,163649,6,0,B|144:104|104:128,1,80,12|0
152,208,164180,2,0,B|192:232|240:208,3,80,0|0|8|0
192,296,165241,2,0,B|152:288|152:288|112:296,1,80
64,208,165772,5,8
56,160,165905,1,0
72,112,166038,1,0
104,72,166171,1,0
152,56,166303,1,0
248,56,166569,5,0
296,72,166702,1,0
344,56,166834,1,0
352,152,167100,1,0
400,136,167233,1,0
448,152,167365,1,0
448,248,167631,2,0,B|424:232|400:272|368:248,3,80,0|8|0|8
272,248,168693,2,0,B|240:208|304:200|272:144,1,80,0|4
112,64,169224,5,0
112,64,169357,1,0
112,64,169489,2,0,B|104:96|104:96|112:120|112:144,1,80
208,144,170020,1,0
192,240,170286,2,0,B|128:264|192:328,1,80
264,328,170817,5,0
304,328,170949,1,0
384,328,171215,1,0
424,328,171348,1,0
448,256,171613,1,0
448,216,171746,1,0
448,136,172011,1,0
408,136,172144,1,0
304,88,172410,5,0
264,112,172542,1,0
280,160,172675,1,8
360,208,172941,1,0
384,248,173073,1,0
344,280,173206,1,0
248,280,173472,2,0,B|312:280,6,40,8|0|8|0|0|0|0
152,280,174534,2,0,B|112:256|112:304|56:280,1,80,0|4
256,192,183295,5,0
448,192,183826,1,8
352,192,184091,2,0,B|344:144|400:128,1,80
488,112,184622,2,0,B|496:64|440:48,1,80,0|8
352,48,185153,2,0,B|296:48,2,40
256,48,185684,2,0,B|216:56|216:56|192:40|192:40|160:48,2,80,0|8|0
256,144,186480,2,0,B|232:184|280:184|256:232,2,80,0|0|8
184,208,187277,2,0,B|160:240|176:280|216:280,1,80,0|4
288,256,187808,5,0
376,216,188073,1,8
464,256,188339,2,0,B|464:208,2,40
376,216,188870,2,0,B|352:192|352:160|384:128,1,80,0|8
464,128,189401,6,0,B|464:176,2,40
464,80,189799,1,8
416,80,189932,2,0,B|416:128,2,40,0|0|8
368,80,190330,1,0
320,80,190463,2,0,B|320:136,2,40,0|8|0
272,80,190861,2,0,B|272:24,2,40,0|8|0
224,80,191259,1,0
248,120,191392,6,0,B|248:184,2,40,8|0|0
296,120,191790,1,8
344,120,191923,2,0,B|344:168,2,40,0|0|8
392,120,192321,1,0
440,120,192454,2,0,B|488:120,3,40,0|8|0|0
488,168,192985,1,8
440,168,193118,2,0,B|368:168,2,40,0|0|8
344,168,193649,1,4
256,184,193914,5,4
256,184,194047,1,4
256,184,194180,1,4
352,184,194445,1,4
352,184,194578,1,4
352,184,194711,1,4
448,192,194976,5,0
472,152,195109,1,0
464,104,195241,1,0
432,64,195374,1,0
384,64,195507,1,0
344,32,195640,1,0
304,64,195772,1,0
272,32,195905,1,0
240,32,196038,6,0,B|184:8|176:64,1,80,4|0
152,88,196834,2,0,B|128:112,1,20
168,136,197233,2,0,B|144:160,1,20
120,184,197631,1,0
88,216,197896,2,0,B|56:224|72:256,2,40
128,240,198693,2,0,B|152:256,1,20
184,168,198958,5,0
184,168,199091,1,0
232,200,199224,1,0
232,200,199357,1,0
280,168,199489,1,8
280,168,199755,1,8
320,288,199888,5,0
336,304,200020,1,0
360,304,200153,1,0
384,296,200286,1,4
416,232,200551,5,0
440,192,200684,1,0
416,152,200817,1,8
320,144,201082,1,0
280,168,201215,1,0
264,264,201480,1,0
240,304,201613,1,0
192,296,201746,1,0
128,224,202011,2,0,B|184:184,1,40
240,144,202410,2,0,B|192:176,4,40,8|0|0|0|0
328,192,203206,2,0,B|336:272|416:272|432:176,1,160,12|0
440,104,204003,5,0
432,56,204135,1,0
384,56,204268,1,0
376,104,204401,1,0
408,136,204534,1,4
408,232,204799,5,0
360,232,204932,1,0
264,232,205197,1,0
216,232,205330,1,0
168,232,205463,2,0,B|96:232,1,40,0|0
168,144,205861,2,0,B|208:160|208:160|256:144,2,80,0|4|0
168,48,206657,2,0,B|168:96,1,40
216,88,206923,2,0,B|216:40,1,40
264,48,207188,2,0,B|264:96,3,40,0|0|8|0
400,48,207985,2,0,B|360:40|360:40|304:48,1,80
400,104,208516,6,0,B|400:168,2,40,8|0|0
400,200,209047,1,0
400,248,209180,1,0
304,248,209445,1,0
304,200,209578,1,0
208,200,209843,2,0,B|184:224|232:224|208:280,2,80,0|0|8
208,104,210640,1,0
288,56,210905,2,0,B|208:16|104:64,3,160,0|4|0|0
200,120,212764,5,0
248,112,212896,1,0
272,152,213029,1,0
216,232,213295,1,0
232,280,213427,1,0
280,280,213560,1,0
368,248,213826,1,0
392,208,213958,1,0
408,112,214224,1,0
376,72,214357,1,0
280,64,214622,2,0,B|248:72|248:72|216:56|176:64,1,80,8|0
256,192,215153,12,0,217808
280,184,218339,5,0
248,168,218472,1,0
232,136,218604,1,0
240,104,218737,5,0
264,80,218870,1,0
296,72,219003,1,0
328,88,219135,5,0
344,120,219268,1,0
336,160,219401,1,4
