osu file format v9

[General]
AudioFilename: Idolmaster_Xenoglossia_-_Zankoku_yo_Kibou_to_Nare.mp3
AudioLeadIn: 0
PreviewTime: 67941
Countdown: 0
SampleSet: Normal
StackLeniency: 0.7
Mode: 0
LetterboxInBreaks: 0

[Editor]
DistanceSpacing: 1.2
BeatDivisor: 4
GridSize: 8

[Metadata]
Title:Zankoku yo Kibou to Nare
Artist:Yuuki Aira
Creator:shikyu
Version:Hard
Source:Idolm@ster Xenoglossia
Tags:jusufkala opening

[Difficulty]
HPDrainRate:5
CircleSize:4
OverallDifficulty:6
ApproachRate:7
SliderMultiplier:1.6
SliderTickRate:1

[Events]
//Background and Video events
0,0,"1.jpg"
//Break Periods
2,92167,96377
2,170751,173103
//Storyboard Layer 0 (Background)
//Storyboard Layer 1 (Fail)
//Storyboard Layer 2 (Pass)
//Storyboard Layer 3 (Foreground)
//Storyboard Sound Samples
//Background Colour Transformations
3,100,163,162,255

[TimingPoints]
4888,530.973451327434,4,1,1,80,1,0
9135,-100,4,1,1,70,0,0
17631,-100,4,1,1,60,0,0
24003,-100,4,2,1,60,0,0
27454,-200,4,1,1,40,0,0
28781,-200,4,2,1,60,0,0
34622,-100,4,1,1,60,0,0
49224,-100,4,1,1,40,0,0
68073,-100,4,1,1,80,0,0
68604,-100,4,1,1,80,0,1
77100,-100,4,1,1,60,0,1
85330,-100,4,1,1,80,0,1
85994,-100,4,1,1,60,0,1
89843,-100,4,1,1,30,0,0
97277,-100,4,1,1,50,0,0
98870,-100,4,1,1,5,0,0
99401,-100,4,1,1,20,0,0
102056,-100,4,1,1,40,0,0
102587,-100,4,1,1,40,0,0
115330,-100,4,1,1,60,0,0
148781,-100,4,1,1,60,0,0
149312,-100,4,1,1,80,0,1
153295,-100,4,1,1,60,0,1
157808,-100,4,1,1,60,0,1
170551,-100,4,1,1,60,0,0
174003,-100,4,1,1,80,0,0
195507,-100,4,1,1,40,0,0
198958,-100,4,1,1,60,0,0
200020,-100,4,1,1,50,0,0
203206,-100,4,1,1,80,0,0
204534,-100,4,1,1,80,0,1
205861,-100,4,1,1,60,0,1
208250,-100,4,1,1,60,0,1
218076,-200,4,1,1,40,0,0
219401,-100,4,1,1,60,0,0

[Colours]
Combo1 : 255,128,192
Combo2 : 5,240,5
Combo3 : 255,128,0
Combo4 : 0,0,160
Combo5 : 255,255,0

[HitObjects]
48,112,8604,1,0
80,80,8737,1,0
120,48,8870,1,0
160,80,9003,1,0
192,112,9135,1,0
384,112,9666,5,8
384,304,10197,1,0
384,112,10728,1,8
328,192,10994,1,8
328,288,11259,1,4
160,192,11790,1,0
256,24,12321,1,4
344,192,12852,5,0
304,216,12985,1,0
256,232,13118,1,0
208,216,13250,1,0
168,192,13383,1,4
256,24,13914,2,0,B|256:120,1,80
424,344,14976,6,0,B|376:344,2,40
344,296,15507,2,0,B|384:296,3,40
312,240,16038,2,0,B|312:184,3,40
248,208,16569,2,0,B|248:256,3,40
256,296,17100,2,0,B|296:296,3,40
152,208,17631,5,12
296,208,18029,1,0
440,208,18427,1,0
408,120,18693,2,0,B|408:72|408:72|304:72,1,120,8|0
192,80,19489,1,0
192,80,19755,1,8
192,176,20020,1,0
192,224,20153,1,0
336,224,20551,2,0,B|400:248|424:232|432:200|400:144,1,160,8|0
304,128,21348,1,0
264,112,21480,1,0
192,88,21879,5,0
96,88,22144,1,0
160,160,22410,1,0
256,160,22675,1,8
256,352,23206,1,0
328,288,23472,1,0
232,272,23737,1,8
184,272,23870,1,8
184,272,24003,6,0,B|128:272|104:312|104:312|64:256,2,160
64,168,25330,1,0
152,168,25595,1,0
256,168,26126,6,0,B|336:168,1,80,4|0
352,200,26923,1,4
408,136,27454,2,0,B|432:112,2,20
368,104,27985,2,0,B|408:64,1,40
304,80,28781,1,8
256,80,29047,1,0
304,168,29578,1,0
256,88,30109,5,0
256,304,30640,2,0,B|256:272,1,20
128,192,31171,1,0
128,288,31436,1,8
128,192,31702,1,0
176,192,31834,1,8
224,192,31967,1,0
256,192,32233,12,0,34091
112,40,34622,5,4
192,40,34887,1,8
232,64,35020,1,0
248,104,35153,1,0
328,112,35418,1,8
392,56,35684,1,8
384,136,35949,5,0
384,136,36082,1,0
384,136,36215,2,0,B|272:192,1,120
280,240,36746,1,0
280,336,37011,2,0,B|280:296,2,40
280,240,37542,2,0,B|136:152,1,160
144,64,38339,2,0,B|144:120,1,40
160,216,38870,5,0
208,152,39135,1,0
216,112,39268,1,0
256,96,39401,1,0
352,168,39666,5,8
304,232,39931,1,0
296,272,40064,1,0
256,288,40197,1,8
160,216,40463,5,0
208,152,40728,1,0
216,112,40861,1,0
256,96,40994,1,0
392,192,41525,1,0
208,192,42056,2,0,B|48:192,1,160
48,280,42852,1,0
136,288,43118,5,4
232,288,43383,2,0,B|384:288|384:128,1,240
192,192,44711,1,0
288,192,44976,1,0
192,192,45241,6,0,B|112:256|192:336,1,160
256,264,46038,1,0
80,192,46569,1,0
272,192,47100,5,0
80,192,47631,2,0,B|32:192,4,40
336,64,49224,1,0
272,136,49490,2,0,B|184:16|184:264|184:264|104:264,1,320
64,168,50949,1,0
64,120,51082,1,4
240,192,51613,5,8
240,48,52011,1,8
368,120,52410,1,0
272,120,52675,1,0
96,192,53206,5,8
192,192,53472,1,0
288,192,53737,2,0,B|288:280|176:272,1,160
80,272,54534,1,0
80,176,54799,1,0
272,176,55330,1,8
256,192,55595,12,0,57454
104,112,57719,5,8
192,112,57985,1,8
336,112,58383,1,0
336,256,58781,1,0
288,192,59047,1,0
288,192,59180,2,0,B|240:272|248:128,1,120
128,24,60109,5,4
256,192,60640,1,8
384,24,61171,1,0
384,224,61702,1,0
272,224,61967,1,0
208,240,62233,2,0,B|208:168|256:144|320:152|344:184|336:232|344:288|240:288,1,320
48,288,63826,1,0
352,192,64357,5,0
256,56,64888,1,0
160,192,65418,2,0,B|216:136|264:192,2,120,4|0|4
160,280,66480,1,4
304,280,66879,1,4
336,192,67277,1,4
416,192,67542,1,4
144,192,68073,5,0
120,160,68206,1,0
96,128,68339,1,0
72,96,68472,1,0
48,64,68604,1,0
136,64,68870,1,8
176,64,69003,1,8
256,72,69268,1,0
256,112,69401,1,0
104,192,69932,1,0
184,192,70197,1,8
256,240,70463,5,0
336,240,70728,1,0
416,192,70994,2,0,B|416:256,1,40
344,192,71525,1,0
216,192,71790,2,0,B|200:104|96:96,1,160
256,48,72587,5,0
344,192,72852,1,8
176,192,73118,1,0
176,192,73250,1,0
416,192,73649,2,8,B|416:128,2,40,8|8|8
240,160,74180,2,0,B|240:224,1,40,0|0
424,48,74711,2,0,B|504:48,1,80,0|8
344,128,75241,2,0,B|304:128,1,40,0|8
56,128,75772,2,0,B|56:312,1,160,0|4
392,192,77100,5,0
256,192,77365,1,8
256,192,77498,1,8
256,48,77764,1,0
256,112,77896,2,0,B|416:112|416:112,1,160
416,240,78693,1,4
272,240,78958,1,0
256,192,79224,12,0,80817
256,304,81082,5,0
256,264,81215,1,0
256,224,81348,1,0
440,48,82144,5,0
440,136,82410,1,0
312,136,82808,1,0
200,192,83206,1,0
288,192,83472,2,0,B|432:128|432:128|280:32,1,320
248,296,85330,5,0
256,200,85595,2,0,B|232:152|160:176|160:176,1,80
184,120,85994,1,0
184,24,86259,1,0
200,72,86392,2,0,B|360:72,1,160
368,264,87454,5,0
280,216,87719,1,0
256,24,88250,1,0
400,144,88781,2,0,B|400:24,2,120
400,240,89843,5,0
216,192,90374,2,0,B|216:152,2,40
312,192,90905,1,8
408,192,91171,2,0,B|408:152,5,40
408,104,91967,1,12
40,48,97277,6,0,B|40:104,2,40
120,80,97808,2,0,B|120:24,2,40
208,80,98339,2,0,B|256:56|272:104|272:104|304:56|320:104|320:104|328:120,1,160
480,96,99401,5,0
480,176,99666,2,0,B|480:224,1,40
352,216,100197,1,0
264,216,100463,1,0
256,296,100728,2,0,B|200:296,1,40
96,296,101259,2,0,B|32:136,1,160
120,120,102056,2,0,B|144:168,1,40
288,192,102587,5,8
432,192,102985,1,8
304,256,103383,2,0,B|400:192|304:128,1,160,8|0
128,192,104445,6,0,B|88:192,1,40
88,144,104711,2,0,B|232:72,1,160
424,64,105772,2,0,B|424:144,1,80
456,232,106303,1,0
360,232,106569,2,0,B|272:280|256:304|288:344,1,160
96,336,107631,1,8
96,240,107896,5,0
192,240,108162,1,0
224,200,108295,1,0
256,168,108427,1,0
176,112,108693,1,0
80,112,108958,2,0,B|16:128|-16:144|-16:168|0:208|32:208,1,160
120,216,109755,2,0,B|280:216,1,160
448,216,110817,2,0,B|496:184|536:152|480:128|440:112,1,160
392,112,111480,1,0
232,112,111879,6,0,B|72:112,1,160,8|0
160,280,112941,1,0
256,280,113206,1,0
256,136,113604,1,0
256,280,114003,1,0
192,208,114268,2,8,B|192:120|80:120|80:120,1,160,8|0
256,312,115330,5,4
336,192,115728,1,8
256,72,116126,1,8
192,144,116392,6,0,B|192:264,1,120,8|0
64,192,117188,1,0
64,288,117454,1,8
160,288,117719,2,0,B|200:288,1,40
304,192,118250,2,0,B|144:192,1,160,8|0
144,96,119047,1,8
192,96,119180,1,8
336,96,119578,1,8
256,320,120109,5,8
256,64,120640,1,8
256,320,121171,1,8
224,232,121436,5,0
200,192,121569,1,0
224,152,121702,1,8
360,40,122233,1,0
464,192,122764,1,8
360,344,123295,1,0
192,312,123826,2,0,B|96:192|96:192|208:56,1,320,0|8
312,192,125418,1,0
224,192,125684,5,0
152,192,125949,2,0,B|152:32,1,160,8|0
232,32,126746,1,0
400,32,127277,1,0
400,192,127808,1,0
328,256,128073,1,0
256,192,128339,2,0,B|256:232,4,40
48,304,129401,5,0
128,304,129666,1,12
192,248,129932,1,0
272,280,130197,2,0,B|312:240|312:240|264:200,1,120
136,192,130994,1,0
224,192,131259,2,0,B|248:184|264:144|248:112|216:96,1,120,0|0
216,96,131790,1,4
56,56,132321,5,8
120,168,132719,1,8
176,280,133118,1,0
256,280,133383,1,0
256,112,133914,1,8
256,200,134180,1,0
256,280,134445,6,0,B|416:280,1,160,8|0
480,232,135241,1,0
472,152,135507,1,0
328,72,136038,1,8
408,72,136303,1,0
328,72,136569,1,0
208,72,136967,1,8
208,200,137365,2,0,B|216:272|256:304|256:304|304:272|312:200,1,240
392,200,138427,5,0
480,200,138693,1,0
424,80,139091,1,0
296,80,139489,1,0
296,168,139755,2,0,B|296:328,1,160
120,280,140817,2,0,B|120:192,2,80
128,112,141879,2,0,B|176:48,2,80
120,192,142675,5,0
208,192,142941,2,0,B|368:192,1,160
352,280,143737,2,0,B|352:224,2,40
440,280,144268,1,0
432,200,144534,2,0,B|320:80,1,160,0|4
168,104,145595,1,12
168,272,146126,5,8
72,192,146525,1,8
104,72,146923,1,8
184,72,147188,1,8
256,176,147587,1,4
384,176,147985,2,4,B|464:176,1,80
288,176,148781,6,0,B|288:216,4,40
368,192,149578,2,0,B|368:144,1,40
456,160,149976,2,0,B|456:208,1,40
288,192,150640,1,0
208,192,150905,1,8
208,104,151171,1,0
128,104,151436,2,0,B|128:192,1,80
128,224,151834,2,0,B|208:226,1,80
248,224,152233,2,0,B|336:88,2,160
248,224,153427,5,0
248,224,153560,1,0
344,232,153826,1,0
344,232,153958,2,0,B|480:232,1,120
464,184,154489,1,0
464,136,154622,1,0
368,176,154887,2,0,B|368:128,1,40
240,152,155418,6,0,B|152:152,1,80
168,240,155949,2,0,B|168:288,1,40
296,264,156480,2,0,B|320:160|168:160,1,160
72,336,157808,6,0,B|192:336,1,120
264,336,158472,1,0
264,336,158604,2,0,B|408:264,1,160
392,192,159401,2,0,B|296:192,2,80,8|0|0
472,192,160197,2,0,B|472:240,1,40
328,208,160728,1,0
336,192,160994,2,0,B|224:96|168:184,1,160
104,192,161790,5,0
144,176,161923,1,0
184,152,162056,2,0,B|296:56|296:56|336:232,1,320
336,336,163516,1,0
200,336,163914,1,0
200,248,164180,1,0
328,208,164711,1,0
336,192,165242,2,0,B|224:96|168:184,1,160
256,40,166038,5,8
256,40,166303,1,8
320,96,166569,1,0
296,128,166702,1,0
216,128,166967,1,0
192,88,167100,1,0
128,240,167631,5,0
288,192,168162,1,0
208,160,168427,2,0,B|120:248|152:320|248:320|368:256,1,320
456,304,169887,1,0
456,176,170286,1,0
400,240,170551,1,4
56,80,174003,5,0
136,104,174268,2,8,B|136:144,2,40
216,128,174799,2,0,B|328:136|376:160|400:240|200:240,1,320,8|0
104,296,176126,5,0
184,264,176392,1,8
216,288,176525,1,8
248,264,176657,1,8
280,288,176790,1,8
320,288,176923,2,0,B|440:240|320:192,1,160,8|0
280,192,177587,6,0,B|232:192,1,40
232,112,177985,2,0,B|136:112|136:112|128:168|88:-8|88:176|88:200,1,240,8|0
88,280,179047,1,0
256,280,179578,5,0
352,288,179843,1,8
352,240,179976,1,8
352,192,180109,1,8
264,192,180374,1,0
184,192,180640,6,8,B|184:232,4,40,8|0|8|0|8
176,112,181436,1,0
128,192,181702,2,8,B|128:240,3,40
88,232,182233,2,0,B|88:272,1,40,8|8
88,232,182498,6,0,B|88:152,1,80,8|0
144,192,183029,1,8
152,112,183295,2,0,B|192:48|256:32|304:48|352:88|352:120,1,240,8|8
472,144,184622,5,0
472,224,184887,2,0,B|472:288,1,40,8|0
432,264,185153,2,0,B|432:216,1,40,8|0
392,224,185418,2,0,B|232:224,1,160,8|0
256,184,186215,5,0
216,184,186348,1,0
176,184,186480,1,0
176,96,186746,1,0
216,96,186879,1,0
256,96,187011,1,0
264,16,187277,1,0
224,16,187410,1,0
184,16,187542,2,0,B|48:112,1,160,4|0
48,144,188206,2,0,B|48:184,2,40
240,96,188870,6,0,B|320:96,1,80,0|8
416,96,189401,1,0
416,144,189534,1,0
416,192,189666,2,0,B|416:256,5,40,0|0|0|0|8|0
368,232,190463,5,0
320,232,190595,1,0
272,232,190728,2,0,B|208:232,4,40,0|0|0|0|8
272,280,191392,2,0,B|272:344,1,40,0|0
224,320,191657,6,0,B|160:320,4,40
224,272,192321,1,8
224,224,192454,1,0
224,176,192587,1,0
272,176,192719,6,0,B|328:176,4,40
272,224,193383,1,8
272,272,193516,2,0,B|272:344,3,40
320,312,194047,2,8,B|392:304|424:288|432:232,1,120
424,168,194711,2,0,B|424:128,1,40
184,96,195507,5,0
184,120,195640,1,0
184,144,195772,1,0
184,168,195905,1,0
184,192,196038,1,0
240,192,196303,2,0,B|272:216,1,40
272,272,196702,1,0
272,272,196834,6,0,B|112:272,1,160
152,216,197631,2,0,B|232:216,2,80
152,296,198427,1,0
112,296,198560,1,0
112,216,198826,1,0
112,216,198958,2,0,B|264:152,1,160
336,152,199755,1,0
472,128,200020,6,0,B|472:208,1,80
376,192,200551,2,0,B|376:144,1,40
232,144,201082,2,0,B|232:192,2,40
232,48,201613,2,0,B|184:48,1,40
48,48,202144,5,0
48,144,202410,1,0
48,240,202675,2,0,B|48:280,1,40
192,280,203206,2,0,B|360:280,1,160,4|0
392,192,204534,5,0
264,192,204799,1,0
264,192,204932,1,0
352,112,205197,1,0
352,112,205330,2,0,B|224:16,1,160
144,72,206126,5,0
96,152,206392,1,0
192,152,206657,1,0
144,240,206923,1,0
144,240,207056,2,0,B|240:240,1,80
272,240,207454,2,0,B|431:200,1,160
432,104,208250,1,0
336,104,208516,6,0,B|336:152,2,40
144,96,209312,1,0
144,192,209578,1,0
144,288,209843,2,0,B|272:288,1,120
256,144,210640,1,0
256,240,210905,1,0
64,216,211436,2,0,B|320:24,1,320
416,32,212764,5,0
416,128,213029,1,0
344,192,213295,1,0
296,192,213427,1,0
200,192,213693,1,0
200,192,213826,2,0,B|200:360,1,160
384,288,214887,1,0
384,192,215153,2,8,B|384:32,3,160
384,192,217277,5,0
336,192,217410,1,0
336,296,217675,1,0
288,296,217808,1,0
320,56,218206,6,0,B|400:56,1,80
312,120,219135,2,0,B|264:120,1,40,0|4
