osu file format v9

[General]
AudioFilename: Sekai no Namida.mp3
AudioLeadIn: 2000
PreviewTime: 58928
Countdown: 0
SampleSet: Soft
StackLeniency: 0.7
Mode: 0
LetterboxInBreaks: 1

[Editor]
DistanceSpacing: 0.8
BeatDivisor: 8
GridSize: 8

[Metadata]
Title:Sekai no Namida (TV Size)
Artist:Yuuki Aira
Creator:Kenezz
Version:fbs's Hard
Source:True Tears
Tags:noe isurugi ending frost-b-spec heatkai kenezzedward

[Difficulty]
HPDrainRate:6
CircleSize:5
OverallDifficulty:6
ApproachRate:7
SliderMultiplier:2
SliderTickRate:2

[Events]
//Background and Video events
0,0,"BG.jpg"
Video,150,"Sekai no namida.flv"
//Break Periods
//Storyboard Layer 0 (Background)
//Storyboard Layer 1 (Fail)
//Storyboard Layer 2 (Pass)
//Storyboard Layer 3 (Foreground)
//Storyboard Sound Samples
//Background Colour Transformations
3,100,163,162,255

[TimingPoints]
1887,618.556701030928,4,2,1,60,1,0
15495,-100,4,2,1,20,0,0
30333,-100,4,2,1,30,0,0
40237,-100,4,2,1,40,0,0
58175,-100,4,2,1,50,0,0
58794,-100,4,2,1,60,0,0
59412,-100,4,2,1,70,0,0
60031,-100,4,2,1,70,0,1
69850,-100,4,2,1,70,0,0
69928,-100,4,2,1,70,0,1
78278,-100,4,2,1,60,0,0
83845,-100,4,2,1,40,0,0
87247,-100,4,2,1,35,0,0
87866,-100,4,2,1,30,0,0
88484,-100,4,2,1,20,0,0
89103,-100,4,2,1,10,0,0
89722,-100,4,2,1,5,0,0
90185,-100,4,2,1,0,0,0

[Colours]
Combo1 : 255,128,64
Combo2 : 255,128,128
Combo3 : 0,128,255

[HitObjects]
240,72,1886,2,0,B|304:80|328:128,1,100,8|0
376,184,2505,1,8
392,264,2814,1,2
392,344,3124,5,4
312,344,3433,2,0,B|192:344,1,100,0|8
144,304,4051,1,2
112,232,4361,2,0,B|48:264|32:336,2,100
144,160,5289,1,2
184,88,5598,6,0,B|112:40|48:64,2,100,8|0|0
264,104,6526,1,2
344,88,6835,2,0,B|392:56|464:48,2,100,8|0|0
344,88,7608,1,0
344,88,7763,1,2
320,160,8072,6,0,B|368:168|400:232,1,100,8|0
400,304,8691,2,0,B|352:296|320:232,1,100,8|2
256,200,9309,2,0,B|256:128,2,50,8|0|0
256,280,9928,1,2
256,360,10237,1,8
184,320,10546,2,0,B|112:320|72:360|56:368,2,100,8|0|2
176,240,11474,1,8
156,204,11629,1,0
124,180,11783,2,0,B|80:132|28:120,3,100,0|2|0|2
120,56,13021,6,8,B|272:16|424:56,1,300,8|2
472,112,14258,1,0
480,192,14567,1,10
456,264,14876,1,2
456,264,15031,1,0
360,192,15495,1,4
256,72,16113,6,0,B|256:184,2,100,8|0|2
184,40,17041,1,8
160,72,17196,1,0
136,104,17350,2,0,B|24:104,2,100,8|0|2
184,168,18278,1,0
232,232,18588,6,0,B|344:232,2,100,8|0|0
152,232,19515,1,8
112,240,19670,1,0
88,272,19825,1,2
80,352,20134,1,0
152,328,20443,2,0,B|208:304|248:352,1,100,8|2
320,352,21062,5,8
360,352,21216,1,0
400,336,21371,1,2
464,288,21680,1,8
464,208,21990,1,0
400,152,22299,1,8
360,136,22454,1,0
320,136,22608,1,2
248,160,22917,1,8
96,128,23536,6,0,B|144:56|192:40,2,100,8|0|0
72,160,24309,1,8
64,200,24464,1,2
64,240,24618,1,0
88,272,24773,2,0,B|48:328|32:400,2,100,8|0|2
256,80,25856,5,0
256,320,26319,1,2
352,192,26629,1,4
296,304,28175,6,0,B|368:304|368:376,2,100,8|0|2
216,304,29103,2,0,B|144:304|144:376,2,100,8|0|2
256,296,29876,1,8
256,256,30031,1,2
256,216,30185,1,8
256,176,30340,1,4
112,104,30959,6,0,B|112:40|208:40,2,100,8|0|0
112,144,31732,1,0
112,184,31887,1,2
112,264,32196,1,8
112,304,32350,1,0
112,344,32505,2,0,B|32:344|32:256,2,100,8|0|2
192,344,33433,6,0,B|296:344,1,100,8|0
224,296,34051,2,0,B|328:272,1,100,8|2
248,240,34670,2,0,B|360:184,1,100,8|0
256,184,35289,2,0,B|344:104,1,100,8|2
352,40,35907,6,0,B|424:56|408:128,1,100,8|0
416,152,36371,1,0
416,192,36526,1,2
400,272,36835,1,0
352,336,37144,1,8
312,352,37299,1,0
272,352,37454,1,2
200,320,37763,2,0,B|216:272|280:256,2,100,8|0|2
128,352,38691,5,0
112,272,39000,2,0,B|64:272|24:320,2,100,8|0|2
120,192,39928,1,8
120,152,40082,1,0
144,120,40237,1,4
216,88,40546,6,0,B|184:32|112:16,2,100,8|0|0
232,120,41319,1,0
256,152,41474,1,2
304,216,41783,2,0,B|336:272|408:288,2,100,8|0|0
280,184,42557,1,0
256,152,42711,1,2
200,208,43021,6,0,B|80:208,2,100,8|0|0
224,240,43794,1,0
248,272,43948,1,2
304,328,44258,2,0,B|416:328,2,100,8|0|0
272,304,45031,1,0
248,272,45185,1,2
320,232,45495,1,2
376,176,45804,6,0,B|376:112|312:80,1,100,8|2
320,16,46423,2,0,B|264:48|256:96,1,100,8|0
280,120,46887,1,2
296,160,47041,2,0,B|248:192|184:152,1,100,8|2
256,192,47660,12,4,49515
72,192,50134,5,0
152,192,50443,1,8
192,192,50598,1,0
232,192,50752,1,0
312,192,51062,1,2
392,192,51371,1,8
472,192,51680,2,0,B|472:320,2,100,8|0|0
448,160,52454,1,0
424,128,52608,1,2
360,80,52917,5,8
280,56,53227,1,8
240,48,53381,1,0
200,40,53536,1,2
136,88,53845,1,8
112,168,54155,6,0,B|48:200|8:240,2,100,8|0|0
152,168,54928,1,0
192,168,55082,1,2
264,208,55392,1,8
312,272,55701,1,0
312,352,56010,5,4
248,312,56319,2,0,B|80:312,2,150,8|0|0
256,192,57557,12,4,60031
256,320,60649,5,8
256,320,60959,1,0
192,280,61268,1,8
160,256,61423,1,0
120,240,61577,2,0,B|64:248|48:320,2,100,0|0|2
96,160,62505,1,8
96,160,62814,1,2
72,88,63124,5,8
112,72,63278,1,0
144,48,63433,2,0,B|104:0|48:24,2,100,8|0|2
192,112,64361,1,8
192,112,64515,1,0
192,112,64670,1,2
208,192,64979,1,4
448,192,65907,6,0,B|368:192,2,50,8|0|0
344,136,66680,1,2
256,48,67144,1,2
64,192,67454,5,8
248,336,67763,1,2
448,192,68072,1,8
256,48,68381,1,4
176,200,69000,6,0,B|56:200,2,100,8|0|0
216,200,69773,1,0
256,200,69928,1,4
336,200,70237,2,0,B|456:200,2,100,8|0|0
304,224,71010,1,0
280,256,71165,1,2
224,312,71474,2,0,B|88:312,2,100,8|0|0
200,280,72247,1,0
168,256,72402,1,2
88,256,72711,6,0,B|-16:256,2,100,8|0|0
88,216,73484,1,0
88,176,73639,1,2
88,96,73948,2,0,B|200:96,1,100,8|0
272,96,74567,1,8
312,104,74722,1,0
352,112,74876,1,2
416,160,75185,1,0
440,232,75495,1,8
440,312,75804,5,2
376,272,76113,2,0,B|288:272|288:376,2,150,8|0|0
376,272,77196,1,0
376,272,77350,1,2
376,192,77660,2,0,B|376:152|416:152,2,50,8|0|0
312,232,78278,1,0
240,272,78588,2,0,B|152:272|152:368,2,150,8|0|2
240,192,79825,2,0,B|152:192|152:96,2,150,4|0|2
256,192,81062,12,0,83536
255,192,84155,5,8
255,192,84464,1,0
255,107,84773,1,8
297,124,84928,1,0
323,158,85082,1,2
323,236,85392,1,8
255,275,85701,5,4
214,259,85856,1,0
188,225,86010,1,2
255,192,86319,1,2
255,192,86629,1,0
256,192,86938,12,0,90340
