osu file format v9

[General]
AudioFilename: Sekai no Namida.mp3
AudioLeadIn: 2000
PreviewTime: 58928
Countdown: 0
SampleSet: Soft
StackLeniency: 0.7
Mode: 0
LetterboxInBreaks: 1

[Editor]
DistanceSpacing: 1
BeatDivisor: 8
GridSize: 8

[Metadata]
Title:Sekai no Namida (TV Size)
Artist:Yuuki Aira
Creator:Kenezz
Version:Normal
Source:True Tears
Tags:noe isurugi ending frost-b-spec heatkai kenezzedward

[Difficulty]
HPDrainRate:3
CircleSize:3
OverallDifficulty:4
ApproachRate:4
SliderMultiplier:1.2
SliderTickRate:2

[Events]
//Background and Video events
0,0,"BG.jpg"
Video,150,"Sekai no namida.flv"
//Break Periods
//Storyboard Layer 0 (Background)
//Storyboard Layer 1 (Fail)
//Storyboard Layer 2 (Pass)
//Storyboard Layer 3 (Foreground)
//Storyboard Sound Samples
//Background Colour Transformations
3,100,163,162,255

[TimingPoints]
1887,618.556701030928,4,1,1,80,1,0
2041,-100,4,2,1,80,0,0
15495,-100,4,2,1,35,0,0
30340,-100,4,2,1,40,0,0
39618,-100,4,2,1,50,0,0
40237,-100,4,2,1,60,0,0
58175,-100,4,2,1,70,0,0
58794,-100,4,2,1,80,0,0
59412,-100,4,2,1,90,0,0
60031,-100,4,2,1,100,0,1
69850,-100,4,2,1,100,0,0
69928,-100,4,2,1,100,0,1
78278,-100,4,2,1,100,0,0
85701,-100,4,2,1,60,0,0
85849,-100,4,2,1,100,0,0
86629,-100,4,2,0,50,0,0
86783,-100,4,2,1,10,0,0

[Colours]
Combo1 : 255,128,64
Combo2 : 255,128,128
Combo3 : 0,128,255

[HitObjects]
256,96,1886,1,0
320,208,2505,1,0
256,232,2814,1,0
192,208,3124,6,0,B|152:264|192:320,1,120,4|8
312,320,4361,1,0
408,248,4979,2,0,B|448:192|408:136,1,120,8|0
288,136,6216,1,8
184,192,6835,1,0
216,248,7144,1,0
256,296,7454,1,8
312,176,8072,6,0,B|400:88,2,120,4|8|0
256,296,9928,1,8
200,176,10546,2,0,B|112:88,2,120,0|8|0
256,296,12402,1,8
256,192,13021,12,4,15495
72,192,16113,6,0,B|192:192,1,120,0|2
320,192,17350,1,0
320,72,17969,1,2
200,72,18588,2,0,B|144:104|112:160,1,120,0|2
112,280,19825,1,0
144,328,20134,1,0
200,336,20443,1,2
320,336,21062,6,0,B|320:272,2,60,0|0|2
200,336,22299,1,0
256,232,22917,1,2
336,144,23536,6,0,B|336:80|256:32|176:80|176:144,1,240
176,264,25392,1,2
256,352,26010,1,0
336,264,26629,1,2
192,72,27866,6,0,B|312:72,3,120,2|0|2|0
256,192,30340,5,4
136,192,30959,2,0,B|136:312,2,120,0|2|0
256,192,32814,1,2
376,192,33433,2,0,B|376:312,2,120,0|2|0
256,192,35289,1,2
144,144,35907,6,0,B|256:64|368:144,1,240
256,192,37763,1,2
384,320,38691,5,0
336,280,39000,1,2
288,320,39309,1,0
224,320,39618,1,2
176,280,39928,1,0
128,320,40237,5,4
128,200,40856,2,0,B|128:128|208:128,1,120,8|0
328,128,42093,2,0,B|368:184|328:240,1,120,8|0
256,336,43330,1,8
184,240,43948,1,0
208,120,44567,1,8
256,152,44876,1,0
304,184,45185,1,0
304,304,45804,6,0,B|360:272,1,60,8|0
440,192,46732,2,0,B|424:136,1,60,0|8
312,96,47660,1,0
256,112,47969,1,0
200,96,48278,1,8
256,200,48897,1,0
256,256,49206,2,0,B|256:320,1,60,0|8
360,256,50134,6,0,B|432:256|432:176,2,120,4|8|0
360,136,51990,1,8
360,136,52299,1,0
360,136,52608,1,0
240,128,53227,2,0,B|168:128|168:208,2,120,8|0|8
296,128,54773,1,0
352,128,55082,6,0,B|360:192,1,60,2|2
360,248,55701,2,0,B|312:296,1,60,8|0
256,296,56319,6,0,B|160:296,2,90,8|8|4
256,232,57557,1,0
256,112,58175,1,2
376,128,58794,2,2,B|376:250,1,120
256,296,60031,5,4
136,296,60649,2,0,B|72:248|136:200,1,120,8|0
256,192,61887,2,0,B|320:144|256:96,1,120,8|0
136,96,63124,5,8
136,160,63433,1,0
136,280,64051,1,0
200,280,64361,1,8
320,280,64979,2,0,B|368:280|368:280|376:272|376:272|376:288|376:288|384:280|384:280|416:280,2,120,2|8|0
200,280,66835,5,8
200,280,67144,1,0
200,280,67454,2,0,B|160:240|168:136|272:128|312:168,1,240
432,168,69309,1,8
432,232,69618,1,0
432,296,69928,5,4
312,304,70546,2,0,B|256:320|192:304,2,120,8|0|8
256,192,72402,1,0
192,88,73021,6,0,B|136:112|72:88,2,120,8|0|8
256,192,74876,2,2,B|256:256,2,60,2|2|8
320,88,76113,2,0,B|376:112|440:88,1,120,0|8
440,208,77350,6,2,B|368:272,2,90,2|8|2
376,104,78897,1,2
320,104,79206,1,8
272,136,79515,1,2
256,192,79825,6,0,B|184:240|112:192|112:72,2,240,4|0|0
256,192,82917,2,0,B|328:144|400:192|400:312,1,240,2|8
256,328,84773,5,0
256,328,85082,1,0
256,328,85392,1,8
256,328,85701,2,0,B|200:256|304:224|256:160,1,180,4|8
256,192,86938,12,0,90340
