osu file format v9

[General]
AudioFilename: Sekai no Namida.mp3
AudioLeadIn: 2000
PreviewTime: 58928
Countdown: 0
SampleSet: Soft
StackLeniency: 0.7
Mode: 0
LetterboxInBreaks: 1

[Editor]
DistanceSpacing: 1
BeatDivisor: 8
GridSize: 8

[Metadata]
Title:Sekai no Namida (TV Size)
Artist:Yuuki Aira
Creator:Kenezz
Version:Easy
Source:True Tears
Tags:noe isurugi ending frost-b-spec heatkai kenezzedward

[Difficulty]
HPDrainRate:1
CircleSize:3
OverallDifficulty:1
ApproachRate:2
SliderMultiplier:1
SliderTickRate:2

[Events]
//Background and Video events
0,0,"BG.jpg"
Video,150,"Sekai no namida.flv"
//Break Periods
//Storyboard Layer 0 (Background)
//Storyboard Layer 1 (Fail)
//Storyboard Layer 2 (Pass)
//Storyboard Layer 3 (Foreground)
//Storyboard Sound Samples
//Background Colour Transformations
3,100,163,162,255

[TimingPoints]
1887,618.556701030928,4,1,1,80,1,0
2041,-100,4,2,1,80,0,0
15495,-100,4,2,1,35,0,0
30340,-100,4,2,1,40,0,0
39618,-100,4,2,1,50,0,0
40237,-100,4,2,1,60,0,0
58175,-100,4,2,1,70,0,0
58794,-100,4,2,1,80,0,0
59412,-100,4,2,1,90,0,0
60031,-100,4,2,1,100,0,1
69850,-100,4,2,1,100,0,0
69928,-100,4,2,1,100,0,1
78278,-100,4,2,1,100,0,0
86629,-100,4,2,0,50,0,0
86783,-100,4,2,1,10,0,0

[Colours]
Combo1 : 255,128,64
Combo2 : 255,128,128
Combo3 : 0,128,255

[HitObjects]
256,328,1886,1,0
256,232,2505,1,0
312,152,3124,6,0,B|385:78,2,100,4|8|0
208,152,4979,2,0,B|134:78,1,100,8|0
64,152,6216,1,8
64,248,6835,2,0,B|96:288|152:288,1,100,0|8
176,192,8072,5,4
208,96,8691,2,0,B|208:48|208:48|224:24|288:24|304:48|304:48|304:96,1,200,8|8
328,192,10546,1,0
360,288,11165,2,0,B|416:288|448:248,2,100,8|0|8
256,192,13021,12,4,15495
304,304,16113,6,0,B|256:328|208:304,2,100,0|2|0
256,216,17969,1,2
208,128,18588,2,0,B|312:128,1,100,0|2
368,48,19825,1,0
408,144,20443,1,2
352,224,21062,1,0
256,256,21680,6,0,B|256:360,2,100,2|0|2
160,224,23536,2,0,B|100:120|208:56,1,200
312,56,25392,2,0,B|421:119|361:223,1,200,2|2
56,192,28484,5,0
56,192,29103,2,0,B|160:192,1,100,2|0
256,192,30340,5,4
344,144,30959,2,0,B|368:192|344:240,3,100,0|2|0|2
256,296,33433,5,0
168,248,34051,2,0,B|112:256|72:192|112:120|168:128,1,200,2|2
256,88,35907,5,0
344,128,36526,2,0,B|401:119|440:191|401:255|344:247,1,200,2|2
208,312,38691,6,2,B|280:184|128:200|208:80,1,250,0|4
304,80,40856,6,0,B|408:80,1,100,8|0
408,184,42093,2,0,B|308:184,1,100,8|0
344,280,43330,1,8
248,280,43948,2,0,B|128:280|128:152,1,200
176,64,45804,5,8
256,128,46423,1,0
336,64,47041,1,8
416,128,47660,2,0,B|416:232,3,100,0|8|0|8
352,304,50134,5,4
256,304,50752,1,8
160,304,51371,2,0,B|112:304|112:304|48:304|48:248|48:248|48:192,2,200
256,304,54464,1,8
208,216,55082,6,0,B|168:176,2,50,2|2|8
256,128,56319,2,0,B|256:48,2,75,8|8|4
304,128,57557,2,0,B|360:128|400:192|360:256|304:256,1,200,0|0
208,256,59412,1,8
256,344,60031,5,4
336,288,60649,1,8
264,224,61268,2,0,B|144:224|144:96,1,200
240,128,63124,1,8
216,32,63742,2,0,B|336:32|336:160,2,200,0|2|0
216,136,66835,1,8
216,240,67454,2,0,B|142:313,3,100,0|8|0|8
72,240,69928,5,4
72,144,70546,2,0,B|144:144|144:144|168:136|168:136|192:144|192:144|272:144,1,200,8|8
368,144,72402,1,0
368,240,73021,6,0,B|296:240|296:240|272:248|272:248|248:240|248:240|170:240,2,200,8|8|8
416,152,76113,1,0
320,152,76732,1,8
224,152,77350,6,2,B|167:95,2,75,2|10|2
456,216,79825,6,0,B|421:318|320:352,2,200,4|0|0
360,216,82917,1,2
256,216,83536,1,0
160,216,84155,1,8
144,120,84773,6,0,B|152:48|256:0|360:48|368:120,1,300,4|8
256,192,86938,12,0,90340
