osu file format v7

[General]
AudioFilename: HD OP Densetsu no Yuusha no Densetsu op.mp3
AudioLeadIn: 1500
PreviewTime: 55512
Countdown: 0
SampleSet: Soft
StackLeniency: 0.7
Mode: 0
LetterboxInBreaks: 0

[Editor]
Bookmarks: 700,7608,14514,21421,28327,35234,42138,49047,55951,62860,69766,76673
DistanceSpacing: 1.39999997615814
BeatDivisor: 4
GridSize: 8

[Metadata]
Title:LAMENT ~Yagate Yorokobi wo~ (TV size)
Artist:Yuuki Aira
Creator:EvianBubble
Version:Traveller
Source:Densetsu no Yuusha no Densetsu
Tags:The Legend of Legendary Heroes DenYuuDen

[Difficulty]
HPDrainRate:3
CircleSize:3
OverallDifficulty:2
SliderMultiplier:1.2
SliderTickRate:1

[Events]
//Background and Video events
0,0,"dyd_toplogo1.png"
Video,0,"1536kbps cropped.WMV"
//Break Periods
2,6079,12952
//Storyboard Layer 0 (Background)
//Storyboard Layer 1 (Fail)
//Storyboard Layer 2 (Pass)
//Storyboard Layer 3 (Foreground)
//Storyboard Sound Samples
//Background Colour Transformations
3,100,255,255,255

[TimingPoints]
700,431.654676258993,4,2,0,100,1,0
14083,-100,4,2,0,61,0,0
25522,-100,4,2,0,79,0,0
27896,-100,4,2,0,61,0,0
42138,-200,4,2,0,49,0,0
52068,-200,4,2,0,68,0,0
52932,-200,4,2,0,84,0,0
53795,-200,4,2,0,100,0,0
55951,-100,4,2,0,81,0,1
62860,-100,4,2,0,70,0,0
66950,-100,4,2,0,84,0,0
67814,-100,4,2,0,100,0,0
69764,-100,4,2,0,81,0,1
76673,-100,4,2,0,70,0,0

[Colours]
Combo1 : 255,15,9
Combo2 : 128,0,0
Combo3 : 0,119,176
Combo4 : 120,17,189

[HitObjects]
40,112,700,2,0,B|144:256|248:96|368:-8|472:128,1,480,2|2
424,328,4153,1,2
256,328,5016,1,2
88,328,5879,1,0
104,80,14512,5,2
296,80,15376,2,0,B|376:80|400:152,1,120,0|2
440,224,16239,2,0,B|432:304|352:312,1,120,0|2
320,312,16887,2,0,B|272:312|280:248,1,60,0|0
112,312,17966,5,2
112,120,18829,2,0,B|144:56|216:48,1,120,0|2
208,152,19692,2,0,B|288:176|320:104,1,120,0|2
296,72,20340,2,0,B|328:48|376:80,1,60,2|0
456,232,21419,6,0,B|424:304|344:328|280:296,1,180,2|0
256,304,22282,1,8
152,304,22714,1,8
88,224,23146,2,0,B|72:144|104:96,2,120,0|0|0
192,208,24441,1,8
296,184,24872,2,0,B|312:144|280:120,1,60
424,80,25735,5,2
352,256,26599,1,2
168,312,27462,1,2
88,136,28325,5,4
248,240,29189,2,0,B|320:256|336:152|416:144,1,180,2|2
440,128,30052,1,0
304,56,30699,2,0,B|304:104|248:96,1,60,0|2
168,96,31347,1,8
80,160,31779,5,0
80,264,32210,2,0,B|64:344|168:336,1,120,2|0
256,336,33074,1,8
360,304,33505,2,0,B|432:320|464:240,1,120,2|0
368,200,34369,2,0,B|328:136|384:88,1,120,0|8
280,48,35232,6,0,B|240:136|184:48,1,120,0|2
96,96,36095,1,0
64,200,36527,1,8
168,200,36958,6,0,B|216:152|288:176,1,120,2|0
384,144,37822,1,0
440,232,38253,1,8
344,280,38685,2,0,B|280:256|216:280,1,120,2|0
176,296,39333,2,0,B|144:320|112:296,1,60,0|2
416,72,41707,5,2
312,72,42138,2,0,B|256:56|216:128|128:80,1,180,4|0
80,152,43865,2,2,B|56:200,2,45
128,152,44728,1,2
216,152,45160,1,0
304,152,45592,6,0,B|376:144|400:176,1,90,8|0
416,208,46455,2,0,B|432:256|400:304,1,90,2|0
368,320,47318,2,0,B|352:280|312:304,3,60,2|0|0|8
256,248,49045,6,0,B|208:224|184:288,1,90,2|0
144,272,49908,1,2
72,176,50771,2,0,B|48:128|112:96,1,90,2|0
144,88,51635,1,2
264,80,52498,5,2
360,144,53361,1,2
424,240,54225,1,8
424,240,54656,1,4
240,296,55520,5,0
176,208,55951,2,0,B|128:256|136:304,2,90,4|0|2
304,144,57246,1,8
352,240,57678,2,0,B|424:192|448:104|368:56|312:56,1,240
232,64,58973,5,8
128,64,59405,2,0,B|80:128|152:168|112:240,1,180,2|0
160,272,60268,1,2
256,320,60700,1,8
360,320,61131,2,0,B|456:216|448:88,1,240,2|0
352,64,62426,1,0
336,168,62858,6,0,B|344:224|280:264,2,90,2|0|0
280,152,63721,1,2
72,144,64584,2,0,B|88:80|152:80,2,90,0|2|0
120,176,65448,1,0
280,72,66311,5,2
376,112,66743,1,0
296,184,67174,1,2
392,224,67606,1,0
312,296,68038,1,2
312,296,68469,1,4
128,312,69333,5,2
200,232,69764,2,2,B|176:176|112:184,2,90
184,88,71059,1,8
288,88,71491,2,0,B|352:56|440:80|464:160|456:208,1,240
352,184,72786,5,8
408,280,73217,2,0,B|295:317|240:256|240:168,1,240,2|0
144,216,74512,1,8
80,128,74944,2,0,B|152:80|248:88|272:104,2,180,0|0|8
168,184,76671,6,0,B|240:216|288:168,1,120,2|0
352,104,77534,2,0,B|424:136|416:208,1,120,2|0
336,264,78397,1,2
336,264,78829,1,4
144,264,79692,5,0
64,192,80124,2,0,B|32:120|80:56,1,120,2|0
144,144,80987,2,0,C|360:144|184:296|256:56|336:296|144:168,1,1200,2|0
256,192,86383,5,8
256,192,86815,1,4
