osu file format v7

[General]
AudioFilename: HD OP Densetsu no Yuusha no Densetsu op.mp3
AudioLeadIn: 1500
PreviewTime: 55512
Countdown: 0
SampleSet: Soft
StackLeniency: 0.7
Mode: 0
LetterboxInBreaks: 0

[Editor]
Bookmarks: 700,7608,14514,21421,28327,35234,42138,49047,55951,62860,69766,76673
DistanceSpacing: 1.39999997615814
BeatDivisor: 4
GridSize: 8

[Metadata]
Title:LAMENT ~Yagate Yorokobi wo~ (TV size)
Artist:Yuuki Aira
Creator:EvianBubble
Version:Legendary Hero
Source:Densetsu no Yuusha no Densetsu
Tags:The Legend of Legendary Heroes DenYuuDen

[Difficulty]
HPDrainRate:7
CircleSize:5
OverallDifficulty:7
SliderMultiplier:1.5
SliderTickRate:1

[Events]
//Background and Video events
0,0,"dyd_toplogo1.png"
Video,0,"1536kbps cropped.WMV"
//Break Periods
2,7806,13397
//Storyboard Layer 0 (Background)
//Storyboard Layer 1 (Fail)
//Storyboard Layer 2 (Pass)
//Storyboard Layer 3 (Foreground)
//Storyboard Sound Samples
//Background Colour Transformations
3,100,221,0,0

[TimingPoints]
700,431.654676258993,4,2,0,100,1,0
809,-100,4,2,0,70,0,0
2212,-100,4,2,0,100,0,0
2536,-100,4,2,0,70,0,0
3939,-100,4,2,0,100,0,0
6097,-100,4,2,0,70,0,0
25522,-100,4,2,0,80,0,0
28004,-100,4,2,0,70,0,0
42138,-200,4,2,0,60,0,0
52392,-200,4,2,0,71,0,0
53255,-200,4,2,0,85,0,0
54119,-200,4,2,0,100,0,0
55951,-100,4,2,0,82,0,1
62860,-100,4,2,0,70,0,0
67068,-100,4,2,0,85,0,0
67932,-100,4,2,0,100,0,0
69766,-100,4,2,0,80,0,1
76673,-100,4,2,0,70,0,0

[Colours]
Combo1 : 255,9,9
Combo2 : 155,0,0
Combo3 : 0,119,176
Combo4 : 120,17,189

[HitObjects]
48,56,700,1,2
120,56,915,1,0
192,56,1131,1,0
368,56,1563,1,0
416,112,1779,1,0
464,168,1994,1,0
464,320,2426,5,2
392,320,2642,1,0
320,320,2858,1,0
144,320,3289,1,0
96,264,3505,1,0
48,208,3720,1,0
144,128,4153,5,2
368,128,4584,1,0
192,264,5016,1,2
256,56,5448,1,0
320,264,5879,1,4
256,192,6203,12,4,7606
104,80,14297,5,0
144,80,14405,1,0
184,80,14512,2,0,B|240:64|264:104,1,75,2|0
280,160,14944,1,0
440,80,15376,1,2
440,176,15700,1,2
440,272,16023,1,2
368,240,16239,2,0,B|320:208|264:216|232:272,1,150
296,296,16887,1,0
296,296,17102,1,2
96,120,17750,6,0,B|120:80,1,37.5
152,64,17966,1,2
216,96,18182,1,0
280,64,18397,1,0
408,168,18829,2,0,B|368:184|384:240,1,75,2|0
448,240,19261,2,0,B|472:288|432:312,1,75
376,296,19692,2,0,B|336:256|264:256|216:288,1,150,2|2
272,336,20340,1,2
272,336,20556,1,0
72,56,21419,6,0,B|128:56|136:104,1,75,2|0
88,136,21851,1,0
152,160,22066,1,0
104,208,22282,2,0,B|120:256|176:264|208:224,1,112.5,2|0
272,176,22930,1,0
344,176,23146,5,2
400,136,23361,1,0
456,176,23577,1,0
432,240,23793,1,0
368,240,24009,1,2
400,304,24225,2,0,B|368:344|312:344|280:304|272:272,1,150,2|0
216,256,24872,1,2
176,272,24980,1,2
181,227,25088,1,2
416,112,25735,5,2
240,112,26167,1,0
376,216,26599,1,2
328,48,27030,1,0
280,216,27462,1,2
416,112,27894,1,0
344,112,28110,6,0,B|360:152,2,37.5,0|0|4
272,112,28541,1,0
200,112,28757,1,0
72,208,29189,2,2,B|40:160|56:88,2,112.5
144,208,30052,1,2
272,136,30484,1,0
328,176,30700,1,0
400,176,30915,1,2
400,176,31131,1,0
432,240,31347,1,8
432,240,31563,1,0
432,312,31779,5,2
336,304,32102,2,0,B|280:272|200:280,1,112.5,0|2
160,304,32642,1,0
56,208,33074,1,8
168,88,33505,5,2
216,200,33721,1,0
264,88,33937,1,0
152,136,34153,1,2
264,184,34369,1,2
216,72,34584,1,0
168,184,34800,1,8
280,136,35016,1,0
352,72,35232,6,0,C|392:64|424:96,1,75,2|0
424,128,35556,1,2
416,224,35879,1,0
328,288,36095,1,2
248,216,36311,1,0
168,280,36527,1,8
120,80,36958,6,0,B|160:104|144:152,1,75,2|0
40,152,37390,2,0,B|40:200|72:224,1,75,2|0
160,248,37822,1,0
320,216,38253,1,8
384,248,38469,1,0
424,192,38685,2,0,B|424:136|376:128,2,75,2|0|0
456,256,39333,1,2
416,312,39548,2,0,B|352:368|304:272|256:328,1,150,0|8
176,200,40412,5,2
216,80,40628,1,0
256,200,40843,1,0
152,128,41059,1,0
280,128,41275,1,4
424,72,41707,5,0
408,120,41923,1,0
360,152,42138,2,2,C|360:192,2,37.5,4|2|2
304,136,42786,1,0
256,112,43002,2,0,B|240:160|272:200,1,75,2|0
224,232,43649,1,0
264,272,43865,2,2,B|256:312|208:304,2,56.25
312,240,44728,1,2
408,240,45160,1,0
408,144,45592,5,2
376,72,45915,1,0
304,104,46239,1,0
272,152,46455,1,2
312,221,46779,1,0
248,264,47102,1,0
200,288,47318,2,0,B|152:296|144:240,1,75,2|0
64,192,48182,2,0,B|80:144|120:128,1,75,2|4
112,80,48829,5,0
144,88,48937,1,0
176,104,49045,2,0,B|216:88|224:136,1,56.25,2|0
192,184,49692,1,0
232,216,49908,1,2
232,216,50340,1,8
272,248,50556,5,0
304,232,50664,1,0
336,216,50771,2,0,B|344:248|392:240,1,56.25,2|0
400,176,51419,1,0
376,128,51635,2,0,B|352:96|320:104,1,56.25,2|0
264,112,52282,1,0
208,88,52498,6,0,B|176:72|168:96,1,37.5,2|0
168,120,52822,1,2
216,176,53146,1,2
256,208,53361,2,0,B|240:232|264:248,1,37.5,2|0
288,256,53685,1,2
360,240,54009,1,2
424,272,54225,1,8
424,272,54656,1,4
160,48,55520,5,0
64,144,55951,2,2,B|48:184|88:208,1,75,4|0
128,216,56275,1,2
216,184,56599,1,0
320,80,57030,1,0
384,96,57246,1,8
408,152,57462,1,0
368,152,57570,1,0
328,152,57678,2,0,B|296:248|400:256,1,150,0|2
256,336,58541,1,0
192,304,58757,6,0,B|144:328|128:280,2,75,0|8|0
160,240,59405,1,4
72,216,59728,1,2
120,144,60052,1,2
80,88,60268,2,0,B|128:56|184:72|192:144,1,150,2|0
296,248,61131,5,2
352,208,61347,1,0
408,168,61563,1,8
288,48,61994,1,2
232,88,62210,1,0
176,128,62426,1,8
136,184,62642,6,0,B|144:224,1,37.5
160,256,62858,2,2,B|216:224|272:248,2,112.5
112,304,63721,1,2
112,304,64153,1,8
176,328,64369,1,0
211,301,64476,1,0
248,328,64584,2,2,B|288:344|368:328,1,112.5
344,248,65232,1,2
408,272,65448,1,2
408,272,65879,1,8
464,232,66095,5,0
424,176,66311,2,0,B|408:120|360:120,1,75,2|0
344,144,66635,1,2
272,200,66958,1,2
208,224,67174,2,0,B|168:240|136:208,1,75,2|0
104,192,67498,1,2
64,112,67822,1,2
128,80,68038,1,2
128,80,68469,1,4
432,256,69333,5,0
360,112,69764,2,2,B|280:64|248:208|144:176,1,225
304,248,70843,1,0
240,272,71059,1,2
184,312,71275,1,0
152,280,71383,2,0,B|64:248|72:144,2,168.75
168,208,72570,6,2,B|192:152|248:184,2,75,0|2|2
128,152,73217,1,4
184,80,73541,1,2
264,120,73865,1,2
312,72,74081,2,0,B|384:104|368:200,1,150,2|0
440,320,74944,2,0,B|344:344|280:304,1,150,2|0
160,216,75807,1,2
120,272,76023,1,0
184,280,76239,1,8
336,184,76671,6,2,B|384:144|392:88,2,112.5
272,216,77534,1,2
184,192,77858,1,0
208,104,78182,1,0
272,128,78397,1,2
272,128,78829,1,4
192,352,79476,5,0
208,288,79692,1,2
140,299,79908,1,0
72,304,80124,2,0,B|32:248|48:152,1,150,2|0
56,96,80771,1,0
112,144,80987,2,0,C|400:144|160:328|256:48|360:328|112:168,1,1500,2|0
256,192,86383,5,8
256,192,86599,1,2
256,192,86707,1,0
256,192,86815,1,4
