osu file format v7

[General]
AudioFilename: HD OP Densetsu no Yuusha no Densetsu op.mp3
AudioLeadIn: 1500
PreviewTime: 55512
Countdown: 0
SampleSet: Soft
StackLeniency: 0.7
Mode: 0
LetterboxInBreaks: 0

[Editor]
Bookmarks: 702,7608,14512,21421,28327,35234,42138,49047,55951,62860,69764,76673
DistanceSpacing: 1.20000004768372
BeatDivisor: 4
GridSize: 8

[Metadata]
Title:LAMENT ~Yagate Yorokobi wo~ (TV size)
Artist:Yuuki Aira
Creator:EvianBubble
Version:Legend
Source:Densetsu no Yuusha no Densetsu
Tags:The Legend of Legendary Heroes DenYuuDen

[Difficulty]
HPDrainRate:5
CircleSize:4
OverallDifficulty:6
SliderMultiplier:1.4
SliderTickRate:1

[Events]
//Background and Video events
0,0,"dyd_toplogo1.png"
Video,0,"1536kbps cropped.WMV"
//Break Periods
2,6079,13247
//Storyboard Layer 0 (Background)
//Storyboard Layer 1 (Fail)
//Storyboard Layer 2 (Pass)
//Storyboard Layer 3 (Foreground)
//Storyboard Sound Samples
//Background Colour Transformations
3,100,221,0,0

[TimingPoints]
700,431.654676258993,4,2,0,100,1,0
917,-100,4,2,0,70,0,0
1996,-100,4,2,0,100,0,0
2644,-100,4,2,0,69,0,0
3723,-100,4,2,0,100,0,0
14081,-100,4,2,0,59,0,0
25522,-100,4,2,0,100,0,0
27896,-100,4,2,0,60,0,0
42138,-200,4,2,0,51,0,0
52392,-200,4,2,0,70,0,0
53255,-200,4,2,0,84,0,0
54119,-200,4,2,0,100,0,0
55951,-100,4,2,0,81,0,1
62860,-100,4,2,0,70,0,0
67068,-100,4,2,0,84,0,0
67932,-100,4,2,0,100,0,0
69766,-100,4,2,0,79,0,1
76673,-100,4,2,0,70,0,0

[Colours]
Combo1 : 255,9,9
Combo2 : 155,0,0
Combo3 : 0,119,176
Combo4 : 120,17,189

[HitObjects]
72,64,700,1,2
192,64,1131,1,0
192,184,1563,1,0
440,64,2426,5,2
320,64,2858,1,0
320,184,3289,1,0
440,320,4153,6,0,B|432:232|336:256,1,140,0|2
256,320,5016,2,0,B|176:336|144:232,1,140,0|2
72,320,5879,1,0
144,72,14297,6,0,B|144:112,2,35,2|0|0
144,192,14944,1,0
144,312,15376,1,2
240,312,15700,1,2
240,216,16023,1,2
320,216,16239,2,0,B|328:288|384:304|448:264,1,140
456,216,16887,1,0
456,216,17102,1,2
256,64,17750,5,0
320,112,17966,1,2
320,232,18397,1,0
200,232,18829,1,0
200,112,19261,1,2
288,48,19692,2,2,B|360:40|400:88|400:128,1,140,0|2
408,192,20340,1,0
408,192,20556,1,2
96,304,21419,5,0
96,208,21743,2,0,B|184:136|272:184,1,175,2|0
312,248,22606,1,2
400,296,22930,1,0
424,224,23146,1,2
288,64,23793,1,0
192,136,24225,2,2,B|128:88|72:128|48:176,1,140,2|0
128,192,24872,2,2,B|168:232,2,35
344,56,25735,5,2
48,216,26599,1,2
368,304,27462,1,2
400,72,28110,6,0,B|352:88,1,35
328,104,28325,1,4
208,104,28757,1,0
128,192,29189,2,0,B|168:240|240:232,1,105,2|0
288,200,29836,1,0
288,200,30052,1,2
72,56,30699,5,0
152,56,30915,1,2
272,56,31347,1,8
376,128,31779,2,2,B|376:208|304:248|224:200,1,210
144,200,32642,1,2
144,320,33074,1,8
272,320,33505,2,0,B|304:240|376:208,1,140,0|2
392,104,34369,2,0,B|344:56|248:56,1,140,0|8
144,48,35232,5,2
144,144,35556,1,0
144,240,35879,2,0,B|176:272|216:272,1,70,0|2
320,304,36527,1,8
400,216,36958,6,0,B|400:144|336:144,1,105,2|0
280,216,37606,2,0,B|232:208|248:160,1,70,0|2
248,72,38146,1,0
152,72,38469,1,0
112,136,38685,2,0,B|56:152|48:216|72:264,1,140,2|0
138,225,39333,1,2
200,184,39548,2,0,B|248:232|240:280|192:320,1,140,2|0
432,304,41707,6,0,B|384:304|376:232,1,70,2|0
408,192,42138,2,0,B|452:146|384:120,1,70,4|2
344,72,43002,2,0,B|296:64|288:112,1,70,0|2
216,64,43865,6,0,B|184:104|216:144,1,70,0|2
208,176,44512,1,0
256,192,44728,2,0,B|304:192|304:240,1,70,0|2
216,264,45592,6,2,B|256:312,2,52.5
168,280,46455,2,2,B|168:344,2,52.5
120,264,47318,1,8
80,112,48182,1,4
200,72,48829,5,0
240,104,49045,2,2,B|296:144,2,52.5
224,152,49908,1,2
336,224,50556,1,0
288,224,50771,2,0,B|240:264,2,52.5
288,176,51635,1,0
360,152,51958,1,0
408,96,52282,1,0
368,80,52498,5,2
296,72,52822,1,2
224,96,53146,1,2
192,136,53361,1,2
232,200,53685,1,2
160,216,54009,1,2
168,264,54225,1,8
168,264,54656,1,4
424,64,55520,5,0
384,184,55951,2,2,B|288:240|232:160|264:64,1,210,4|0
136,80,57030,1,0
96,152,57246,1,8
176,152,57462,1,0
248,184,57678,2,0,B|256:288|152:272,1,140,2|0
280,320,58541,1,2
360,320,58757,5,0
384,240,58973,1,8
320,192,59189,1,0
256,240,59405,2,0,B|184:256|152:192|192:144,1,140,2|0
256,144,60052,1,2
328,112,60268,2,0,B|384:136|424:104|400:32,1,140,2|0
280,48,61131,2,0,B|192:56|160:128,1,140,0|2
80,200,61994,2,0,B|120:272|208:232,1,140,0|2
248,176,62642,6,0,B|272:216,1,35
312,224,62858,2,2,B|376:216|384:296,2,105
320,144,63721,1,2
320,144,64153,1,2
256,96,64369,6,0,B|224:64,2,35
168,144,64908,2,0,B|120:104|48:152,1,105,2|0
48,216,65448,1,0
48,216,65879,1,0
120,256,66095,5,0
152,184,66311,2,0,B|192:128|264:176,2,105,2|0|2
200,248,67174,2,0,B|264:232|320:288,2,105,2|0|2
176,328,68038,1,2
176,328,68469,1,4
440,168,69333,5,0
352,88,69764,2,0,B|264:104|248:192,2,140,2|0|0
352,208,71059,1,8
424,304,71491,2,0,B|344:352|272:304,1,140
264,200,72354,1,0
216,264,72570,6,0,B|144:304,2,70,0|8|2
152,216,73217,2,2,B|88:216|64:264,2,105
168,136,74081,1,2
248,48,74512,1,8
368,80,74944,2,0,B|440:192|368:344|168:328|136:240,1,420,2|0
184,144,76671,6,0,B|229:103|297:132,2,105,2|0|2
224,216,77534,2,0,B|280:240|336:192,2,105,2|0|2
144,208,78397,1,2
144,208,78829,1,4
280,296,79476,5,0
208,336,79692,1,0
80,312,80124,2,0,B|48:272|32:232|56:168,1,140,2|0
64,104,80771,1,2
136,136,80987,2,0,C|392:144|168:320|264:48|352:320|120:168,1,1400,2|0
256,192,86383,5,8
256,192,86599,1,0
256,192,86815,1,4
