osu file format v7

[General]
AudioFilename: HD OP Densetsu no Yuusha no Densetsu op.mp3
AudioLeadIn: 1500
PreviewTime: 55512
Countdown: 0
SampleSet: Soft
StackLeniency: 0.7
Mode: 0
LetterboxInBreaks: 0

[Editor]
Bookmarks: 702,7608,14514,21421,28327,35234,42140,49047,55951,62860,69766,76673
DistanceSpacing: 0.699999988079071
BeatDivisor: 4
GridSize: 8

[Metadata]
Title:LAMENT ~Yagate Yorokobi wo~ (TV size)
Artist:Yuuki Aira
Creator:EvianBubble
Version:Hero
Source:Densetsu no Yuusha no Densetsu
Tags:The Legend of Legendary Heroes DenYuuDen

[Difficulty]
HPDrainRate:4
CircleSize:4
OverallDifficulty:4
SliderMultiplier:1.3
SliderTickRate:1

[Events]
//Background and Video events
0,0,"dyd_toplogo1.png"
Video,0,"1536kbps cropped.WMV"
//Break Periods
2,6079,12977
//Storyboard Layer 0 (Background)
//Storyboard Layer 1 (Fail)
//Storyboard Layer 2 (Pass)
//Storyboard Layer 3 (Foreground)
//Storyboard Sound Samples
//Background Colour Transformations
3,100,221,0,0

[TimingPoints]
700,431.654676258993,4,2,0,100,1,0
14083,-100,4,2,0,60,0,0
25522,-100,4,2,0,81,0,0
27896,-100,4,2,0,61,0,0
42138,-200,4,2,0,49,0,0
52392,-200,4,2,0,70,0,0
53255,-200,4,2,0,85,0,0
54119,-200,4,2,0,100,0,0
55951,-100,4,2,0,80,0,1
62860,-100,4,2,0,70,0,0
67068,-100,4,2,0,84,0,0
67716,-100,4,2,0,100,0,0
69766,-100,4,2,0,81,0,1
76673,-100,4,2,0,70,0,0

[Colours]
Combo1 : 255,9,9
Combo2 : 155,0,0
Combo3 : 0,119,176
Combo4 : 120,17,189

[HitObjects]
79,63,700,2,0,B|103:183|247:95|257:255,1,260,2|0
432,64,2426,2,0,B|408:184|264:96|251:260,1,260,2|0
408,320,4153,1,2
256,320,5016,1,2
104,320,5879,1,0
96,72,14297,5,0
152,72,14512,1,2
256,72,14944,1,0
360,72,15376,2,0,B|432:64|456:136,1,97.5,2|0
384,160,16023,2,0,B|336:184|336:232,1,65,0|2
344,304,16671,1,0
400,304,16887,1,0
400,304,17102,1,2
264,304,17750,5,0
208,304,17966,1,2
104,304,18397,1,0
104,200,18829,2,0,B|112:120|184:104,1,130,0|2
192,208,19692,2,0,B|272:208|280:128,1,130,0|2
320,104,20340,1,0
320,104,20556,1,2
152,72,21419,6,0,B|96:112|128:168,2,97.5,2|2|2
192,104,22282,1,2
240,168,22606,1,2
320,168,22930,2,0,B|368:144|384:200,1,65,0|2
376,280,23577,1,0
272,280,24009,1,0
216,280,24225,2,0,B|168:328|104:320|80:280,1,130,2|0
64,264,24872,2,2,B|32:304,2,32.5
128,136,25735,5,2
288,56,26599,1,2
432,160,27462,1,2
312,232,28110,6,0,B|352:232|352:288,1,65,0|4
264,320,28757,1,0
160,320,29189,2,0,B|88:280|96:224,2,97.5,2|2|2
192,280,30052,1,2
152,152,30699,1,0
208,152,30915,1,2
312,152,31347,1,8
416,152,31779,6,0,B|424:88|376:48,2,97.5,2|0|0
416,208,32642,1,2
416,312,33074,1,8
312,312,33505,2,2,B|256:264|184:336|120:304,2,195,0|0|8
312,208,35232,6,0,B|312:128|264:104,1,97.5,2|0
232,48,35879,2,0,B|208:96|160:56,1,65,0|2
72,64,36527,1,8
96,168,36958,2,0,B|128:224|192:208,1,97.5,2|0
184,304,37606,2,0,B|224:280|256:328,1,65,0|2
296,224,38253,1,8
368,304,38685,2,0,B|456:280|464:208,1,130,2|0
392,144,39548,2,0,B|376:64|288:48,1,130,2|0
80,320,41707,5,2
80,216,42138,2,0,B|48:184|96:152,1,65,4|2
144,176,43002,2,0,B|168:160|136:104,1,65,0|2
128,56,43865,2,0,B|160:24|192:56,1,65,0|2
224,96,44728,2,0,B|264:112|232:152,1,65,0|2
184,184,45592,6,2,B|128:208,2,48.75
208,224,46455,2,2,B|256:248,2,48.75
184,264,47318,1,0
344,192,48829,5,2
376,160,49045,2,2,B|400:104|344:64,1,97.5,2|2
240,88,50556,1,0
208,56,50771,2,2,B|160:48|120:96,1,97.5,2|2
120,136,51635,2,2,B|88:176|112:240,1,97.5
136,264,52498,5,2
272,288,53146,1,2
312,312,53361,1,2
360,200,54009,1,2
408,208,54225,1,8
408,208,54656,1,4
272,88,55520,5,0
168,88,55951,2,2,B|88:120|48:200|128:264,1,195,4|2
168,320,57030,1,0
224,320,57246,1,8
328,320,57678,2,2,B|408:312|456:232|392:176,2,195,2|2|2
280,232,59405,5,2
280,152,59728,1,2
200,152,60052,1,2
144,152,60268,2,0,B|80:128|88:80|152:32,1,130,2|8
232,56,61131,2,0,B|264:160|376:32|464:160,1,260
392,248,62642,5,2
368,296,62858,2,2,B|328:336|232:320|216:232,1,195
80,120,64369,1,0
128,96,64584,2,0,B|192:96|208:160,2,97.5,0|2|0
320,80,66095,5,2
368,112,66311,1,2
440,144,66635,1,8
440,224,66958,1,0
384,240,67174,1,2
432,304,67498,1,8
352,312,67822,1,0
296,312,68038,2,0,B|232:272|160:344|40:296|32:256,1,260,2|4
48,176,69333,5,0
104,88,69764,2,2,B|176:104|184:160,2,97.5
200,56,70843,1,0
256,56,71059,1,8
360,56,71491,2,0,B|448:112|456:208|344:256,1,260,0|2
312,160,72786,5,8
256,160,73002,1,0
200,160,73217,2,2,B|136:160|112:208,2,97.5
224,208,74081,2,2,B|296:200|304:296,1,130,2|8
400,312,74944,1,2
424,128,75807,1,0
248,72,76671,6,2,B|320:112|328:152,2,97.5
208,112,77534,2,0,B|240:168|240:240,1,130,2|8
304,312,78397,1,2
304,312,78829,1,4
120,312,79692,5,0
48,240,80124,1,2
96,112,80771,1,2
144,136,80987,2,0,C|384:136|184:304|264:48|344:304|152:160,1,1300,2|0
256,192,86383,5,8
256,192,86815,1,4
