osu file format v12

[General]
AudioFilename: LAMENT (TV Size).mp3
AudioLeadIn: 2000
PreviewTime: 55405
Countdown: 0
SampleSet: Soft
StackLeniency: 0.4
Mode: 0
LetterboxInBreaks: 0
WidescreenStoryboard: 0

[Editor]
DistanceSpacing: 2
BeatDivisor: 4
GridSize: 8

[Metadata]
Title:LAMENT ~Yagate Yorokobi wo~ (TV Size)
TitleUnicode:LAMENT~やがて喜びを~ (TV Size)
Artist:Yuuki Aira
ArtistUnicode:結城アイラ
Creator:Chloe
Version:Normal
Source:伝説の勇者の伝説
Tags:The Legend of the Legendary Heroes Densetsu no Yuusha no Densetsu
BeatmapID:278446
BeatmapSetID:106208

[Difficulty]
HPDrainRate:4
CircleSize:4
OverallDifficulty:4
ApproachRate:6
SliderMultiplier:1.2
SliderTickRate:1

[Events]
//Background and Video events
0,0,"Densetsu no Yuusha no Densetsu.png",0,0
//Break Periods
//Storyboard Layer 0 (Background)
//Storyboard Layer 1 (Fail)
//Storyboard Layer 2 (Pass)
//Storyboard Layer 3 (Foreground)
//Storyboard Sound Samples
//Background Colour Transformations
3,100,255,255,255

[TimingPoints]
585,431.654676258993,4,2,1,70,1,0
12671,-100,4,2,1,20,0,0
13750,-100,4,2,1,5,0,0
14182,-100,4,2,1,70,0,0
26484,-100,4,2,1,50,0,0
26915,-100,4,2,1,60,0,0
27347,-100,4,2,1,70,0,0
54326,-100,4,2,1,5,0,0
55405,-100,4,2,1,90,0,0
55836,-100,4,2,1,90,0,1
62527,-100,4,2,1,90,0,0
68031,-100,4,2,1,5,0,0
69218,-100,4,2,1,90,0,0
69649,-100,4,2,1,90,0,1
76556,-100,4,2,1,70,0,0
81304,-100,4,2,1,5,0,0
83462,-100,4,2,1,70,0,0
86915,-100,4,1,0,30,0,0
88642,-100,4,2,0,5,0,0

[Colours]
Combo1 : 219,48,233
Combo2 : 97,128,250
Combo3 : 0,213,213
Combo4 : 213,43,43

[HitObjects]
256,192,585,1,4,0:0:0:0:
256,192,800,1,0,0:0:0:0:
256,192,1016,1,2,0:0:0:0:
256,192,2311,5,4,0:0:0:0:
256,192,2527,1,0,0:0:0:0:
256,192,2743,1,2,0:0:0:0:
256,192,3606,5,2,0:0:0:0:
256,192,3822,1,0,0:0:0:0:
256,192,4038,2,0,P|232:288|154:324,1,180,4|2,0:0|0:0,0:0:0:0:
107,280,4901,2,0,P|131:184|209:148,1,180,0|8,0:0|0:0,0:0:0:0:
269,148,5764,2,0,L|397:148,1,120,4|0,0:0|0:0,0:0:0:0:
461,148,6412,1,2,0:0:0:0:
491,338,6843,6,0,P|401:361|298:337,1,180,0|4,0:0|0:0,0:0:0:0:
255,306,7707,1,0,0:0:0:0:
255,306,7923,2,0,L|179:324,2,60,8|0|2,0:0|0:0|0:0,0:0:0:0:
168,190,8786,2,0,L|92:208,2,60,8|0|2,0:0|0:0|0:0,0:0:0:0:
248,70,9649,5,8,0:0:0:0:
248,70,9865,1,0,0:0:0:0:
306,111,10081,2,0,P|357:158|407:209,2,120,2|8|4,0:0|0:0|0:0,0:0:0:0:
256,248,11376,1,8,0:0:0:0:
256,248,11808,2,0,L|256:313,2,60,2|0|0,0:0|0:0|0:0,0:0:0:0:
256,192,12455,12,0,13750,0:0:0:0:
343,102,14182,6,0,L|403:102,2,60,2|4|0,0:0|0:0|0:0,0:0:0:0:
270,102,14829,1,8,0:0:0:0:
161,196,15261,2,0,P|219:238|275:246,1,120,2|0,0:0|0:0,0:0:0:0:
337,246,15908,1,2,0:0:0:0:
409,246,16124,2,0,P|455:287|471:343,2,120,2|0|2,0:0|2:0|0:0,0:0:0:0:
302,343,17419,6,0,L|362:343,2,60,8|2|0,0:0|2:0|2:0,0:0:0:0:
157,343,18282,2,0,P|112:309|104:283,1,60,2|0,0:0|0:0,0:0:0:0:
85,239,18714,2,0,P|88:175|138:122,1,120,0|2,0:0|0:0,0:0:0:0:
184,97,19361,1,0,0:0:0:0:
254,82,19577,6,0,P|317:96|369:147,1,120,0|2,0:0|0:0,0:0:0:0:
401,189,20225,2,0,L|446:259,1,60,0|0,0:0|0:0,0:0:0:0:
327,334,20872,1,8,0:0:0:0:
205,257,21304,5,2,0:0:0:0:
128,333,21628,1,2,0:0:0:0:
51,256,21951,1,2,0:0:0:0:
51,183,22167,5,2,0:0:0:0:
127,106,22491,1,0,0:0:0:0:
203,182,22815,1,0,0:0:0:0:
205,257,23031,6,0,P|287:281|391:252,1,180,2|0,0:0|0:0,0:0:0:0:
425,206,23894,1,2,0:0:0:0:
425,206,24110,2,0,L|413:141,1,60,0|8,0:0|0:0,0:0:0:0:
358,101,24541,1,2,0:0:0:0:
287,117,24757,2,0,L|274:187,2,60,2|0|0,0:0|0:0|0:0,0:0:0:0:
149,72,25620,1,12,0:0:0:0:
39,165,26484,5,12,0:0:0:0:
175,207,26915,1,4,0:0:0:0:
287,117,27347,1,12,0:0:0:0:
423,161,27779,2,0,L|463:106,2,60,4|0|12,0:0|0:0|0:0,0:0:0:0:
312,253,28642,6,0,L|312:313,1,60,8|0,0:0|0:0,0:0:0:0:
245,341,29074,2,2,P|199:348|141:341,2,90,2|2|0,0:0|0:0|0:0,0:0:0:0:
312,313,29937,2,0,P|372:294|434:313,1,120,2|8,0:0|0:0,0:0:0:0:
466,247,30585,1,0,0:0:0:0:
476,176,30800,2,0,P|491:102|518:61,2,120,2|8|2,0:0|0:0|0:0,0:0:0:0:
374,138,31987,5,2,0:0:0:0:
273,176,32311,1,0,0:0:0:0:
218,222,32527,2,0,P|172:272|98:280,1,120,2|8,0:0|0:0,0:0:0:0:
61,153,33390,2,0,P|107:103|181:95,1,120,2|8,0:0|0:0,0:0:0:0:
274,176,34254,2,0,P|327:219|400:220,1,120,2|8,0:0|0:0,0:0:0:0:
512,185,35117,5,2,0:0:0:0:
484,289,35441,2,0,P|459:325|418:346,1,90,0|2,0:0|0:0,0:0:0:0:
349,327,35980,5,2,0:0:0:0:
243,229,36412,1,8,0:0:0:0:
135,327,36843,5,2,0:0:0:0:
72,242,37167,1,2,0:0:0:0:
135,155,37490,1,2,0:0:0:0:
207,155,37707,2,0,P|273:130|298:70,2,120,2|8|2,0:0|0:0|0:0,0:0:0:0:
192,35,39002,5,0,0:0:0:0:
335,24,39433,2,0,P|384:47|425:117,1,120,2|8,0:0|0:0,0:0:0:0:
464,237,40297,2,0,L|464:315,2,60,2|2|0,0:0|0:0|0:0,0:0:0:0:
391,237,40944,1,2,0:0:0:0:
391,237,41160,2,0,L|391:322,2,60,8|8|2,0:0|0:0|0:0,0:0:0:0:
318,237,41808,5,2,0:0:0:0:
318,237,42023,2,2,B|236:237|236:237|164:206|164:206|84:206,1,240,4|0,0:0|0:0,0:0:0:0:
225,129,43534,1,2,0:0:0:0:
225,129,43750,2,0,B|306:129|306:129|379:160|379:160|459:160,1,240,2|2,0:0|0:0,0:0:0:0:
364,50,45045,6,0,L|242:50,2,120,0|4|0,0:0|0:0|0:0,0:0:0:0:
436,50,46124,1,2,0:0:0:0:
436,50,46340,2,0,B|427:115|365:122|365:122|278:122,1,180,0|2,0:0|0:0,0:0:0:0:
223,122,47203,2,0,L|144:122,2,60,2|0|0,0:0|0:0|0:0,0:0:0:0:
127,230,48067,5,0,0:0:0:0:
247,309,48498,1,8,0:0:0:0:
318,301,48714,1,0,0:0:0:0:
389,288,48930,2,0,P|464:241|485:145,1,180,4|0,0:0|0:0,0:0:0:0:
354,98,50009,6,0,L|282:54,2,60,0|0|8,0:0|0:0|0:0,0:0:0:0:
417,132,50656,2,0,P|388:213|293:248,1,180,8|0,0:0|0:0,0:0:0:0:
246,207,51520,2,0,P|158:194|72:247,1,180,2|0,0:0|0:0,0:0:0:0:
91,307,52383,6,0,P|179:320|265:267,1,180,4|0,0:0|0:0,0:0:0:0:
246,207,53246,2,0,B|314:152|314:152|427:152,1,180,12|8,0:0|0:0,0:0:0:0:
478,152,54110,1,12,0:0:0:0:
256,192,54326,12,0,55405,0:0:0:0:
185,256,55836,6,0,P|216:304|271:328,1,120,4|8,0:0|0:0,0:0:0:0:
311,266,56484,1,0,0:0:0:0:
332,196,56700,2,0,P|301:148|245:123,1,120,0|8,0:0|0:0,0:0:0:0:
173,118,57347,1,0,0:0:0:0:
100,119,57563,2,0,P|89:196|125:234,2,120,0|8|0,0:0|0:0|0:0,0:0:0:0:
100,46,58642,6,0,L|243:46,1,120,2|0,0:0|0:0,0:0:0:0:
257,107,59290,2,0,P|275:143|337:172,2,90,2|2|0,0:0|0:0|0:0,0:0:0:0:
292,44,60153,2,0,B|362:72|441:61|441:61|471:99|466:164,1,240,2|0,0:0|0:0,0:0:0:0:
456,215,61232,1,0,0:0:0:0:
423,279,61448,1,8,0:0:0:0:
282,317,61879,5,0,0:0:0:0:
148,263,62311,1,8,0:0:0:0:
148,263,62527,2,0,L|148:176,2,60,0|6|0,0:0|0:0|0:0,0:0:0:0:
75,263,63174,1,2,0:0:0:0:
75,263,63390,2,0,L|75:135,1,120,0|0,0:0|0:0,0:0:0:0:
177,40,64254,6,0,L|177:110,2,60,0|4|0,0:0|0:0|0:0,0:0:0:0:
249,40,64901,1,2,0:0:0:0:
249,40,65117,2,0,L|249:162,1,120,0|0,0:0|0:0,0:0:0:0:
249,304,65980,1,0,0:0:0:0:
299,253,66196,5,6,0:0:0:0:
375,329,66520,1,10,0:0:0:0:
451,252,66843,1,8,0:0:0:0:
400,201,67059,5,14,0:0:0:0:
476,124,67383,1,10,0:0:0:0:
399,47,67707,1,8,0:0:0:0:
399,47,67923,5,6,0:0:0:0:
256,192,68031,12,8,69218,0:0:0:0:
370,260,69649,6,0,P|371:192|333:128,1,120,4|8,0:0|0:0,0:0:0:0:
277,135,70297,1,0,0:0:0:0:
205,140,70513,2,0,P|203:209|242:272,1,120,0|8,0:0|0:0,0:0:0:0:
281,300,71160,1,0,0:0:0:0:
348,326,71376,2,0,P|398:325|440:266,2,120,0|8|0,0:0|0:0|0:0,0:0:0:0:
281,300,72455,6,0,L|314:158,1,120,2|0,0:0|0:0,0:0:0:0:
328,113,73103,2,0,B|286:93|286:93|223:93,2,90,2|0|0,0:0|0:0|0:0,0:0:0:0:
378,164,73966,2,0,P|277:294|205:295,1,240,2|0,0:0|0:0,0:0:0:0:
144,276,75045,1,0,0:0:0:0:
99,219,75261,1,8,0:0:0:0:
183,102,75692,5,0,0:0:0:0:
315,44,76124,2,0,P|339:110|305:172,1,120,8|6,0:0|0:0,0:0:0:0:
271,205,76772,1,0,0:0:0:0:
271,205,76987,2,0,L|271:281,2,60,8|0|2,0:0|0:0|0:0,0:0:0:0:
126,205,77851,2,0,L|126:144,2,60,0|0|4,0:0|0:0|0:0,0:0:0:0:
144,338,78714,5,12,0:0:0:0:
144,338,78930,2,0,L|283:338,1,120,0|2,0:0|0:0,0:0:0:0:
336,338,79577,2,0,P|355:282|319:211,1,120,2|6,0:0|0:0,0:0:0:0:
192,64,80656,5,2,0:0:0:0:
192,64,80872,1,2,0:0:0:0:
256,192,81304,12,4,83462,0:0:0:0:
245,197,83894,5,8,0:0:0:0:
245,197,84110,2,0,P|303:208|361:255,1,120,2|0,0:0|0:0,0:0:0:0:
325,310,84757,2,0,P|267:299|209:252,1,120,8|4,0:0|0:0,0:0:0:0:
184,123,85620,6,0,L|263:123,2,60,2|0|8,0:0|0:0|0:0,0:0:0:0:
111,123,86268,1,8,0:0:0:0:
111,123,86700,5,12,0:0:0:0:
256,192,86915,12,0,88642,0:0:0:0:
